  0
SECTION
  2
HEADER
  9
$ACADVER
  1
AC1009
  9
$INSBASE
 10
0.0
 20
0.0
 30
0.0
  9
$EXTMIN
 10
6.6133615874938751
 20
1.7081459234454279
 30
-0.00000001
  9
$EXTMAX
 10
290.5963109056849
 20
184.36027788893469
 30
0.00000001
  9
$LIMMIN
 10
0.0
 20
0.0
  9
$LIMMAX
 10
297.0
 20
210.0
  9
$ORTHOMODE
 70
     0
  9
$REGENMODE
 70
     1
  9
$FILLMODE
 70
     1
  9
$QTEXTMODE
 70
     0
  9
$MIRRTEXT
 70
     0
  9
$DRAGMODE
 70
     2
  9
$LTSCALE
 40
1.0
  9
$OSMODE
 70
  3071
  9
$ATTMODE
 70
     1
  9
$TEXTSIZE
 40
0.2
  9
$TRACEWID
 40
0.05
  9
$TEXTSTYLE
  7
STANDARD
  9
$CLAYER
  8
0
  9
$CELTYPE
  6
BYLAYER
  9
$CECOLOR
 62
   256
  9
$DIMSCALE
 40
1.0
  9
$DIMASZ
 40
1.7999999999999989
  9
$DIMEXO
 40
0.0625
  9
$DIMDLI
 40
0.38
  9
$DIMRND
 40
0.0
  9
$DIMDLE
 40
0.0
  9
$DIMEXE
 40
0.18
  9
$DIMTP
 40
0.0
  9
$DIMTM
 40
0.0
  9
$DIMTXT
 40
0.25
  9
$DIMCEN
 40
0.09
  9
$DIMTSZ
 40
0.0
  9
$DIMTOL
 70
     0
  9
$DIMLIM
 70
     0
  9
$DIMTIH
 70
     1
  9
$DIMTOH
 70
     1
  9
$DIMSE1
 70
     0
  9
$DIMSE2
 70
     0
  9
$DIMTAD
 70
     0
  9
$DIMZIN
 70
     0
  9
$DIMBLK
  1

  9
$DIMASO
 70
     1
  9
$DIMSHO
 70
     1
  9
$DIMPOST
  1

  9
$DIMAPOST
  1

  9
$DIMALT
 70
     0
  9
$DIMALTD
 70
     2
  9
$DIMALTF
 40
25.399999999999999
  9
$DIMLFAC
 40
1.0
  9
$DIMTOFL
 70
     0
  9
$DIMTVP
 40
0.0
  9
$DIMTIX
 70
     0
  9
$DIMSOXD
 70
     0
  9
$DIMSAH
 70
     0
  9
$DIMBLK1
  1

  9
$DIMBLK2
  1

  9
$DIMSTYLE
  2
STANDARD
  9
$DIMCLRD
 70
     0
  9
$DIMCLRE
 70
     0
  9
$DIMCLRT
 70
     0
  9
$DIMTFAC
 40
1.0
  9
$DIMGAP
 40
0.09
  9
$LUNITS
 70
     2
  9
$LUPREC
 70
     4
  9
$SKETCHINC
 40
0.1
  9
$FILLETRAD
 40
0.0
  9
$AUNITS
 70
     0
  9
$AUPREC
 70
     0
  9
$MENU
  1
.
  9
$ELEVATION
 40
0.0
  9
$PELEVATION
 40
0.0
  9
$THICKNESS
 40
0.0
  9
$LIMCHECK
 70
     0
  9
$BLIPMODE
 70
     0
  9
$CHAMFERA
 40
0.0
  9
$CHAMFERB
 40
0.0
  9
$SKPOLY
 70
     0
  9
$TDCREATE
 40
2459167.7070486108
  9
$TDUPDATE
 40
2460325.7333444441
  9
$TDINDWG
 40
0.0006907639
  9
$TDUSRTIMER
 40
0.0006907639
  9
$USRTIMER
 70
     1
  9
$ANGBASE
 50
0.0
  9
$ANGDIR
 70
     0
  9
$PDMODE
 70
     0
  9
$PDSIZE
 40
0.0
  9
$PLINEWID
 40
0.0
  9
$COORDS
 70
     1
  9
$SPLFRAME
 70
     0
  9
$SPLINETYPE
 70
     6
  9
$SPLINESEGS
 70
     8
  9
$ATTDIA
 70
     0
  9
$ATTREQ
 70
     1
  9
$HANDLING
 70
 10241
  9
$HANDSEED
  5
1F91
  9
$SURFTAB1
 70
     6
  9
$SURFTAB2
 70
     6
  9
$SURFTYPE
 70
     6
  9
$SURFU
 70
     6
  9
$SURFV
 70
     6
  9
$UCSNAME
  2

  9
$UCSORG
 10
0.0
 20
0.0
 30
0.0
  9
$UCSXDIR
 10
1.0
 20
0.0
 30
0.0
  9
$UCSYDIR
 10
0.0
 20
1.0
 30
0.0
  9
$PUCSNAME
  2

  9
$PUCSORG
 10
0.0
 20
0.0
 30
0.0
  9
$PUCSXDIR
 10
1.0
 20
0.0
 30
0.0
  9
$PUCSYDIR
 10
0.0
 20
1.0
 30
0.0
  9
$USERI1
 70
     0
  9
$USERI2
 70
     0
  9
$USERI3
 70
     0
  9
$USERI4
 70
     0
  9
$USERI5
 70
     0
  9
$USERR1
 40
0.0
  9
$USERR2
 40
0.0
  9
$USERR3
 40
0.0
  9
$USERR4
 40
0.0
  9
$USERR5
 40
0.0
  9
$WORLDVIEW
 70
     1
  9
$SHADEDGE
 70
     3
  9
$SHADEDIF
 70
    70
  9
$TILEMODE
 70
     1
  9
$MAXACTVP
 70
    48
  9
$PLIMCHECK
 70
     0
  9
$PEXTMIN
 10
0.0
 20
0.0
 30
0.0
  9
$PEXTMAX
 10
297.0
 20
210.0
 30
0.0
  9
$PLIMMIN
 10
0.0
 20
0.0
  9
$PLIMMAX
 10
297.0
 20
210.0
  9
$UNITMODE
 70
     0
  9
$VISRETAIN
 70
     1
  9
$PLINEGEN
 70
     0
  9
$PSLTSCALE
 70
     1
  0
ENDSEC
  0
SECTION
  2
TABLES
  0
TABLE
  2
VPORT
 70
     2
  0
VPORT
  2
*ACTIVE
 70
     0
 10
0.0
 20
0.0
 11
1.0
 21
1.0
 12
148.6019675495358
 22
93.039780138106792
 13
0.0
 23
0.0
 14
1.0
 24
1.0
 15
0.0
 25
0.0
 16
0.0
 26
0.0
 36
1.0
 17
0.0
 27
0.0
 37
0.0
 40
183.94858300066571
 41
2.1654929577464781
 42
50.0
 43
0.0
 44
0.0
 50
0.0
 51
0.0
 71
     0
 72
   100
 73
     1
 74
     1
 75
     0
 76
     0
 77
     0
 78
     0
  0
ENDTAB
  0
TABLE
  2
LTYPE
 70
     1
  0
LTYPE
  2
CONTINUOUS
 70
     0
  3
Solid line
 72
    65
 73
     0
 40
0.0
  0
ENDTAB
  0
TABLE
  2
LAYER
 70
     2
  0
LAYER
  2
0
 70
     0
 62
     7
  6
CONTINUOUS
  0
LAYER
  2
DEFPOINTS
 70
     0
 62
     7
  6
CONTINUOUS
  0
ENDTAB
  0
TABLE
  2
STYLE
 70
     2
  0
STYLE
  2
STANDARD
 70
     0
 40
0.0
 41
1.0
 50
0.0
 71
     0
 42
0.2
  3
isocp.shx
  4

  0
STYLE
  2
NOTE_TEXT__ISO_
 70
     0
 40
0.0
 41
1.0
 50
0.0
 71
     0
 42
0.2
  3
txt
  4

  0
ENDTAB
  0
TABLE
  2
VIEW
 70
     0
  0
ENDTAB
  0
TABLE
  2
UCS
 70
     0
  0
ENDTAB
  0
TABLE
  2
APPID
 70
     3
  0
APPID
  2
ACAD
 70
     0
  0
APPID
  2
ACADANNOTATIVE
 70
     0
  0
APPID
  2
ACAD_MLEADERVER
 70
     0
  0
ENDTAB
  0
TABLE
  2
DIMSTYLE
 70
     2
  0
DIMSTYLE
  2
STANDARD
 70
     0
  3

  4

  5

  6

  7

 40
1.0
 41
0.18
 42
0.0625
 43
0.38
 44
0.18
 45
0.0
 46
0.0
 47
0.0
 48
0.0
140
0.18
141
0.09
142
0.0
143
25.399999999999999
144
1.0
145
0.0
146
1.0
147
0.09
 71
     0
 72
     0
 73
     1
 74
     1
 75
     0
 76
     0
 77
     0
 78
     0
170
     0
171
     2
172
     0
173
     0
174
     0
175
     0
176
     0
177
     0
178
     0
  0
DIMSTYLE
  2
DEFAULT__ISO_
 70
     0
  3

  4

  5

  6

  7

 40
1.0
 41
2.5
 42
2.0
 43
5.9999999999999991
 44
3.1749999999999989
 45
0.00000001
 46
10.0
 47
0.0
 48
0.0
140
2.5
141
0.09
142
0.0
143
0.03937
144
1.0
145
0.0
146
0.6000000238418579
147
0.762
 71
     0
 72
     0
 73
     0
 74
     0
 75
     0
 76
     0
 77
     1
 78
     0
170
     0
171
     3
172
     1
173
     0
174
     0
175
     0
176
   256
177
   256
178
   256
  0
ENDTAB
  0
ENDSEC
  0
SECTION
  2
BLOCKS
  0
BLOCK
  8
0
  2
$MODEL_SPACE
 70
     0
 10
0.0
 20
0.0
 30
0.0
  3
$MODEL_SPACE
  1

  0
ENDBLK
  5
72
  8
0
  0
BLOCK
 67
     1
  8
0
  2
$PAPER_SPACE
 70
     0
 10
0.0
 20
0.0
 30
0.0
  3
$PAPER_SPACE
  1

  0
ENDBLK
  5
6E
 67
     1
  8
0
  0
BLOCK
  8
0
  2
*D1
 70
     1
 10
0.0
 20
0.0
 30
0.0
  3
*D1
  1

  0
LINE
  5
1245
  8
0
 10
18.690072754253009
 20
140.76581180112069
 30
0.0
 11
18.690072754253009
 21
127.47563431594359
 31
0.0
  0
LINE
  5
1246
  8
0
 10
142.69007275425301
 20
140.76581180112069
 30
0.0
 11
142.69007275425301
 21
127.47563431594359
 31
0.0
  0
LINE
  5
1247
  8
0
 10
21.190072754253009
 20
130.65063431594359
 30
0.0
 11
140.19007275425301
 21
130.65063431594359
 31
0.0
  0
SOLID
  5
1248
  8
0
 10
21.190072754253009
 20
131.06730098261031
 30
0.0
 11
21.190072754253009
 21
130.23396764927691
 31
0.0
 12
18.690072754253009
 22
130.65063431594359
 32
0.0
 13
18.690072754253009
 23
130.65063431594359
 33
0.0
  0
SOLID
  5
1249
  8
0
 10
140.19007275425301
 20
131.06730098261031
 30
0.0
 11
140.19007275425301
 21
130.23396764927691
 31
0.0
 12
142.69007275425301
 22
130.65063431594359
 32
0.0
 13
142.69007275425301
 23
130.65063431594359
 33
0.0
  0
TEXT
  8
0
  40
2.5
  5
12D7
  72
0
  71
0
 10
75.6901
 20
128.574
 30
0.000000
  1
124,0
  7
NOTE_TEXT__ISO_
  0
POINT
  5
124B
  8
DEFPOINTS
 62
     0
 10
18.690072754253009
 20
142.76581180112069
 30
0.0
  0
POINT
  5
124C
  8
DEFPOINTS
 62
     0
 10
142.69007275425301
 20
142.76581180112069
 30
0.0
  0
POINT
  5
124D
  8
DEFPOINTS
 62
     0
 10
142.69007275425301
 20
130.65063431594359
 30
0.0
  0
ENDBLK
  5
135
  8
0
  0
BLOCK
  8
0
  2
*D2
 70
     1
 10
0.0
 20
0.0
 30
0.0
  3
*D2
  1

  0
LINE
  5
124E
  8
0
 10
142.69007275425301
 20
142.76581180112069
 30
0.0
 11
153.86507275425299
 21
142.76581180112069
 31
0.0
  0
LINE
  5
124F
  8
0
 10
89.190072754252995
 20
166.26581180112061
 30
0.0
 11
153.86507275425299
 21
166.26581180112061
 31
0.0
  0
LINE
  5
1250
  8
0
 10
150.69007275425301
 20
145.26581180112069
 30
0.0
 11
150.69007275425301
 21
163.76581180112061
 31
0.0
  0
SOLID
  5
1251
  8
0
 10
150.27340608758641
 20
145.26581180112069
 30
0.0
 11
151.10673942091969
 21
145.26581180112069
 31
0.0
 12
150.69007275425301
 22
142.76581180112069
 32
0.0
 13
150.69007275425301
 23
142.76581180112069
 33
0.0
  0
SOLID
  5
1252
  8
0
 10
150.27340608758641
 20
163.76581180112061
 30
0.0
 11
151.10673942091969
 21
163.76581180112061
 31
0.0
 12
150.69007275425301
 22
166.26581180112061
 32
0.0
 13
150.69007275425301
 23
166.26581180112061
 33
0.0
  0
TEXT
  8
0
  40
2.5
  5
12D8
  72
0
  71
0
 10
143.341
 20
150.091
 30
0.000000
  1
23,5
  7
NOTE_TEXT__ISO_
  0
POINT
  5
1254
  8
DEFPOINTS
 62
     0
 10
140.69007275425301
 20
142.76581180112069
 30
0.0
  0
POINT
  5
1255
  8
DEFPOINTS
 62
     0
 10
87.190072754252995
 20
166.26581180112061
 30
0.0
  0
POINT
  5
1256
  8
DEFPOINTS
 62
     0
 10
150.69007275425301
 20
166.26581180112061
 30
0.0
  0
ENDBLK
  5
20C
  8
0
  0
BLOCK
  8
0
  2
*D3
 70
     1
 10
0.0
 20
0.0
 30
0.0
  3
*D3
  1

  0
LINE
  5
1257
  8
0
 10
16.690072754253009
 20
144.76581180112069
 30
0.0
 11
9.2712981892913717
 21
144.76581180112069
 31
0.0
  0
LINE
  5
1258
  8
0
 10
16.690072754253009
 20
142.76581180112069
 30
0.0
 11
9.2712981892913717
 21
142.76581180112069
 31
0.0
  0
LINE
  5
1259
  8
0
 10
12.446298189291371
 20
147.26581180112069
 30
0.0
 11
12.446298189291371
 21
149.76581180112069
 31
0.0
  0
LINE
  5
125A
  8
0
 10
12.446298189291371
 20
140.26581180112069
 30
0.0
 11
12.446298189291371
 21
137.76581180112069
 31
0.0
  0
LINE
  5
125B
  8
0
 10
12.446298189291371
 20
144.76581180112069
 30
0.0
 11
12.446298189291371
 21
142.76581180112069
 31
0.0
  0
SOLID
  5
125C
  8
0
 10
12.029631522624699
 20
147.26581180112069
 30
0.0
 11
12.86296485595803
 21
147.26581180112069
 31
0.0
 12
12.446298189291371
 22
144.76581180112069
 32
0.0
 13
12.446298189291371
 23
144.76581180112069
 33
0.0
  0
SOLID
  5
125D
  8
0
 10
12.029631522624699
 20
140.26581180112069
 30
0.0
 11
12.86296485595803
 21
140.26581180112069
 31
0.0
 12
12.446298189291371
 22
142.76581180112069
 32
0.0
 13
12.446298189291371
 23
142.76581180112069
 33
0.0
  0
TEXT
  8
0
  40
2.5
  5
12D9
  72
0
  71
0
 10
5.09766
 20
139.341
 30
0.000000
  1
2,0
  7
NOTE_TEXT__ISO_
  0
POINT
  5
125F
  8
DEFPOINTS
 62
     0
 10
18.690072754253009
 20
144.76581180112069
 30
0.0
  0
POINT
  5
1260
  8
DEFPOINTS
 62
     0
 10
18.690072754253009
 20
142.76581180112069
 30
0.0
  0
POINT
  5
1261
  8
DEFPOINTS
 62
     0
 10
12.446298189291371
 20
142.76581180112069
 30
0.0
  0
ENDBLK
  5
2EE
  8
0
  0
BLOCK
  8
0
  2
*D4
 70
     1
 10
0.0
 20
0.0
 30
0.0
  3
*D4
  1

  0
LINE
  5
1262
  8
0
 10
183.95703883357751
 20
21.075762088575079
 30
0.0
 11
169.50322670611749
 21
12.730849765969721
 31
0.0
  0
LINE
  5
1263
  8
0
 10
203.04892192561431
 20
10.05305824605079
 30
0.0
 11
188.5951097981542
 21
1.7081459234454279
 31
0.0
  0
LINE
  5
1264
  8
0
 10
174.84329021557849
 20
13.313936870646801
 30
0.0
 11
189.60504628869319
 21
4.791233028122476
 31
0.0
  0
SOLID
  5
1265
  8
0
 10
175.05162354891189
 20
13.67478078889031
 30
0.0
 11
174.63495688224521
 21
12.95309295240328
 31
0.0
 12
172.67822670611741
 22
14.563936870646801
 32
0.0
 13
172.67822670611741
 23
14.563936870646801
 33
0.0
  0
SOLID
  5
1266
  8
0
 10
189.8133796220265
 20
5.1520769463659937
 30
0.0
 11
189.39671295535979
 21
4.4303891098789592
 31
0.0
 12
191.77010979815421
 22
3.541233028122476
 32
0.0
 13
191.77010979815421
 23
3.541233028122476
 33
0.0
  0
TEXT
  8
0
  40
2.5
  5
12DA
  72
0
  71
0
 10
178.357
 20
6.58953
 30
0.000000
  1
\W0.816;27,0
  7
NOTE_TEXT__ISO_
  0
POINT
  5
1268
  8
DEFPOINTS
 62
     0
 10
185.95703883357751
 20
22.230462626954338
 30
0.0
  0
POINT
  5
1269
  8
DEFPOINTS
 62
     0
 10
205.04892192561431
 20
11.207758784430039
 30
0.0
  0
POINT
  5
126A
  8
DEFPOINTS
 62
     0
 10
191.77010979815421
 20
3.541233028122476
 30
0.0
  0
ENDBLK
  5
3EE
  8
0
  0
BLOCK
  8
0
  2
*D5
 70
     1
 10
0.0
 20
0.0
 30
0.0
  3
*D5
  1

  0
LINE
  5
126B
  8
0
 10
271.6382797007094
 20
72.374958020997227
 30
0.0
 11
254.90693051460539
 21
82.034806977499997
 31
0.0
  0
LINE
  5
126C
  8
0
 10
183.95703883357751
 20
21.752170003478138
 30
0.0
 11
167.2256896474735
 21
31.412018959980951
 31
0.0
  0
LINE
  5
126D
  8
0
 10
255.9168670051443
 20
78.951719872822949
 30
0.0
 11
172.56575315693459
 21
30.828931855303889
 31
0.0
  0
SOLID
  5
126E
  8
0
 10
255.7085336718109
 20
79.312563791066452
 30
0.0
 11
256.12520033847761
 21
78.590875954579431
 31
0.0
 12
258.0819305146054
 22
80.201719872822935
 32
0.0
 13
258.0819305146054
 23
80.201719872822935
 33
0.0
  0
SOLID
  5
126F
  8
0
 10
172.35741982360119
 20
31.189775773547399
 30
0.0
 11
172.7740864902679
 21
30.468087937060371
 31
0.0
 12
170.40068964747351
 22
29.578931855303889
 32
0.0
 13
170.40068964747351
 23
29.578931855303889
 33
0.0
  0
TEXT
  8
0
  40
2.5
  5
12DB
  72
0
  71
0
 10
208.109
 20
52.4273
 30
0.000000
  1
\W0.816;124,0
  7
NOTE_TEXT__ISO_
  0
POINT
  5
1271
  8
DEFPOINTS
 62
     0
 10
273.6382797007094
 20
71.220257482617967
 30
0.0
  0
POINT
  5
1272
  8
DEFPOINTS
 62
     0
 10
185.95703883357751
 20
20.597469465098889
 30
0.0
  0
POINT
  5
1273
  8
DEFPOINTS
 62
     0
 10
170.40068964747351
 20
29.578931855303889
 30
0.0
  0
ENDBLK
  5
4D0
  8
0
  0
BLOCK
  8
0
  2
*D6
 70
     1
 10
0.0
 20
0.0
 30
0.0
  3
*D6
  1

  0
LINE
  5
1274
  8
0
 10
73.190072754252995
 20
157.51581180112061
 30
0.0
 11
73.190072754252995
 21
175.67653199930939
 31
0.0
  0
LINE
  5
1275
  8
0
 10
88.190072754252995
 20
157.5158118011208
 30
0.0
 11
88.190072754252995
 21
175.67653199930939
 31
0.0
  0
LINE
  5
1276
  8
0
 10
75.690072754252995
 20
172.50153199930941
 30
0.0
 11
85.690072754252995
 21
172.50153199930941
 31
0.0
  0
SOLID
  5
1277
  8
0
 10
75.690072754252995
 20
172.91819866597601
 30
0.0
 11
75.690072754252995
 21
172.08486533264269
 31
0.0
 12
73.190072754252995
 22
172.50153199930941
 32
0.0
 13
73.190072754252995
 23
172.50153199930941
 33
0.0
  0
SOLID
  5
1278
  8
0
 10
85.690072754252995
 20
172.91819866597601
 30
0.0
 11
85.690072754252995
 21
172.08486533264269
 31
0.0
 12
88.190072754252995
 22
172.50153199930941
 32
0.0
 13
88.190072754252995
 23
172.50153199930941
 33
0.0
  0
TEXT
  8
0
  40
2.5
  5
12DC
  72
0
  71
0
 10
75.6401
 20
170.424
 30
0.000000
  1
15,0
  7
NOTE_TEXT__ISO_
  0
POINT
  5
127A
  8
DEFPOINTS
 62
     0
 10
73.190072754252995
 20
155.51581180112061
 30
0.0
  0
POINT
  5
127B
  8
DEFPOINTS
 62
     0
 10
88.190072754252995
 20
155.5158118011208
 30
0.0
  0
POINT
  5
127C
  8
DEFPOINTS
 62
     0
 10
88.190072754252995
 20
172.50153199930941
 30
0.0
  0
ENDBLK
  5
5A6
  8
0
  0
BLOCK
  8
0
  2
*D7
 70
     1
 10
0.0
 20
0.0
 30
0.0
  3
*D7
  1

  0
LINE
  5
127D
  8
0
 10
18.69007275421966
 20
41.538907876796777
 30
0.0
 11
8.2878364028061693
 21
41.538907876796792
 31
0.0
  0
LINE
  5
127E
  8
0
 10
18.690072754219649
 20
68.538907876796785
 30
0.0
 11
8.2878364028061764
 21
68.538907876796785
 31
0.0
  0
LINE
  5
127F
  8
0
 10
11.46283640280617
 20
44.038907876796792
 30
0.0
 11
11.46283640280617
 21
66.038907876796785
 31
0.0
  0
SOLID
  5
1280
  8
0
 10
11.0461697361395
 20
44.038907876796792
 30
0.0
 11
11.879503069472831
 21
44.038907876796792
 31
0.0
 12
11.46283640280617
 22
41.538907876796792
 32
0.0
 13
11.46283640280617
 23
41.538907876796792
 33
0.0
  0
SOLID
  5
1281
  8
0
 10
11.046169736139509
 20
66.038907876796785
 30
0.0
 11
11.87950306947284
 21
66.038907876796785
 31
0.0
 12
11.46283640280617
 22
68.538907876796785
 32
0.0
 13
11.46283640280617
 23
68.538907876796785
 33
0.0
  0
TEXT
  8
0
  40
2.5
  5
12DD
  72
0
  71
0
 10
4.11420
 20
50.6139
 30
0.000000
  1
27,0
  7
NOTE_TEXT__ISO_
  0
POINT
  5
1283
  8
DEFPOINTS
 62
     0
 10
20.69007275421966
 20
41.538907876796777
 30
0.0
  0
POINT
  5
1284
  8
DEFPOINTS
 62
     0
 10
20.690072754219649
 20
68.538907876796785
 30
0.0
  0
POINT
  5
1285
  8
DEFPOINTS
 62
     0
 10
11.46283640280617
 20
68.538907876796785
 30
0.0
  0
ENDBLK
  5
6A8
  8
0
  0
BLOCK
  8
0
  2
*D8
 70
     1
 10
0.0
 20
0.0
 30
0.0
  3
*D8
  1

  0
LINE
  5
1286
  8
0
 10
18.690072754219649
 20
68.538907876796785
 30
0.0
 11
18.690072754219649
 21
81.867800429494864
 31
0.0
  0
LINE
  5
1287
  8
0
 10
43.440072754219649
 20
57.038907876796792
 30
0.0
 11
43.440072754219649
 21
81.867800429494864
 31
0.0
  0
LINE
  5
1288
  8
0
 10
21.190072754219649
 20
78.692800429494866
 30
0.0
 11
40.940072754219649
 21
78.692800429494866
 31
0.0
  0
SOLID
  5
1289
  8
0
 10
21.190072754219649
 20
79.109467096161538
 30
0.0
 11
21.190072754219649
 21
78.276133762828195
 31
0.0
 12
18.690072754219649
 22
78.692800429494866
 32
0.0
 13
18.690072754219649
 23
78.692800429494866
 33
0.0
  0
SOLID
  5
128A
  8
0
 10
40.940072754219649
 20
79.109467096161538
 30
0.0
 11
40.940072754219649
 21
78.276133762828195
 31
0.0
 12
43.440072754219649
 22
78.692800429494866
 32
0.0
 13
43.440072754219649
 23
78.692800429494866
 33
0.0
  0
TEXT
  8
0
  40
2.5
  5
12DE
  72
0
  71
0
 10
26.0651
 20
76.6190
 30
0.000000
  1
24,8
  7
NOTE_TEXT__ISO_
  0
POINT
  5
128C
  8
DEFPOINTS
 62
     0
 10
18.690072754219649
 20
66.538907876796785
 30
0.0
  0
POINT
  5
128D
  8
DEFPOINTS
 62
     0
 10
43.440072754219649
 20
55.038907876796792
 30
0.0
  0
POINT
  5
128E
  8
DEFPOINTS
 62
     0
 10
43.440072754219649
 20
78.692800429494866
 30
0.0
  0
ENDBLK
  5
78A
  8
0
  0
BLOCK
  8
0
  2
*D9
 70
     1
 10
0.0
 20
0.0
 30
0.0
  3
*D9
  1

  0
LINE
  5
128F
  8
0
 10
117.9400727542196
 20
57.038907876796792
 30
0.0
 11
117.9400727542196
 21
79.713907876796796
 31
0.0
  0
LINE
  5
1290
  8
0
 10
142.69007275421961
 20
68.538907876796799
 30
0.0
 11
142.69007275421961
 21
79.713907876796796
 31
0.0
  0
LINE
  5
1291
  8
0
 10
120.4400727542196
 20
76.538907876796799
 30
0.0
 11
140.19007275421961
 21
76.538907876796799
 31
0.0
  0
SOLID
  5
1292
  8
0
 10
120.4400727542196
 20
76.95557454346347
 30
0.0
 11
120.4400727542196
 21
76.122241210130127
 31
0.0
 12
117.9400727542196
 22
76.538907876796799
 32
0.0
 13
117.9400727542196
 23
76.538907876796799
 33
0.0
  0
SOLID
  5
1293
  8
0
 10
140.19007275421961
 20
76.95557454346347
 30
0.0
 11
140.19007275421961
 21
76.122241210130127
 31
0.0
 12
142.69007275421961
 22
76.538907876796799
 32
0.0
 13
142.69007275421961
 23
76.538907876796799
 33
0.0
  0
TEXT
  8
0
  40
2.5
  5
12DF
  72
0
  71
0
 10
125.315
 20
74.4651
 30
0.000000
  1
24,8
  7
NOTE_TEXT__ISO_
  0
POINT
  5
1295
  8
DEFPOINTS
 62
     0
 10
117.9400727542196
 20
55.038907876796792
 30
0.0
  0
POINT
  5
1296
  8
DEFPOINTS
 62
     0
 10
142.69007275421961
 20
66.538907876796799
 30
0.0
  0
POINT
  5
1297
  8
DEFPOINTS
 62
     0
 10
142.69007275421961
 20
76.538907876796799
 30
0.0
  0
ENDBLK
  5
86C
  8
0
  0
BLOCK
  8
0
  2
*D10
 70
     1
 10
0.0
 20
0.0
 30
0.0
  3
*D10
  1

  0
LINE
  5
1298
  8
0
 10
43.440072754219649
 20
57.038907876796792
 30
0.0
 11
43.440072754219649
 21
78.75101256443314
 31
0.0
  0
LINE
  5
1299
  8
0
 10
80.690072754219656
 20
57.038907876803073
 30
0.0
 11
80.690072754219656
 21
78.75101256443314
 31
0.0
  0
LINE
  5
129A
  8
0
 10
45.940072754219649
 20
75.576012564433142
 30
0.0
 11
78.190072754219642
 21
75.576012564433142
 31
0.0
  0
SOLID
  5
129B
  8
0
 10
45.940072754219649
 20
75.992679231099814
 30
0.0
 11
45.940072754219649
 21
75.159345897766471
 31
0.0
 12
43.440072754219649
 22
75.576012564433142
 32
0.0
 13
43.440072754219649
 23
75.576012564433142
 33
0.0
  0
SOLID
  5
129C
  8
0
 10
78.190072754219642
 20
75.992679231099814
 30
0.0
 11
78.190072754219642
 21
75.159345897766471
 31
0.0
 12
80.690072754219656
 22
75.576012564433142
 32
0.0
 13
80.690072754219656
 23
75.576012564433142
 33
0.0
  0
TEXT
  8
0
  40
2.5
  5
12E0
  72
0
  71
0
 10
57.0651
 20
73.4996
 30
0.000000
  1
37,2
  7
NOTE_TEXT__ISO_
  0
POINT
  5
129E
  8
DEFPOINTS
 62
     0
 10
43.440072754219649
 20
55.038907876796792
 30
0.0
  0
POINT
  5
129F
  8
DEFPOINTS
 62
     0
 10
80.690072754219656
 20
55.038907876803059
 30
0.0
  0
POINT
  5
12A0
  8
DEFPOINTS
 62
     0
 10
80.690072754219656
 20
75.576012564433142
 30
0.0
  0
ENDBLK
  5
94E
  8
0
  0
BLOCK
  8
0
  2
*D11
 70
     1
 10
0.0
 20
0.0
 30
0.0
  3
*D11
  1

  0
LINE
  5
12A1
  8
0
 10
117.9400727542196
 20
57.038907876796223
 30
0.0
 11
117.9400727542196
 21
77.802424953327403
 31
0.0
  0
LINE
  5
12A2
  8
0
 10
80.690072754219671
 20
57.038907876796792
 30
0.0
 11
80.690072754219671
 21
77.802424953327403
 31
0.0
  0
LINE
  5
12A3
  8
0
 10
115.4400727542196
 20
74.627424953327406
 30
0.0
 11
83.190072754219671
 21
74.627424953327406
 31
0.0
  0
SOLID
  5
12A4
  8
0
 10
115.4400727542196
 20
75.044091619994077
 30
0.0
 11
115.4400727542196
 21
74.210758286660734
 31
0.0
 12
117.9400727542196
 22
74.627424953327406
 32
0.0
 13
117.9400727542196
 23
74.627424953327406
 33
0.0
  0
SOLID
  5
12A5
  8
0
 10
83.190072754219671
 20
75.044091619994077
 30
0.0
 11
83.190072754219671
 21
74.210758286660734
 31
0.0
 12
80.690072754219671
 22
74.627424953327406
 32
0.0
 13
80.690072754219671
 23
74.627424953327406
 33
0.0
  0
TEXT
  8
0
  40
2.5
  5
12E1
  72
0
  71
0
 10
94.3151
 20
72.5511
 30
0.000000
  1
37,3
  7
NOTE_TEXT__ISO_
  0
POINT
  5
12A7
  8
DEFPOINTS
 62
     0
 10
117.9400727542196
 20
55.03890787679623
 30
0.0
  0
POINT
  5
12A8
  8
DEFPOINTS
 62
     0
 10
80.690072754219671
 20
55.038907876796792
 30
0.0
  0
POINT
  5
12A9
  8
DEFPOINTS
 62
     0
 10
80.690072754219671
 20
74.627424953327406
 30
0.0
  0
ENDBLK
  5
A30
  8
0
  0
BLOCK
  8
0
  2
*D12
 70
     1
 10
0.0
 20
0.0
 30
0.0
  3
*D12
  1

  0
LINE
  5
12AA
  8
0
 10
18.690072754219649
 20
41.53890787679677
 30
0.0
 11
18.690072754219649
 21
22.425155351058599
 31
0.0
  0
LINE
  5
12AB
  8
0
 10
142.69007275421961
 20
41.53890787679677
 30
0.0
 11
142.69007275421961
 21
22.425155351058599
 31
0.0
  0
LINE
  5
12AC
  8
0
 10
21.190072754219649
 20
25.600155351058589
 30
0.0
 11
140.19007275421961
 21
25.600155351058589
 31
0.0
  0
SOLID
  5
12AD
  8
0
 10
21.190072754219649
 20
26.016822017725261
 30
0.0
 11
21.190072754219649
 21
25.183488684391929
 31
0.0
 12
18.690072754219649
 22
25.600155351058589
 32
0.0
 13
18.690072754219649
 23
25.600155351058589
 33
0.0
  0
SOLID
  5
12AE
  8
0
 10
140.19007275421961
 20
26.016822017725261
 30
0.0
 11
140.19007275421961
 21
25.183488684391929
 31
0.0
 12
142.69007275421961
 22
25.600155351058589
 32
0.0
 13
142.69007275421961
 23
25.600155351058589
 33
0.0
  0
TEXT
  8
0
  40
2.5
  5
12E2
  72
0
  71
0
 10
75.6901
 20
23.5238
 30
0.000000
  1
124,0
  7
NOTE_TEXT__ISO_
  0
POINT
  5
12B0
  8
DEFPOINTS
 62
     0
 10
18.690072754219649
 20
43.53890787679677
 30
0.0
  0
POINT
  5
12B1
  8
DEFPOINTS
 62
     0
 10
142.69007275421961
 20
43.53890787679677
 30
0.0
  0
POINT
  5
12B2
  8
DEFPOINTS
 62
     0
 10
142.69007275421961
 20
25.600155351058589
 30
0.0
  0
ENDBLK
  5
B12
  8
0
  0
BLOCK
  8
0
  2
*D13
 70
     1
 10
0.0
 20
0.0
 30
0.0
  3
*D13
  1

  0
LINE
  5
12B3
  8
0
 10
222.38839461945659
 20
166.26581180112061
 30
0.0
 11
256.01301410893473
 21
166.26581180112061
 31
0.0
  0
LINE
  5
12B4
  8
0
 10
229.38839461943871
 20
142.76581180112069
 30
0.0
 11
256.01301410893473
 21
142.76581180112069
 31
0.0
  0
LINE
  5
12B5
  8
0
 10
252.83801410893469
 20
163.76581180112061
 30
0.0
 11
252.83801410893469
 21
145.26581180112069
 31
0.0
  0
SOLID
  5
12B6
  8
0
 10
252.42134744226809
 20
163.76581180112061
 30
0.0
 11
253.2546807756014
 21
163.76581180112061
 31
0.0
 12
252.83801410893469
 22
166.26581180112061
 32
0.0
 13
252.83801410893469
 23
166.26581180112061
 33
0.0
  0
SOLID
  5
12B7
  8
0
 10
252.42134744226809
 20
145.26581180112069
 30
0.0
 11
253.2546807756014
 21
145.26581180112069
 31
0.0
 12
252.83801410893469
 22
142.76581180112069
 32
0.0
 13
252.83801410893469
 23
142.76581180112069
 33
0.0
  0
TEXT
  8
0
  40
2.5
  5
12E3
  72
0
  71
0
 10
245.489
 20
150.091
 30
0.000000
  1
23,5
  7
NOTE_TEXT__ISO_
  0
POINT
  5
12B9
  8
DEFPOINTS
 62
     0
 10
220.38839461945659
 20
166.26581180112061
 30
0.0
  0
POINT
  5
12BA
  8
DEFPOINTS
 62
     0
 10
227.38839461943871
 20
142.76581180112069
 30
0.0
  0
POINT
  5
12BB
  8
DEFPOINTS
 62
     0
 10
252.83801410893469
 20
142.76581180112069
 30
0.0
  0
ENDBLK
  5
BE8
  8
0
  0
BLOCK
  8
0
  2
*D14
 70
     1
 10
0.0
 20
0.0
 30
0.0
  3
*D14
  1

  0
LINE
  5
12BC
  8
0
 10
224.83839461945661
 20
141.76581180112069
 30
0.0
 11
274.00026023925801
 21
141.76581180112069
 31
0.0
  0
LINE
  5
12BD
  8
0
 10
222.38839461945659
 20
166.26581180112061
 30
0.0
 11
274.00026023925801
 21
166.26581180112061
 31
0.0
  0
LINE
  5
12BE
  8
0
 10
270.825260239258
 20
144.26581180112069
 30
0.0
 11
270.825260239258
 21
163.76581180112061
 31
0.0
  0
SOLID
  5
12BF
  8
0
 10
270.40859357259131
 20
144.26581180112069
 30
0.0
 11
271.24192690592469
 21
144.26581180112069
 31
0.0
 12
270.825260239258
 22
141.76581180112069
 32
0.0
 13
270.825260239258
 23
141.76581180112069
 33
0.0
  0
SOLID
  5
12C0
  8
0
 10
270.40859357259131
 20
163.76581180112061
 30
0.0
 11
271.24192690592469
 21
163.76581180112061
 31
0.0
 12
270.825260239258
 22
166.26581180112061
 32
0.0
 13
270.825260239258
 23
166.26581180112061
 33
0.0
  0
TEXT
  8
0
  40
2.5
  5
12E4
  72
0
  71
0
 10
263.477
 20
149.591
 30
0.000000
  1
24,5
  7
NOTE_TEXT__ISO_
  0
POINT
  5
12C2
  8
DEFPOINTS
 62
     0
 10
222.83839461945661
 20
141.76581180112069
 30
0.0
  0
POINT
  5
12C3
  8
DEFPOINTS
 62
     0
 10
220.38839461945659
 20
166.26581180112061
 30
0.0
  0
POINT
  5
12C4
  8
DEFPOINTS
 62
     0
 10
270.825260239258
 20
166.26581180112061
 30
0.0
  0
ENDBLK
  5
CCA
  8
0
  0
BLOCK
  8
0
  2
*D15
 70
     1
 10
0.0
 20
0.0
 30
0.0
  3
*D15
  1

  0
LINE
  5
12C5
  8
0
 10
200.38839461943871
 20
140.76581180112069
 30
0.0
 11
200.38839461943871
 21
125.4458932720146
 31
0.0
  0
LINE
  5
12C6
  8
0
 10
227.38839461943871
 20
140.76581180112069
 30
0.0
 11
227.38839461943871
 21
125.4458932720146
 31
0.0
  0
LINE
  5
12C7
  8
0
 10
202.88839461943871
 20
128.6208932720146
 30
0.0
 11
224.88839461943871
 21
128.6208932720146
 31
0.0
  0
SOLID
  5
12C8
  8
0
 10
202.88839461943871
 20
129.03755993868131
 30
0.0
 11
202.88839461943871
 21
128.204226605348
 31
0.0
 12
200.38839461943871
 22
128.6208932720146
 32
0.0
 13
200.38839461943871
 23
128.6208932720146
 33
0.0
  0
SOLID
  5
12C9
  8
0
 10
224.88839461943871
 20
129.03755993868131
 30
0.0
 11
224.88839461943871
 21
128.204226605348
 31
0.0
 12
227.38839461943871
 22
128.6208932720146
 32
0.0
 13
227.38839461943871
 23
128.6208932720146
 33
0.0
  0
TEXT
  8
0
  40
2.5
  5
12E5
  72
0
  71
0
 10
208.888
 20
126.545
 30
0.000000
  1
27,0
  7
NOTE_TEXT__ISO_
  0
POINT
  5
12CB
  8
DEFPOINTS
 62
     0
 10
200.38839461943871
 20
142.76581180112069
 30
0.0
  0
POINT
  5
12CC
  8
DEFPOINTS
 62
     0
 10
227.38839461943871
 20
142.76581180112069
 30
0.0
  0
POINT
  5
12CD
  8
DEFPOINTS
 62
     0
 10
227.38839461943871
 20
128.6208932720146
 30
0.0
  0
ENDBLK
  5
DAC
  8
0
  0
BLOCK
  8
0
  2
*D16
 70
     1
 10
0.0
 20
0.0
 30
0.0
  3
*D16
  1

  0
LINE
  5
12CE
  8
0
 10
221.38839461945659
 20
157.51581180112069
 30
0.0
 11
221.38839461945659
 21
182.6866425632127
 31
0.0
  0
LINE
  5
12CF
  8
0
 10
206.38839461945659
 20
157.51581180112069
 30
0.0
 11
206.38839461945659
 21
182.6866425632127
 31
0.0
  0
LINE
  5
12D0
  8
0
 10
218.88839461945659
 20
179.51164256321269
 30
0.0
 11
208.88839461945659
 21
179.51164256321269
 31
0.0
  0
SOLID
  5
12D1
  8
0
 10
218.88839461945659
 20
179.9283092298794
 30
0.0
 11
218.88839461945659
 21
179.09497589654609
 31
0.0
 12
221.38839461945659
 22
179.51164256321269
 32
0.0
 13
221.38839461945659
 23
179.51164256321269
 33
0.0
  0
SOLID
  5
12D2
  8
0
 10
208.88839461945659
 20
179.9283092298794
 30
0.0
 11
208.88839461945659
 21
179.09497589654609
 31
0.0
 12
206.38839461945659
 22
179.51164256321269
 32
0.0
 13
206.38839461945659
 23
179.51164256321269
 33
0.0
  0
TEXT
  8
0
  40
2.5
  5
12E6
  72
0
  71
0
 10
208.888
 20
177.434
 30
0.000000
  1
15,0
  7
NOTE_TEXT__ISO_
  0
POINT
  5
12D4
  8
DEFPOINTS
 62
     0
 10
221.38839461945659
 20
155.51581180112069
 30
0.0
  0
POINT
  5
12D5
  8
DEFPOINTS
 62
     0
 10
206.38839461945659
 20
155.51581180112069
 30
0.0
  0
POINT
  5
12D6
  8
DEFPOINTS
 62
     0
 10
206.38839461945659
 20
179.51164256321269
 30
0.0
  0
ENDBLK
  5
E8E
  8
0
  0
ENDSEC
  0
SECTION
  2
ENTITIES
  0
POLYLINE
  5
FC
  8
0
 10
215.15059718169908
 20
24.150061422065775
 30
0.0
 66
     1
 70
     8
  0
VERTEX
  8
0
  5
12E7
 10
215.151
 20
24.1501
 30
0.000000
  70
    32
  0
VERTEX
  8
0
  5
12E8
 10
215.164
 20
24.2054
 30
0.000000
  70
    32
  0
VERTEX
  8
0
  5
12E9
 10
215.174
 20
24.2608
 30
0.000000
  70
    32
  0
VERTEX
  8
0
  5
12EA
 10
215.182
 20
24.3165
 30
0.000000
  70
    32
  0
VERTEX
  8
0
  5
12EB
 10
215.187
 20
24.3722
 30
0.000000
  70
    32
  0
VERTEX
  8
0
  5
12EC
 10
215.189
 20
24.4280
 30
0.000000
  70
    32
  0
VERTEX
  8
0
  5
12ED
 10
215.189
 20
24.4838
 30
0.000000
  70
    32
  0
VERTEX
  8
0
  5
12EE
 10
215.187
 20
24.5395
 30
0.000000
  70
    32
  0
VERTEX
  8
0
  5
12EF
 10
215.182
 20
24.5953
 30
0.000000
  70
    32
  0
VERTEX
  8
0
  5
12F0
 10
215.174
 20
24.6509
 30
0.000000
  70
    32
  0
VERTEX
  8
0
  5
12F1
 10
215.163
 20
24.7064
 30
0.000000
  70
    32
  0
VERTEX
  8
0
  5
12F2
 10
215.150
 20
24.7617
 30
0.000000
  70
    32
  0
VERTEX
  8
0
  5
12F3
 10
215.135
 20
24.8167
 30
0.000000
  70
    32
  0
VERTEX
  8
0
  5
12F4
 10
215.117
 20
24.8715
 30
0.000000
  70
    32
  0
VERTEX
  8
0
  5
12F5
 10
215.096
 20
24.9261
 30
0.000000
  70
    32
  0
VERTEX
  8
0
  5
12F6
 10
215.073
 20
24.9802
 30
0.000000
  70
    32
  0
VERTEX
  8
0
  5
12F7
 10
215.047
 20
25.0340
 30
0.000000
  70
    32
  0
VERTEX
  8
0
  5
12F8
 10
215.019
 20
25.0874
 30
0.000000
  70
    32
  0
VERTEX
  8
0
  5
12F9
 10
214.989
 20
25.1403
 30
0.000000
  70
    32
  0
VERTEX
  8
0
  5
12FA
 10
214.956
 20
25.1928
 30
0.000000
  70
    32
  0
VERTEX
  8
0
  5
12FB
 10
214.920
 20
25.2447
 30
0.000000
  70
    32
  0
VERTEX
  8
0
  5
12FC
 10
214.882
 20
25.2960
 30
0.000000
  70
    32
  0
VERTEX
  8
0
  5
12FD
 10
214.842
 20
25.3467
 30
0.000000
  70
    32
  0
VERTEX
  8
0
  5
12FE
 10
214.799
 20
25.3968
 30
0.000000
  70
    32
  0
VERTEX
  8
0
  5
12FF
 10
214.754
 20
25.4462
 30
0.000000
  70
    32
  0
VERTEX
  8
0
  5
1300
 10
214.707
 20
25.4949
 30
0.000000
  70
    32
  0
VERTEX
  8
0
  5
1301
 10
214.658
 20
25.5428
 30
0.000000
  70
    32
  0
VERTEX
  8
0
  5
1302
 10
214.606
 20
25.5900
 30
0.000000
  70
    32
  0
VERTEX
  8
0
  5
1303
 10
214.552
 20
25.6363
 30
0.000000
  70
    32
  0
VERTEX
  8
0
  5
1304
 10
214.496
 20
25.6818
 30
0.000000
  70
    32
  0
VERTEX
  8
0
  5
1305
 10
214.438
 20
25.7264
 30
0.000000
  70
    32
  0
VERTEX
  8
0
  5
1306
 10
214.378
 20
25.7701
 30
0.000000
  70
    32
  0
VERTEX
  8
0
  5
1307
 10
214.316
 20
25.8129
 30
0.000000
  70
    32
  0
VERTEX
  8
0
  5
1308
 10
214.252
 20
25.8546
 30
0.000000
  70
    32
  0
VERTEX
  8
0
  5
1309
 10
214.186
 20
25.8954
 30
0.000000
  70
    32
  0
VERTEX
  8
0
  5
130A
 10
214.118
 20
25.9351
 30
0.000000
  70
    32
  0
VERTEX
  8
0
  5
130B
 10
214.048
 20
25.9737
 30
0.000000
  70
    32
  0
VERTEX
  8
0
  5
130C
 10
213.977
 20
26.0113
 30
0.000000
  70
    32
  0
VERTEX
  8
0
  5
130D
 10
213.903
 20
26.0477
 30
0.000000
  70
    32
  0
VERTEX
  8
0
  5
130E
 10
213.829
 20
26.0830
 30
0.000000
  70
    32
  0
VERTEX
  8
0
  5
130F
 10
213.752
 20
26.1171
 30
0.000000
  70
    32
  0
VERTEX
  8
0
  5
1310
 10
213.674
 20
26.1501
 30
0.000000
  70
    32
  0
VERTEX
  8
0
  5
1311
 10
213.594
 20
26.1817
 30
0.000000
  70
    32
  0
VERTEX
  8
0
  5
1312
 10
213.514
 20
26.2122
 30
0.000000
  70
    32
  0
VERTEX
  8
0
  5
1313
 10
213.431
 20
26.2414
 30
0.000000
  70
    32
  0
VERTEX
  8
0
  5
1314
 10
213.347
 20
26.2693
 30
0.000000
  70
    32
  0
VERTEX
  8
0
  5
1315
 10
213.262
 20
26.2959
 30
0.000000
  70
    32
  0
VERTEX
  8
0
  5
1316
 10
213.176
 20
26.3211
 30
0.000000
  70
    32
  0
VERTEX
  8
0
  5
1317
 10
213.089
 20
26.3450
 30
0.000000
  70
    32
  0
VERTEX
  8
0
  5
1318
 10
213.001
 20
26.3676
 30
0.000000
  70
    32
  0
VERTEX
  8
0
  5
1319
 10
212.911
 20
26.3888
 30
0.000000
  70
    32
  0
VERTEX
  8
0
  5
131A
 10
212.821
 20
26.4086
 30
0.000000
  70
    32
  0
VERTEX
  8
0
  5
131B
 10
212.730
 20
26.4269
 30
0.000000
  70
    32
  0
VERTEX
  8
0
  5
131C
 10
212.637
 20
26.4439
 30
0.000000
  70
    32
  0
VERTEX
  8
0
  5
131D
 10
212.545
 20
26.4594
 30
0.000000
  70
    32
  0
VERTEX
  8
0
  5
131E
 10
212.451
 20
26.4735
 30
0.000000
  70
    32
  0
VERTEX
  8
0
  5
131F
 10
212.357
 20
26.4861
 30
0.000000
  70
    32
  0
VERTEX
  8
0
  5
1320
 10
212.262
 20
26.4973
 30
0.000000
  70
    32
  0
VERTEX
  8
0
  5
1321
 10
212.167
 20
26.5070
 30
0.000000
  70
    32
  0
VERTEX
  8
0
  5
1322
 10
212.071
 20
26.5152
 30
0.000000
  70
    32
  0
VERTEX
  8
0
  5
1323
 10
211.976
 20
26.5219
 30
0.000000
  70
    32
  0
VERTEX
  8
0
  5
1324
 10
211.879
 20
26.5271
 30
0.000000
  70
    32
  0
VERTEX
  8
0
  5
1325
 10
211.783
 20
26.5309
 30
0.000000
  70
    32
  0
VERTEX
  8
0
  5
1326
 10
211.686
 20
26.5331
 30
0.000000
  70
    32
  0
VERTEX
  8
0
  5
1327
 10
211.590
 20
26.5339
 30
0.000000
  70
    32
  0
VERTEX
  8
0
  5
1328
 10
211.493
 20
26.5331
 30
0.000000
  70
    32
  0
VERTEX
  8
0
  5
1329
 10
211.396
 20
26.5309
 30
0.000000
  70
    32
  0
VERTEX
  8
0
  5
132A
 10
211.300
 20
26.5271
 30
0.000000
  70
    32
  0
VERTEX
  8
0
  5
132B
 10
211.204
 20
26.5219
 30
0.000000
  70
    32
  0
VERTEX
  8
0
  5
132C
 10
211.108
 20
26.5152
 30
0.000000
  70
    32
  0
VERTEX
  8
0
  5
132D
 10
211.012
 20
26.5070
 30
0.000000
  70
    32
  0
VERTEX
  8
0
  5
132E
 10
210.917
 20
26.4973
 30
0.000000
  70
    32
  0
VERTEX
  8
0
  5
132F
 10
210.822
 20
26.4861
 30
0.000000
  70
    32
  0
VERTEX
  8
0
  5
1330
 10
210.728
 20
26.4735
 30
0.000000
  70
    32
  0
VERTEX
  8
0
  5
1331
 10
210.635
 20
26.4594
 30
0.000000
  70
    32
  0
VERTEX
  8
0
  5
1332
 10
210.542
 20
26.4439
 30
0.000000
  70
    32
  0
VERTEX
  8
0
  5
1333
 10
210.450
 20
26.4269
 30
0.000000
  70
    32
  0
VERTEX
  8
0
  5
1334
 10
210.359
 20
26.4086
 30
0.000000
  70
    32
  0
VERTEX
  8
0
  5
1335
 10
210.268
 20
26.3888
 30
0.000000
  70
    32
  0
VERTEX
  8
0
  5
1336
 10
210.179
 20
26.3676
 30
0.000000
  70
    32
  0
VERTEX
  8
0
  5
1337
 10
210.090
 20
26.3450
 30
0.000000
  70
    32
  0
VERTEX
  8
0
  5
1338
 10
210.003
 20
26.3211
 30
0.000000
  70
    32
  0
VERTEX
  8
0
  5
1339
 10
209.917
 20
26.2959
 30
0.000000
  70
    32
  0
VERTEX
  8
0
  5
133A
 10
209.832
 20
26.2693
 30
0.000000
  70
    32
  0
VERTEX
  8
0
  5
133B
 10
209.748
 20
26.2414
 30
0.000000
  70
    32
  0
VERTEX
  8
0
  5
133C
 10
209.666
 20
26.2122
 30
0.000000
  70
    32
  0
VERTEX
  8
0
  5
133D
 10
209.585
 20
26.1817
 30
0.000000
  70
    32
  0
VERTEX
  8
0
  5
133E
 10
209.505
 20
26.1501
 30
0.000000
  70
    32
  0
VERTEX
  8
0
  5
133F
 10
209.427
 20
26.1171
 30
0.000000
  70
    32
  0
VERTEX
  8
0
  5
1340
 10
209.351
 20
26.0830
 30
0.000000
  70
    32
  0
VERTEX
  8
0
  5
1341
 10
209.276
 20
26.0477
 30
0.000000
  70
    32
  0
VERTEX
  8
0
  5
1342
 10
209.203
 20
26.0113
 30
0.000000
  70
    32
  0
VERTEX
  8
0
  5
1343
 10
209.131
 20
25.9737
 30
0.000000
  70
    32
  0
VERTEX
  8
0
  5
1344
 10
209.061
 20
25.9351
 30
0.000000
  70
    32
  0
VERTEX
  8
0
  5
1345
 10
208.994
 20
25.8954
 30
0.000000
  70
    32
  0
VERTEX
  8
0
  5
1346
 10
208.928
 20
25.8546
 30
0.000000
  70
    32
  0
VERTEX
  8
0
  5
1347
 10
208.863
 20
25.8129
 30
0.000000
  70
    32
  0
VERTEX
  8
0
  5
1348
 10
208.801
 20
25.7701
 30
0.000000
  70
    32
  0
VERTEX
  8
0
  5
1349
 10
208.741
 20
25.7264
 30
0.000000
  70
    32
  0
VERTEX
  8
0
  5
134A
 10
208.683
 20
25.6818
 30
0.000000
  70
    32
  0
VERTEX
  8
0
  5
134B
 10
208.627
 20
25.6363
 30
0.000000
  70
    32
  0
VERTEX
  8
0
  5
134C
 10
208.573
 20
25.5900
 30
0.000000
  70
    32
  0
VERTEX
  8
0
  5
134D
 10
208.522
 20
25.5428
 30
0.000000
  70
    32
  0
VERTEX
  8
0
  5
134E
 10
208.472
 20
25.4949
 30
0.000000
  70
    32
  0
VERTEX
  8
0
  5
134F
 10
208.425
 20
25.4462
 30
0.000000
  70
    32
  0
VERTEX
  8
0
  5
1350
 10
208.380
 20
25.3968
 30
0.000000
  70
    32
  0
VERTEX
  8
0
  5
1351
 10
208.337
 20
25.3467
 30
0.000000
  70
    32
  0
VERTEX
  8
0
  5
1352
 10
208.297
 20
25.2960
 30
0.000000
  70
    32
  0
VERTEX
  8
0
  5
1353
 10
208.259
 20
25.2447
 30
0.000000
  70
    32
  0
VERTEX
  8
0
  5
1354
 10
208.224
 20
25.1928
 30
0.000000
  70
    32
  0
VERTEX
  8
0
  5
1355
 10
208.191
 20
25.1403
 30
0.000000
  70
    32
  0
VERTEX
  8
0
  5
1356
 10
208.160
 20
25.0874
 30
0.000000
  70
    32
  0
VERTEX
  8
0
  5
1357
 10
208.132
 20
25.0340
 30
0.000000
  70
    32
  0
VERTEX
  8
0
  5
1358
 10
208.106
 20
24.9802
 30
0.000000
  70
    32
  0
VERTEX
  8
0
  5
1359
 10
208.083
 20
24.9261
 30
0.000000
  70
    32
  0
VERTEX
  8
0
  5
135A
 10
208.063
 20
24.8715
 30
0.000000
  70
    32
  0
VERTEX
  8
0
  5
135B
 10
208.044
 20
24.8167
 30
0.000000
  70
    32
  0
VERTEX
  8
0
  5
135C
 10
208.029
 20
24.7617
 30
0.000000
  70
    32
  0
VERTEX
  8
0
  5
135D
 10
208.016
 20
24.7064
 30
0.000000
  70
    32
  0
VERTEX
  8
0
  5
135E
 10
208.006
 20
24.6509
 30
0.000000
  70
    32
  0
VERTEX
  8
0
  5
135F
 10
207.998
 20
24.5953
 30
0.000000
  70
    32
  0
VERTEX
  8
0
  5
1360
 10
207.993
 20
24.5395
 30
0.000000
  70
    32
  0
VERTEX
  8
0
  5
1361
 10
207.990
 20
24.4838
 30
0.000000
  70
    32
  0
VERTEX
  8
0
  5
1362
 10
207.990
 20
24.4280
 30
0.000000
  70
    32
  0
VERTEX
  8
0
  5
1363
 10
207.993
 20
24.3722
 30
0.000000
  70
    32
  0
VERTEX
  8
0
  5
1364
 10
207.998
 20
24.3165
 30
0.000000
  70
    32
  0
VERTEX
  8
0
  5
1365
 10
208.005
 20
24.2608
 30
0.000000
  70
    32
  0
VERTEX
  8
0
  5
1366
 10
208.016
 20
24.2054
 30
0.000000
  70
    32
  0
VERTEX
  8
0
  5
1367
 10
208.029
 20
24.1501
 30
0.000000
  70
    32
  0
SEQEND
  8
0
  5
1368
  0
POLYLINE
  5
FD
  8
0
 10
216.58547730037705
 20
25.716559064443704
 30
0.0
 66
     1
 70
     8
  0
VERTEX
  8
0
  5
1369
 10
216.585
 20
25.7166
 30
0.000000
  70
    32
  0
VERTEX
  8
0
  5
136A
 10
216.579
 20
25.7855
 30
0.000000
  70
    32
  0
VERTEX
  8
0
  5
136B
 10
216.570
 20
25.8543
 30
0.000000
  70
    32
  0
VERTEX
  8
0
  5
136C
 10
216.558
 20
25.9229
 30
0.000000
  70
    32
  0
VERTEX
  8
0
  5
136D
 10
216.543
 20
25.9914
 30
0.000000
  70
    32
  0
VERTEX
  8
0
  5
136E
 10
216.525
 20
26.0596
 30
0.000000
  70
    32
  0
VERTEX
  8
0
  5
136F
 10
216.505
 20
26.1276
 30
0.000000
  70
    32
  0
VERTEX
  8
0
  5
1370
 10
216.482
 20
26.1953
 30
0.000000
  70
    32
  0
VERTEX
  8
0
  5
1371
 10
216.456
 20
26.2626
 30
0.000000
  70
    32
  0
VERTEX
  8
0
  5
1372
 10
216.427
 20
26.3296
 30
0.000000
  70
    32
  0
VERTEX
  8
0
  5
1373
 10
216.395
 20
26.3961
 30
0.000000
  70
    32
  0
VERTEX
  8
0
  5
1374
 10
216.361
 20
26.4622
 30
0.000000
  70
    32
  0
VERTEX
  8
0
  5
1375
 10
216.323
 20
26.5278
 30
0.000000
  70
    32
  0
VERTEX
  8
0
  5
1376
 10
216.284
 20
26.5929
 30
0.000000
  70
    32
  0
VERTEX
  8
0
  5
1377
 10
216.241
 20
26.6574
 30
0.000000
  70
    32
  0
VERTEX
  8
0
  5
1378
 10
216.196
 20
26.7213
 30
0.000000
  70
    32
  0
VERTEX
  8
0
  5
1379
 10
216.148
 20
26.7845
 30
0.000000
  70
    32
  0
VERTEX
  8
0
  5
137A
 10
216.098
 20
26.8471
 30
0.000000
  70
    32
  0
VERTEX
  8
0
  5
137B
 10
216.045
 20
26.9089
 30
0.000000
  70
    32
  0
VERTEX
  8
0
  5
137C
 10
215.989
 20
26.9700
 30
0.000000
  70
    32
  0
VERTEX
  8
0
  5
137D
 10
215.931
 20
27.0304
 30
0.000000
  70
    32
  0
VERTEX
  8
0
  5
137E
 10
215.871
 20
27.0899
 30
0.000000
  70
    32
  0
VERTEX
  8
0
  5
137F
 10
215.808
 20
27.1485
 30
0.000000
  70
    32
  0
VERTEX
  8
0
  5
1380
 10
215.742
 20
27.2063
 30
0.000000
  70
    32
  0
VERTEX
  8
0
  5
1381
 10
215.675
 20
27.2631
 30
0.000000
  70
    32
  0
VERTEX
  8
0
  5
1382
 10
215.605
 20
27.3190
 30
0.000000
  70
    32
  0
VERTEX
  8
0
  5
1383
 10
215.532
 20
27.3739
 30
0.000000
  70
    32
  0
VERTEX
  8
0
  5
1384
 10
215.458
 20
27.4278
 30
0.000000
  70
    32
  0
VERTEX
  8
0
  5
1385
 10
215.381
 20
27.4807
 30
0.000000
  70
    32
  0
VERTEX
  8
0
  5
1386
 10
215.302
 20
27.5325
 30
0.000000
  70
    32
  0
VERTEX
  8
0
  5
1387
 10
215.221
 20
27.5832
 30
0.000000
  70
    32
  0
VERTEX
  8
0
  5
1388
 10
215.137
 20
27.6327
 30
0.000000
  70
    32
  0
VERTEX
  8
0
  5
1389
 10
215.052
 20
27.6811
 30
0.000000
  70
    32
  0
VERTEX
  8
0
  5
138A
 10
214.965
 20
27.7283
 30
0.000000
  70
    32
  0
VERTEX
  8
0
  5
138B
 10
214.876
 20
27.7742
 30
0.000000
  70
    32
  0
VERTEX
  8
0
  5
138C
 10
214.785
 20
27.8190
 30
0.000000
  70
    32
  0
VERTEX
  8
0
  5
138D
 10
214.692
 20
27.8624
 30
0.000000
  70
    32
  0
VERTEX
  8
0
  5
138E
 10
214.597
 20
27.9046
 30
0.000000
  70
    32
  0
VERTEX
  8
0
  5
138F
 10
214.501
 20
27.9454
 30
0.000000
  70
    32
  0
VERTEX
  8
0
  5
1390
 10
214.403
 20
27.9849
 30
0.000000
  70
    32
  0
VERTEX
  8
0
  5
1391
 10
214.303
 20
28.0231
 30
0.000000
  70
    32
  0
VERTEX
  8
0
  5
1392
 10
214.202
 20
28.0598
 30
0.000000
  70
    32
  0
VERTEX
  8
0
  5
1393
 10
214.100
 20
28.0952
 30
0.000000
  70
    32
  0
VERTEX
  8
0
  5
1394
 10
213.996
 20
28.1291
 30
0.000000
  70
    32
  0
VERTEX
  8
0
  5
1395
 10
213.890
 20
28.1616
 30
0.000000
  70
    32
  0
VERTEX
  8
0
  5
1396
 10
213.783
 20
28.1926
 30
0.000000
  70
    32
  0
VERTEX
  8
0
  5
1397
 10
213.675
 20
28.2221
 30
0.000000
  70
    32
  0
VERTEX
  8
0
  5
1398
 10
213.566
 20
28.2502
 30
0.000000
  70
    32
  0
VERTEX
  8
0
  5
1399
 10
213.456
 20
28.2767
 30
0.000000
  70
    32
  0
VERTEX
  8
0
  5
139A
 10
213.344
 20
28.3017
 30
0.000000
  70
    32
  0
VERTEX
  8
0
  5
139B
 10
213.232
 20
28.3251
 30
0.000000
  70
    32
  0
VERTEX
  8
0
  5
139C
 10
213.119
 20
28.3470
 30
0.000000
  70
    32
  0
VERTEX
  8
0
  5
139D
 10
213.004
 20
28.3673
 30
0.000000
  70
    32
  0
VERTEX
  8
0
  5
139E
 10
212.889
 20
28.3860
 30
0.000000
  70
    32
  0
VERTEX
  8
0
  5
139F
 10
212.774
 20
28.4032
 30
0.000000
  70
    32
  0
VERTEX
  8
0
  5
13A0
 10
212.657
 20
28.4187
 30
0.000000
  70
    32
  0
VERTEX
  8
0
  5
13A1
 10
212.540
 20
28.4326
 30
0.000000
  70
    32
  0
VERTEX
  8
0
  5
13A2
 10
212.422
 20
28.4449
 30
0.000000
  70
    32
  0
VERTEX
  8
0
  5
13A3
 10
212.304
 20
28.4556
 30
0.000000
  70
    32
  0
VERTEX
  8
0
  5
13A4
 10
212.186
 20
28.4647
 30
0.000000
  70
    32
  0
VERTEX
  8
0
  5
13A5
 10
212.067
 20
28.4721
 30
0.000000
  70
    32
  0
VERTEX
  8
0
  5
13A6
 10
211.948
 20
28.4778
 30
0.000000
  70
    32
  0
VERTEX
  8
0
  5
13A7
 10
211.829
 20
28.4820
 30
0.000000
  70
    32
  0
VERTEX
  8
0
  5
13A8
 10
211.709
 20
28.4844
 30
0.000000
  70
    32
  0
VERTEX
  8
0
  5
13A9
 10
211.590
 20
28.4853
 30
0.000000
  70
    32
  0
VERTEX
  8
0
  5
13AA
 10
211.470
 20
28.4844
 30
0.000000
  70
    32
  0
VERTEX
  8
0
  5
13AB
 10
211.351
 20
28.4820
 30
0.000000
  70
    32
  0
VERTEX
  8
0
  5
13AC
 10
211.231
 20
28.4778
 30
0.000000
  70
    32
  0
VERTEX
  8
0
  5
13AD
 10
211.112
 20
28.4721
 30
0.000000
  70
    32
  0
VERTEX
  8
0
  5
13AE
 10
210.993
 20
28.4647
 30
0.000000
  70
    32
  0
VERTEX
  8
0
  5
13AF
 10
210.875
 20
28.4556
 30
0.000000
  70
    32
  0
VERTEX
  8
0
  5
13B0
 10
210.757
 20
28.4449
 30
0.000000
  70
    32
  0
VERTEX
  8
0
  5
13B1
 10
210.639
 20
28.4326
 30
0.000000
  70
    32
  0
VERTEX
  8
0
  5
13B2
 10
210.522
 20
28.4187
 30
0.000000
  70
    32
  0
VERTEX
  8
0
  5
13B3
 10
210.406
 20
28.4032
 30
0.000000
  70
    32
  0
VERTEX
  8
0
  5
13B4
 10
210.290
 20
28.3860
 30
0.000000
  70
    32
  0
VERTEX
  8
0
  5
13B5
 10
210.175
 20
28.3673
 30
0.000000
  70
    32
  0
VERTEX
  8
0
  5
13B6
 10
210.061
 20
28.3470
 30
0.000000
  70
    32
  0
VERTEX
  8
0
  5
13B7
 10
209.947
 20
28.3251
 30
0.000000
  70
    32
  0
VERTEX
  8
0
  5
13B8
 10
209.835
 20
28.3017
 30
0.000000
  70
    32
  0
VERTEX
  8
0
  5
13B9
 10
209.724
 20
28.2767
 30
0.000000
  70
    32
  0
VERTEX
  8
0
  5
13BA
 10
209.613
 20
28.2502
 30
0.000000
  70
    32
  0
VERTEX
  8
0
  5
13BB
 10
209.504
 20
28.2221
 30
0.000000
  70
    32
  0
VERTEX
  8
0
  5
13BC
 10
209.396
 20
28.1926
 30
0.000000
  70
    32
  0
VERTEX
  8
0
  5
13BD
 10
209.289
 20
28.1616
 30
0.000000
  70
    32
  0
VERTEX
  8
0
  5
13BE
 10
209.184
 20
28.1291
 30
0.000000
  70
    32
  0
VERTEX
  8
0
  5
13BF
 10
209.080
 20
28.0952
 30
0.000000
  70
    32
  0
VERTEX
  8
0
  5
13C0
 10
208.977
 20
28.0598
 30
0.000000
  70
    32
  0
VERTEX
  8
0
  5
13C1
 10
208.876
 20
28.0231
 30
0.000000
  70
    32
  0
VERTEX
  8
0
  5
13C2
 10
208.776
 20
27.9849
 30
0.000000
  70
    32
  0
VERTEX
  8
0
  5
13C3
 10
208.678
 20
27.9454
 30
0.000000
  70
    32
  0
VERTEX
  8
0
  5
13C4
 10
208.582
 20
27.9046
 30
0.000000
  70
    32
  0
VERTEX
  8
0
  5
13C5
 10
208.487
 20
27.8624
 30
0.000000
  70
    32
  0
VERTEX
  8
0
  5
13C6
 10
208.395
 20
27.8190
 30
0.000000
  70
    32
  0
VERTEX
  8
0
  5
13C7
 10
208.304
 20
27.7742
 30
0.000000
  70
    32
  0
VERTEX
  8
0
  5
13C8
 10
208.214
 20
27.7283
 30
0.000000
  70
    32
  0
VERTEX
  8
0
  5
13C9
 10
208.127
 20
27.6811
 30
0.000000
  70
    32
  0
VERTEX
  8
0
  5
13CA
 10
208.042
 20
27.6327
 30
0.000000
  70
    32
  0
VERTEX
  8
0
  5
13CB
 10
207.959
 20
27.5832
 30
0.000000
  70
    32
  0
VERTEX
  8
0
  5
13CC
 10
207.878
 20
27.5325
 30
0.000000
  70
    32
  0
VERTEX
  8
0
  5
13CD
 10
207.799
 20
27.4807
 30
0.000000
  70
    32
  0
VERTEX
  8
0
  5
13CE
 10
207.722
 20
27.4278
 30
0.000000
  70
    32
  0
VERTEX
  8
0
  5
13CF
 10
207.647
 20
27.3739
 30
0.000000
  70
    32
  0
VERTEX
  8
0
  5
13D0
 10
207.575
 20
27.3190
 30
0.000000
  70
    32
  0
VERTEX
  8
0
  5
13D1
 10
207.505
 20
27.2631
 30
0.000000
  70
    32
  0
VERTEX
  8
0
  5
13D2
 10
207.437
 20
27.2063
 30
0.000000
  70
    32
  0
VERTEX
  8
0
  5
13D3
 10
207.372
 20
27.1485
 30
0.000000
  70
    32
  0
VERTEX
  8
0
  5
13D4
 10
207.309
 20
27.0899
 30
0.000000
  70
    32
  0
VERTEX
  8
0
  5
13D5
 10
207.248
 20
27.0304
 30
0.000000
  70
    32
  0
VERTEX
  8
0
  5
13D6
 10
207.190
 20
26.9700
 30
0.000000
  70
    32
  0
VERTEX
  8
0
  5
13D7
 10
207.135
 20
26.9089
 30
0.000000
  70
    32
  0
VERTEX
  8
0
  5
13D8
 10
207.082
 20
26.8471
 30
0.000000
  70
    32
  0
VERTEX
  8
0
  5
13D9
 10
207.031
 20
26.7845
 30
0.000000
  70
    32
  0
VERTEX
  8
0
  5
13DA
 10
206.983
 20
26.7213
 30
0.000000
  70
    32
  0
VERTEX
  8
0
  5
13DB
 10
206.938
 20
26.6574
 30
0.000000
  70
    32
  0
VERTEX
  8
0
  5
13DC
 10
206.896
 20
26.5929
 30
0.000000
  70
    32
  0
VERTEX
  8
0
  5
13DD
 10
206.856
 20
26.5278
 30
0.000000
  70
    32
  0
VERTEX
  8
0
  5
13DE
 10
206.819
 20
26.4622
 30
0.000000
  70
    32
  0
VERTEX
  8
0
  5
13DF
 10
206.784
 20
26.3961
 30
0.000000
  70
    32
  0
VERTEX
  8
0
  5
13E0
 10
206.753
 20
26.3296
 30
0.000000
  70
    32
  0
VERTEX
  8
0
  5
13E1
 10
206.724
 20
26.2626
 30
0.000000
  70
    32
  0
VERTEX
  8
0
  5
13E2
 10
206.698
 20
26.1953
 30
0.000000
  70
    32
  0
VERTEX
  8
0
  5
13E3
 10
206.674
 20
26.1276
 30
0.000000
  70
    32
  0
VERTEX
  8
0
  5
13E4
 10
206.654
 20
26.0596
 30
0.000000
  70
    32
  0
VERTEX
  8
0
  5
13E5
 10
206.636
 20
25.9914
 30
0.000000
  70
    32
  0
VERTEX
  8
0
  5
13E6
 10
206.621
 20
25.9229
 30
0.000000
  70
    32
  0
VERTEX
  8
0
  5
13E7
 10
206.609
 20
25.8543
 30
0.000000
  70
    32
  0
VERTEX
  8
0
  5
13E8
 10
206.600
 20
25.7855
 30
0.000000
  70
    32
  0
VERTEX
  8
0
  5
13E9
 10
206.594
 20
25.7166
 30
0.000000
  70
    32
  0
SEQEND
  8
0
  5
13EA
  0
POLYLINE
  5
FE
  8
0
 10
267.8300523800969
 20
54.564559061623605
 30
0.0
 66
     1
 70
     8
  0
VERTEX
  8
0
  5
13EB
 10
267.830
 20
54.5646
 30
0.000000
  70
    32
  0
VERTEX
  8
0
  5
13EC
 10
267.843
 20
54.6199
 30
0.000000
  70
    32
  0
VERTEX
  8
0
  5
13ED
 10
267.853
 20
54.6753
 30
0.000000
  70
    32
  0
VERTEX
  8
0
  5
13EE
 10
267.861
 20
54.7310
 30
0.000000
  70
    32
  0
VERTEX
  8
0
  5
13EF
 10
267.866
 20
54.7867
 30
0.000000
  70
    32
  0
VERTEX
  8
0
  5
13F0
 10
267.869
 20
54.8425
 30
0.000000
  70
    32
  0
VERTEX
  8
0
  5
13F1
 10
267.869
 20
54.8983
 30
0.000000
  70
    32
  0
VERTEX
  8
0
  5
13F2
 10
267.866
 20
54.9540
 30
0.000000
  70
    32
  0
VERTEX
  8
0
  5
13F3
 10
267.861
 20
55.0098
 30
0.000000
  70
    32
  0
VERTEX
  8
0
  5
13F4
 10
267.853
 20
55.0654
 30
0.000000
  70
    32
  0
VERTEX
  8
0
  5
13F5
 10
267.843
 20
55.1209
 30
0.000000
  70
    32
  0
VERTEX
  8
0
  5
13F6
 10
267.830
 20
55.1761
 30
0.000000
  70
    32
  0
VERTEX
  8
0
  5
13F7
 10
267.814
 20
55.2312
 30
0.000000
  70
    32
  0
VERTEX
  8
0
  5
13F8
 10
267.796
 20
55.2860
 30
0.000000
  70
    32
  0
VERTEX
  8
0
  5
13F9
 10
267.776
 20
55.3406
 30
0.000000
  70
    32
  0
VERTEX
  8
0
  5
13FA
 10
267.752
 20
55.3947
 30
0.000000
  70
    32
  0
VERTEX
  8
0
  5
13FB
 10
267.727
 20
55.4485
 30
0.000000
  70
    32
  0
VERTEX
  8
0
  5
13FC
 10
267.699
 20
55.5019
 30
0.000000
  70
    32
  0
VERTEX
  8
0
  5
13FD
 10
267.668
 20
55.5548
 30
0.000000
  70
    32
  0
VERTEX
  8
0
  5
13FE
 10
267.635
 20
55.6073
 30
0.000000
  70
    32
  0
VERTEX
  8
0
  5
13FF
 10
267.599
 20
55.6592
 30
0.000000
  70
    32
  0
VERTEX
  8
0
  5
1400
 10
267.562
 20
55.7105
 30
0.000000
  70
    32
  0
VERTEX
  8
0
  5
1401
 10
267.521
 20
55.7612
 30
0.000000
  70
    32
  0
VERTEX
  8
0
  5
1402
 10
267.479
 20
55.8113
 30
0.000000
  70
    32
  0
VERTEX
  8
0
  5
1403
 10
267.434
 20
55.8607
 30
0.000000
  70
    32
  0
VERTEX
  8
0
  5
1404
 10
267.387
 20
55.9094
 30
0.000000
  70
    32
  0
VERTEX
  8
0
  5
1405
 10
267.337
 20
55.9573
 30
0.000000
  70
    32
  0
VERTEX
  8
0
  5
1406
 10
267.285
 20
56.0045
 30
0.000000
  70
    32
  0
VERTEX
  8
0
  5
1407
 10
267.232
 20
56.0508
 30
0.000000
  70
    32
  0
VERTEX
  8
0
  5
1408
 10
267.176
 20
56.0963
 30
0.000000
  70
    32
  0
VERTEX
  8
0
  5
1409
 10
267.118
 20
56.1409
 30
0.000000
  70
    32
  0
VERTEX
  8
0
  5
140A
 10
267.057
 20
56.1846
 30
0.000000
  70
    32
  0
VERTEX
  8
0
  5
140B
 10
266.995
 20
56.2274
 30
0.000000
  70
    32
  0
VERTEX
  8
0
  5
140C
 10
266.931
 20
56.2691
 30
0.000000
  70
    32
  0
VERTEX
  8
0
  5
140D
 10
266.865
 20
56.3099
 30
0.000000
  70
    32
  0
VERTEX
  8
0
  5
140E
 10
266.797
 20
56.3496
 30
0.000000
  70
    32
  0
VERTEX
  8
0
  5
140F
 10
266.728
 20
56.3882
 30
0.000000
  70
    32
  0
VERTEX
  8
0
  5
1410
 10
266.656
 20
56.4258
 30
0.000000
  70
    32
  0
VERTEX
  8
0
  5
1411
 10
266.583
 20
56.4622
 30
0.000000
  70
    32
  0
VERTEX
  8
0
  5
1412
 10
266.508
 20
56.4975
 30
0.000000
  70
    32
  0
VERTEX
  8
0
  5
1413
 10
266.432
 20
56.5316
 30
0.000000
  70
    32
  0
VERTEX
  8
0
  5
1414
 10
266.353
 20
56.5645
 30
0.000000
  70
    32
  0
VERTEX
  8
0
  5
1415
 10
266.274
 20
56.5962
 30
0.000000
  70
    32
  0
VERTEX
  8
0
  5
1416
 10
266.193
 20
56.6267
 30
0.000000
  70
    32
  0
VERTEX
  8
0
  5
1417
 10
266.111
 20
56.6559
 30
0.000000
  70
    32
  0
VERTEX
  8
0
  5
1418
 10
266.027
 20
56.6838
 30
0.000000
  70
    32
  0
VERTEX
  8
0
  5
1419
 10
265.942
 20
56.7104
 30
0.000000
  70
    32
  0
VERTEX
  8
0
  5
141A
 10
265.856
 20
56.7356
 30
0.000000
  70
    32
  0
VERTEX
  8
0
  5
141B
 10
265.768
 20
56.7595
 30
0.000000
  70
    32
  0
VERTEX
  8
0
  5
141C
 10
265.680
 20
56.7821
 30
0.000000
  70
    32
  0
VERTEX
  8
0
  5
141D
 10
265.591
 20
56.8033
 30
0.000000
  70
    32
  0
VERTEX
  8
0
  5
141E
 10
265.500
 20
56.8231
 30
0.000000
  70
    32
  0
VERTEX
  8
0
  5
141F
 10
265.409
 20
56.8414
 30
0.000000
  70
    32
  0
VERTEX
  8
0
  5
1420
 10
265.317
 20
56.8584
 30
0.000000
  70
    32
  0
VERTEX
  8
0
  5
1421
 10
265.224
 20
56.8739
 30
0.000000
  70
    32
  0
VERTEX
  8
0
  5
1422
 10
265.131
 20
56.8880
 30
0.000000
  70
    32
  0
VERTEX
  8
0
  5
1423
 10
265.036
 20
56.9006
 30
0.000000
  70
    32
  0
VERTEX
  8
0
  5
1424
 10
264.942
 20
56.9118
 30
0.000000
  70
    32
  0
VERTEX
  8
0
  5
1425
 10
264.847
 20
56.9215
 30
0.000000
  70
    32
  0
VERTEX
  8
0
  5
1426
 10
264.751
 20
56.9297
 30
0.000000
  70
    32
  0
VERTEX
  8
0
  5
1427
 10
264.655
 20
56.9364
 30
0.000000
  70
    32
  0
VERTEX
  8
0
  5
1428
 10
264.559
 20
56.9416
 30
0.000000
  70
    32
  0
VERTEX
  8
0
  5
1429
 10
264.462
 20
56.9454
 30
0.000000
  70
    32
  0
VERTEX
  8
0
  5
142A
 10
264.366
 20
56.9476
 30
0.000000
  70
    32
  0
VERTEX
  8
0
  5
142B
 10
264.269
 20
56.9484
 30
0.000000
  70
    32
  0
VERTEX
  8
0
  5
142C
 10
264.172
 20
56.9476
 30
0.000000
  70
    32
  0
VERTEX
  8
0
  5
142D
 10
264.076
 20
56.9454
 30
0.000000
  70
    32
  0
VERTEX
  8
0
  5
142E
 10
263.979
 20
56.9416
 30
0.000000
  70
    32
  0
VERTEX
  8
0
  5
142F
 10
263.883
 20
56.9364
 30
0.000000
  70
    32
  0
VERTEX
  8
0
  5
1430
 10
263.787
 20
56.9297
 30
0.000000
  70
    32
  0
VERTEX
  8
0
  5
1431
 10
263.692
 20
56.9215
 30
0.000000
  70
    32
  0
VERTEX
  8
0
  5
1432
 10
263.597
 20
56.9118
 30
0.000000
  70
    32
  0
VERTEX
  8
0
  5
1433
 10
263.502
 20
56.9006
 30
0.000000
  70
    32
  0
VERTEX
  8
0
  5
1434
 10
263.408
 20
56.8880
 30
0.000000
  70
    32
  0
VERTEX
  8
0
  5
1435
 10
263.314
 20
56.8739
 30
0.000000
  70
    32
  0
VERTEX
  8
0
  5
1436
 10
263.221
 20
56.8584
 30
0.000000
  70
    32
  0
VERTEX
  8
0
  5
1437
 10
263.129
 20
56.8414
 30
0.000000
  70
    32
  0
VERTEX
  8
0
  5
1438
 10
263.038
 20
56.8231
 30
0.000000
  70
    32
  0
VERTEX
  8
0
  5
1439
 10
262.948
 20
56.8033
 30
0.000000
  70
    32
  0
VERTEX
  8
0
  5
143A
 10
262.858
 20
56.7821
 30
0.000000
  70
    32
  0
VERTEX
  8
0
  5
143B
 10
262.770
 20
56.7595
 30
0.000000
  70
    32
  0
VERTEX
  8
0
  5
143C
 10
262.682
 20
56.7356
 30
0.000000
  70
    32
  0
VERTEX
  8
0
  5
143D
 10
262.596
 20
56.7104
 30
0.000000
  70
    32
  0
VERTEX
  8
0
  5
143E
 10
262.511
 20
56.6838
 30
0.000000
  70
    32
  0
VERTEX
  8
0
  5
143F
 10
262.428
 20
56.6559
 30
0.000000
  70
    32
  0
VERTEX
  8
0
  5
1440
 10
262.345
 20
56.6267
 30
0.000000
  70
    32
  0
VERTEX
  8
0
  5
1441
 10
262.264
 20
56.5962
 30
0.000000
  70
    32
  0
VERTEX
  8
0
  5
1442
 10
262.185
 20
56.5645
 30
0.000000
  70
    32
  0
VERTEX
  8
0
  5
1443
 10
262.107
 20
56.5316
 30
0.000000
  70
    32
  0
VERTEX
  8
0
  5
1444
 10
262.030
 20
56.4975
 30
0.000000
  70
    32
  0
VERTEX
  8
0
  5
1445
 10
261.955
 20
56.4622
 30
0.000000
  70
    32
  0
VERTEX
  8
0
  5
1446
 10
261.882
 20
56.4258
 30
0.000000
  70
    32
  0
VERTEX
  8
0
  5
1447
 10
261.811
 20
56.3882
 30
0.000000
  70
    32
  0
VERTEX
  8
0
  5
1448
 10
261.741
 20
56.3496
 30
0.000000
  70
    32
  0
VERTEX
  8
0
  5
1449
 10
261.673
 20
56.3099
 30
0.000000
  70
    32
  0
VERTEX
  8
0
  5
144A
 10
261.607
 20
56.2691
 30
0.000000
  70
    32
  0
VERTEX
  8
0
  5
144B
 10
261.543
 20
56.2274
 30
0.000000
  70
    32
  0
VERTEX
  8
0
  5
144C
 10
261.481
 20
56.1846
 30
0.000000
  70
    32
  0
VERTEX
  8
0
  5
144D
 10
261.421
 20
56.1409
 30
0.000000
  70
    32
  0
VERTEX
  8
0
  5
144E
 10
261.363
 20
56.0963
 30
0.000000
  70
    32
  0
VERTEX
  8
0
  5
144F
 10
261.307
 20
56.0508
 30
0.000000
  70
    32
  0
VERTEX
  8
0
  5
1450
 10
261.253
 20
56.0045
 30
0.000000
  70
    32
  0
VERTEX
  8
0
  5
1451
 10
261.201
 20
55.9573
 30
0.000000
  70
    32
  0
VERTEX
  8
0
  5
1452
 10
261.152
 20
55.9094
 30
0.000000
  70
    32
  0
VERTEX
  8
0
  5
1453
 10
261.104
 20
55.8607
 30
0.000000
  70
    32
  0
VERTEX
  8
0
  5
1454
 10
261.060
 20
55.8113
 30
0.000000
  70
    32
  0
VERTEX
  8
0
  5
1455
 10
261.017
 20
55.7612
 30
0.000000
  70
    32
  0
VERTEX
  8
0
  5
1456
 10
260.977
 20
55.7105
 30
0.000000
  70
    32
  0
VERTEX
  8
0
  5
1457
 10
260.939
 20
55.6592
 30
0.000000
  70
    32
  0
VERTEX
  8
0
  5
1458
 10
260.903
 20
55.6073
 30
0.000000
  70
    32
  0
VERTEX
  8
0
  5
1459
 10
260.870
 20
55.5548
 30
0.000000
  70
    32
  0
VERTEX
  8
0
  5
145A
 10
260.840
 20
55.5019
 30
0.000000
  70
    32
  0
VERTEX
  8
0
  5
145B
 10
260.811
 20
55.4485
 30
0.000000
  70
    32
  0
VERTEX
  8
0
  5
145C
 10
260.786
 20
55.3947
 30
0.000000
  70
    32
  0
VERTEX
  8
0
  5
145D
 10
260.763
 20
55.3406
 30
0.000000
  70
    32
  0
VERTEX
  8
0
  5
145E
 10
260.742
 20
55.2860
 30
0.000000
  70
    32
  0
VERTEX
  8
0
  5
145F
 10
260.724
 20
55.2312
 30
0.000000
  70
    32
  0
VERTEX
  8
0
  5
1460
 10
260.708
 20
55.1761
 30
0.000000
  70
    32
  0
VERTEX
  8
0
  5
1461
 10
260.695
 20
55.1209
 30
0.000000
  70
    32
  0
VERTEX
  8
0
  5
1462
 10
260.685
 20
55.0654
 30
0.000000
  70
    32
  0
VERTEX
  8
0
  5
1463
 10
260.677
 20
55.0098
 30
0.000000
  70
    32
  0
VERTEX
  8
0
  5
1464
 10
260.672
 20
54.9540
 30
0.000000
  70
    32
  0
VERTEX
  8
0
  5
1465
 10
260.669
 20
54.8983
 30
0.000000
  70
    32
  0
VERTEX
  8
0
  5
1466
 10
260.669
 20
54.8425
 30
0.000000
  70
    32
  0
VERTEX
  8
0
  5
1467
 10
260.672
 20
54.7867
 30
0.000000
  70
    32
  0
VERTEX
  8
0
  5
1468
 10
260.677
 20
54.7310
 30
0.000000
  70
    32
  0
VERTEX
  8
0
  5
1469
 10
260.685
 20
54.6753
 30
0.000000
  70
    32
  0
VERTEX
  8
0
  5
146A
 10
260.695
 20
54.6199
 30
0.000000
  70
    32
  0
VERTEX
  8
0
  5
146B
 10
260.708
 20
54.5646
 30
0.000000
  70
    32
  0
SEQEND
  8
0
  5
146C
  0
POLYLINE
  5
FF
  8
0
 10
269.26493249877484
 20
56.131056704001537
 30
0.0
 66
     1
 70
     8
  0
VERTEX
  8
0
  5
146D
 10
269.265
 20
56.1311
 30
0.000000
  70
    32
  0
VERTEX
  8
0
  5
146E
 10
269.259
 20
56.2000
 30
0.000000
  70
    32
  0
VERTEX
  8
0
  5
146F
 10
269.249
 20
56.2688
 30
0.000000
  70
    32
  0
VERTEX
  8
0
  5
1470
 10
269.237
 20
56.3374
 30
0.000000
  70
    32
  0
VERTEX
  8
0
  5
1471
 10
269.223
 20
56.4059
 30
0.000000
  70
    32
  0
VERTEX
  8
0
  5
1472
 10
269.205
 20
56.4741
 30
0.000000
  70
    32
  0
VERTEX
  8
0
  5
1473
 10
269.184
 20
56.5421
 30
0.000000
  70
    32
  0
VERTEX
  8
0
  5
1474
 10
269.161
 20
56.6098
 30
0.000000
  70
    32
  0
VERTEX
  8
0
  5
1475
 10
269.135
 20
56.6771
 30
0.000000
  70
    32
  0
VERTEX
  8
0
  5
1476
 10
269.106
 20
56.7441
 30
0.000000
  70
    32
  0
VERTEX
  8
0
  5
1477
 10
269.074
 20
56.8106
 30
0.000000
  70
    32
  0
VERTEX
  8
0
  5
1478
 10
269.040
 20
56.8767
 30
0.000000
  70
    32
  0
VERTEX
  8
0
  5
1479
 10
269.003
 20
56.9423
 30
0.000000
  70
    32
  0
VERTEX
  8
0
  5
147A
 10
268.963
 20
57.0074
 30
0.000000
  70
    32
  0
VERTEX
  8
0
  5
147B
 10
268.921
 20
57.0719
 30
0.000000
  70
    32
  0
VERTEX
  8
0
  5
147C
 10
268.875
 20
57.1358
 30
0.000000
  70
    32
  0
VERTEX
  8
0
  5
147D
 10
268.828
 20
57.1990
 30
0.000000
  70
    32
  0
VERTEX
  8
0
  5
147E
 10
268.777
 20
57.2616
 30
0.000000
  70
    32
  0
VERTEX
  8
0
  5
147F
 10
268.724
 20
57.3234
 30
0.000000
  70
    32
  0
VERTEX
  8
0
  5
1480
 10
268.669
 20
57.3845
 30
0.000000
  70
    32
  0
VERTEX
  8
0
  5
1481
 10
268.611
 20
57.4449
 30
0.000000
  70
    32
  0
VERTEX
  8
0
  5
1482
 10
268.550
 20
57.5044
 30
0.000000
  70
    32
  0
VERTEX
  8
0
  5
1483
 10
268.487
 20
57.5630
 30
0.000000
  70
    32
  0
VERTEX
  8
0
  5
1484
 10
268.422
 20
57.6208
 30
0.000000
  70
    32
  0
VERTEX
  8
0
  5
1485
 10
268.354
 20
57.6776
 30
0.000000
  70
    32
  0
VERTEX
  8
0
  5
1486
 10
268.284
 20
57.7335
 30
0.000000
  70
    32
  0
VERTEX
  8
0
  5
1487
 10
268.212
 20
57.7884
 30
0.000000
  70
    32
  0
VERTEX
  8
0
  5
1488
 10
268.137
 20
57.8423
 30
0.000000
  70
    32
  0
VERTEX
  8
0
  5
1489
 10
268.060
 20
57.8952
 30
0.000000
  70
    32
  0
VERTEX
  8
0
  5
148A
 10
267.981
 20
57.9470
 30
0.000000
  70
    32
  0
VERTEX
  8
0
  5
148B
 10
267.900
 20
57.9977
 30
0.000000
  70
    32
  0
VERTEX
  8
0
  5
148C
 10
267.817
 20
58.0472
 30
0.000000
  70
    32
  0
VERTEX
  8
0
  5
148D
 10
267.732
 20
58.0956
 30
0.000000
  70
    32
  0
VERTEX
  8
0
  5
148E
 10
267.644
 20
58.1428
 30
0.000000
  70
    32
  0
VERTEX
  8
0
  5
148F
 10
267.555
 20
58.1887
 30
0.000000
  70
    32
  0
VERTEX
  8
0
  5
1490
 10
267.464
 20
58.2335
 30
0.000000
  70
    32
  0
VERTEX
  8
0
  5
1491
 10
267.371
 20
58.2769
 30
0.000000
  70
    32
  0
VERTEX
  8
0
  5
1492
 10
267.277
 20
58.3191
 30
0.000000
  70
    32
  0
VERTEX
  8
0
  5
1493
 10
267.180
 20
58.3599
 30
0.000000
  70
    32
  0
VERTEX
  8
0
  5
1494
 10
267.082
 20
58.3994
 30
0.000000
  70
    32
  0
VERTEX
  8
0
  5
1495
 10
266.983
 20
58.4376
 30
0.000000
  70
    32
  0
VERTEX
  8
0
  5
1496
 10
266.882
 20
58.4743
 30
0.000000
  70
    32
  0
VERTEX
  8
0
  5
1497
 10
266.779
 20
58.5097
 30
0.000000
  70
    32
  0
VERTEX
  8
0
  5
1498
 10
266.675
 20
58.5436
 30
0.000000
  70
    32
  0
VERTEX
  8
0
  5
1499
 10
266.570
 20
58.5761
 30
0.000000
  70
    32
  0
VERTEX
  8
0
  5
149A
 10
266.463
 20
58.6071
 30
0.000000
  70
    32
  0
VERTEX
  8
0
  5
149B
 10
266.355
 20
58.6366
 30
0.000000
  70
    32
  0
VERTEX
  8
0
  5
149C
 10
266.246
 20
58.6647
 30
0.000000
  70
    32
  0
VERTEX
  8
0
  5
149D
 10
266.135
 20
58.6912
 30
0.000000
  70
    32
  0
VERTEX
  8
0
  5
149E
 10
266.024
 20
58.7162
 30
0.000000
  70
    32
  0
VERTEX
  8
0
  5
149F
 10
265.911
 20
58.7396
 30
0.000000
  70
    32
  0
VERTEX
  8
0
  5
14A0
 10
265.798
 20
58.7615
 30
0.000000
  70
    32
  0
VERTEX
  8
0
  5
14A1
 10
265.684
 20
58.7818
 30
0.000000
  70
    32
  0
VERTEX
  8
0
  5
14A2
 10
265.569
 20
58.8005
 30
0.000000
  70
    32
  0
VERTEX
  8
0
  5
14A3
 10
265.453
 20
58.8177
 30
0.000000
  70
    32
  0
VERTEX
  8
0
  5
14A4
 10
265.337
 20
58.8332
 30
0.000000
  70
    32
  0
VERTEX
  8
0
  5
14A5
 10
265.219
 20
58.8471
 30
0.000000
  70
    32
  0
VERTEX
  8
0
  5
14A6
 10
265.102
 20
58.8594
 30
0.000000
  70
    32
  0
VERTEX
  8
0
  5
14A7
 10
264.984
 20
58.8701
 30
0.000000
  70
    32
  0
VERTEX
  8
0
  5
14A8
 10
264.865
 20
58.8792
 30
0.000000
  70
    32
  0
VERTEX
  8
0
  5
14A9
 10
264.746
 20
58.8866
 30
0.000000
  70
    32
  0
VERTEX
  8
0
  5
14AA
 10
264.627
 20
58.8923
 30
0.000000
  70
    32
  0
VERTEX
  8
0
  5
14AB
 10
264.508
 20
58.8965
 30
0.000000
  70
    32
  0
VERTEX
  8
0
  5
14AC
 10
264.389
 20
58.8989
 30
0.000000
  70
    32
  0
VERTEX
  8
0
  5
14AD
 10
264.269
 20
58.8998
 30
0.000000
  70
    32
  0
VERTEX
  8
0
  5
14AE
 10
264.150
 20
58.8989
 30
0.000000
  70
    32
  0
VERTEX
  8
0
  5
14AF
 10
264.030
 20
58.8965
 30
0.000000
  70
    32
  0
VERTEX
  8
0
  5
14B0
 10
263.911
 20
58.8923
 30
0.000000
  70
    32
  0
VERTEX
  8
0
  5
14B1
 10
263.792
 20
58.8866
 30
0.000000
  70
    32
  0
VERTEX
  8
0
  5
14B2
 10
263.673
 20
58.8792
 30
0.000000
  70
    32
  0
VERTEX
  8
0
  5
14B3
 10
263.554
 20
58.8701
 30
0.000000
  70
    32
  0
VERTEX
  8
0
  5
14B4
 10
263.436
 20
58.8594
 30
0.000000
  70
    32
  0
VERTEX
  8
0
  5
14B5
 10
263.319
 20
58.8471
 30
0.000000
  70
    32
  0
VERTEX
  8
0
  5
14B6
 10
263.202
 20
58.8332
 30
0.000000
  70
    32
  0
VERTEX
  8
0
  5
14B7
 10
263.085
 20
58.8177
 30
0.000000
  70
    32
  0
VERTEX
  8
0
  5
14B8
 10
262.969
 20
58.8005
 30
0.000000
  70
    32
  0
VERTEX
  8
0
  5
14B9
 10
262.854
 20
58.7818
 30
0.000000
  70
    32
  0
VERTEX
  8
0
  5
14BA
 10
262.740
 20
58.7615
 30
0.000000
  70
    32
  0
VERTEX
  8
0
  5
14BB
 10
262.627
 20
58.7396
 30
0.000000
  70
    32
  0
VERTEX
  8
0
  5
14BC
 10
262.514
 20
58.7162
 30
0.000000
  70
    32
  0
VERTEX
  8
0
  5
14BD
 10
262.403
 20
58.6912
 30
0.000000
  70
    32
  0
VERTEX
  8
0
  5
14BE
 10
262.293
 20
58.6647
 30
0.000000
  70
    32
  0
VERTEX
  8
0
  5
14BF
 10
262.183
 20
58.6366
 30
0.000000
  70
    32
  0
VERTEX
  8
0
  5
14C0
 10
262.075
 20
58.6071
 30
0.000000
  70
    32
  0
VERTEX
  8
0
  5
14C1
 10
261.969
 20
58.5761
 30
0.000000
  70
    32
  0
VERTEX
  8
0
  5
14C2
 10
261.863
 20
58.5436
 30
0.000000
  70
    32
  0
VERTEX
  8
0
  5
14C3
 10
261.759
 20
58.5097
 30
0.000000
  70
    32
  0
VERTEX
  8
0
  5
14C4
 10
261.657
 20
58.4743
 30
0.000000
  70
    32
  0
VERTEX
  8
0
  5
14C5
 10
261.555
 20
58.4376
 30
0.000000
  70
    32
  0
VERTEX
  8
0
  5
14C6
 10
261.456
 20
58.3994
 30
0.000000
  70
    32
  0
VERTEX
  8
0
  5
14C7
 10
261.358
 20
58.3599
 30
0.000000
  70
    32
  0
VERTEX
  8
0
  5
14C8
 10
261.261
 20
58.3191
 30
0.000000
  70
    32
  0
VERTEX
  8
0
  5
14C9
 10
261.167
 20
58.2769
 30
0.000000
  70
    32
  0
VERTEX
  8
0
  5
14CA
 10
261.074
 20
58.2335
 30
0.000000
  70
    32
  0
VERTEX
  8
0
  5
14CB
 10
260.983
 20
58.1887
 30
0.000000
  70
    32
  0
VERTEX
  8
0
  5
14CC
 10
260.894
 20
58.1428
 30
0.000000
  70
    32
  0
VERTEX
  8
0
  5
14CD
 10
260.807
 20
58.0956
 30
0.000000
  70
    32
  0
VERTEX
  8
0
  5
14CE
 10
260.721
 20
58.0472
 30
0.000000
  70
    32
  0
VERTEX
  8
0
  5
14CF
 10
260.638
 20
57.9977
 30
0.000000
  70
    32
  0
VERTEX
  8
0
  5
14D0
 10
260.557
 20
57.9470
 30
0.000000
  70
    32
  0
VERTEX
  8
0
  5
14D1
 10
260.478
 20
57.8952
 30
0.000000
  70
    32
  0
VERTEX
  8
0
  5
14D2
 10
260.401
 20
57.8423
 30
0.000000
  70
    32
  0
VERTEX
  8
0
  5
14D3
 10
260.327
 20
57.7884
 30
0.000000
  70
    32
  0
VERTEX
  8
0
  5
14D4
 10
260.254
 20
57.7335
 30
0.000000
  70
    32
  0
VERTEX
  8
0
  5
14D5
 10
260.184
 20
57.6776
 30
0.000000
  70
    32
  0
VERTEX
  8
0
  5
14D6
 10
260.116
 20
57.6208
 30
0.000000
  70
    32
  0
VERTEX
  8
0
  5
14D7
 10
260.051
 20
57.5630
 30
0.000000
  70
    32
  0
VERTEX
  8
0
  5
14D8
 10
259.988
 20
57.5044
 30
0.000000
  70
    32
  0
VERTEX
  8
0
  5
14D9
 10
259.928
 20
57.4449
 30
0.000000
  70
    32
  0
VERTEX
  8
0
  5
14DA
 10
259.869
 20
57.3845
 30
0.000000
  70
    32
  0
VERTEX
  8
0
  5
14DB
 10
259.814
 20
57.3234
 30
0.000000
  70
    32
  0
VERTEX
  8
0
  5
14DC
 10
259.761
 20
57.2616
 30
0.000000
  70
    32
  0
VERTEX
  8
0
  5
14DD
 10
259.711
 20
57.1990
 30
0.000000
  70
    32
  0
VERTEX
  8
0
  5
14DE
 10
259.663
 20
57.1358
 30
0.000000
  70
    32
  0
VERTEX
  8
0
  5
14DF
 10
259.618
 20
57.0719
 30
0.000000
  70
    32
  0
VERTEX
  8
0
  5
14E0
 10
259.575
 20
57.0074
 30
0.000000
  70
    32
  0
VERTEX
  8
0
  5
14E1
 10
259.535
 20
56.9423
 30
0.000000
  70
    32
  0
VERTEX
  8
0
  5
14E2
 10
259.498
 20
56.8767
 30
0.000000
  70
    32
  0
VERTEX
  8
0
  5
14E3
 10
259.464
 20
56.8106
 30
0.000000
  70
    32
  0
VERTEX
  8
0
  5
14E4
 10
259.432
 20
56.7441
 30
0.000000
  70
    32
  0
VERTEX
  8
0
  5
14E5
 10
259.403
 20
56.6771
 30
0.000000
  70
    32
  0
VERTEX
  8
0
  5
14E6
 10
259.377
 20
56.6098
 30
0.000000
  70
    32
  0
VERTEX
  8
0
  5
14E7
 10
259.354
 20
56.5421
 30
0.000000
  70
    32
  0
VERTEX
  8
0
  5
14E8
 10
259.333
 20
56.4741
 30
0.000000
  70
    32
  0
VERTEX
  8
0
  5
14E9
 10
259.316
 20
56.4059
 30
0.000000
  70
    32
  0
VERTEX
  8
0
  5
14EA
 10
259.301
 20
56.3374
 30
0.000000
  70
    32
  0
VERTEX
  8
0
  5
14EB
 10
259.289
 20
56.2688
 30
0.000000
  70
    32
  0
VERTEX
  8
0
  5
14EC
 10
259.280
 20
56.2000
 30
0.000000
  70
    32
  0
VERTEX
  8
0
  5
14ED
 10
259.273
 20
56.1311
 30
0.000000
  70
    32
  0
SEQEND
  8
0
  5
14EE
  0
POLYLINE
  5
100
  8
0
 10
206.5896596515899
 20
26.006759313745096
 30
0.0
 66
     1
 70
     8
  0
VERTEX
  8
0
  5
14EF
 10
206.590
 20
26.0068
 30
0.000000
  70
    32
  0
VERTEX
  8
0
  5
14F0
 10
206.596
 20
25.8651
 30
0.000000
  70
    32
  0
VERTEX
  8
0
  5
14F1
 10
206.614
 20
25.7238
 30
0.000000
  70
    32
  0
VERTEX
  8
0
  5
14F2
 10
206.644
 20
25.5832
 30
0.000000
  70
    32
  0
VERTEX
  8
0
  5
14F3
 10
206.686
 20
25.4436
 30
0.000000
  70
    32
  0
VERTEX
  8
0
  5
14F4
 10
206.740
 20
25.3053
 30
0.000000
  70
    32
  0
VERTEX
  8
0
  5
14F5
 10
206.805
 20
25.1688
 30
0.000000
  70
    32
  0
VERTEX
  8
0
  5
14F6
 10
206.882
 20
25.0342
 30
0.000000
  70
    32
  0
VERTEX
  8
0
  5
14F7
 10
206.970
 20
24.9020
 30
0.000000
  70
    32
  0
VERTEX
  8
0
  5
14F8
 10
207.070
 20
24.7725
 30
0.000000
  70
    32
  0
VERTEX
  8
0
  5
14F9
 10
207.180
 20
24.6460
 30
0.000000
  70
    32
  0
VERTEX
  8
0
  5
14FA
 10
207.301
 20
24.5227
 30
0.000000
  70
    32
  0
VERTEX
  8
0
  5
14FB
 10
207.432
 20
24.4030
 30
0.000000
  70
    32
  0
VERTEX
  8
0
  5
14FC
 10
207.574
 20
24.2871
 30
0.000000
  70
    32
  0
VERTEX
  8
0
  5
14FD
 10
207.725
 20
24.1754
 30
0.000000
  70
    32
  0
VERTEX
  8
0
  5
14FE
 10
207.885
 20
24.0681
 30
0.000000
  70
    32
  0
VERTEX
  8
0
  5
14FF
 10
208.054
 20
23.9655
 30
0.000000
  70
    32
  0
VERTEX
  8
0
  5
1500
 10
208.232
 20
23.8678
 30
0.000000
  70
    32
  0
VERTEX
  8
0
  5
1501
 10
208.418
 20
23.7753
 30
0.000000
  70
    32
  0
VERTEX
  8
0
  5
1502
 10
208.611
 20
23.6881
 30
0.000000
  70
    32
  0
VERTEX
  8
0
  5
1503
 10
208.812
 20
23.6065
 30
0.000000
  70
    32
  0
VERTEX
  8
0
  5
1504
 10
209.019
 20
23.5307
 30
0.000000
  70
    32
  0
VERTEX
  8
0
  5
1505
 10
209.233
 20
23.4609
 30
0.000000
  70
    32
  0
VERTEX
  8
0
  5
1506
 10
209.452
 20
23.3972
 30
0.000000
  70
    32
  0
VERTEX
  8
0
  5
1507
 10
209.676
 20
23.3397
 30
0.000000
  70
    32
  0
VERTEX
  8
0
  5
1508
 10
209.905
 20
23.2888
 30
0.000000
  70
    32
  0
VERTEX
  8
0
  5
1509
 10
210.138
 20
23.2443
 30
0.000000
  70
    32
  0
VERTEX
  8
0
  5
150A
 10
210.375
 20
23.2065
 30
0.000000
  70
    32
  0
VERTEX
  8
0
  5
150B
 10
210.614
 20
23.1755
 30
0.000000
  70
    32
  0
VERTEX
  8
0
  5
150C
 10
210.856
 20
23.1513
 30
0.000000
  70
    32
  0
VERTEX
  8
0
  5
150D
 10
211.100
 20
23.1339
 30
0.000000
  70
    32
  0
VERTEX
  8
0
  5
150E
 10
211.344
 20
23.1235
 30
0.000000
  70
    32
  0
VERTEX
  8
0
  5
150F
 10
211.590
 20
23.1200
 30
0.000000
  70
    32
  0
VERTEX
  8
0
  5
1510
 10
211.835
 20
23.1235
 30
0.000000
  70
    32
  0
VERTEX
  8
0
  5
1511
 10
212.080
 20
23.1339
 30
0.000000
  70
    32
  0
VERTEX
  8
0
  5
1512
 10
212.323
 20
23.1513
 30
0.000000
  70
    32
  0
VERTEX
  8
0
  5
1513
 10
212.565
 20
23.1755
 30
0.000000
  70
    32
  0
VERTEX
  8
0
  5
1514
 10
212.805
 20
23.2065
 30
0.000000
  70
    32
  0
VERTEX
  8
0
  5
1515
 10
213.041
 20
23.2443
 30
0.000000
  70
    32
  0
VERTEX
  8
0
  5
1516
 10
213.274
 20
23.2888
 30
0.000000
  70
    32
  0
VERTEX
  8
0
  5
1517
 10
213.503
 20
23.3397
 30
0.000000
  70
    32
  0
VERTEX
  8
0
  5
1518
 10
213.727
 20
23.3972
 30
0.000000
  70
    32
  0
VERTEX
  8
0
  5
1519
 10
213.947
 20
23.4609
 30
0.000000
  70
    32
  0
VERTEX
  8
0
  5
151A
 10
214.160
 20
23.5307
 30
0.000000
  70
    32
  0
VERTEX
  8
0
  5
151B
 10
214.368
 20
23.6065
 30
0.000000
  70
    32
  0
VERTEX
  8
0
  5
151C
 10
214.568
 20
23.6881
 30
0.000000
  70
    32
  0
VERTEX
  8
0
  5
151D
 10
214.762
 20
23.7753
 30
0.000000
  70
    32
  0
VERTEX
  8
0
  5
151E
 10
214.947
 20
23.8678
 30
0.000000
  70
    32
  0
VERTEX
  8
0
  5
151F
 10
215.125
 20
23.9655
 30
0.000000
  70
    32
  0
VERTEX
  8
0
  5
1520
 10
215.294
 20
24.0681
 30
0.000000
  70
    32
  0
VERTEX
  8
0
  5
1521
 10
215.455
 20
24.1754
 30
0.000000
  70
    32
  0
VERTEX
  8
0
  5
1522
 10
215.606
 20
24.2871
 30
0.000000
  70
    32
  0
VERTEX
  8
0
  5
1523
 10
215.747
 20
24.4030
 30
0.000000
  70
    32
  0
VERTEX
  8
0
  5
1524
 10
215.878
 20
24.5227
 30
0.000000
  70
    32
  0
VERTEX
  8
0
  5
1525
 10
215.999
 20
24.6460
 30
0.000000
  70
    32
  0
VERTEX
  8
0
  5
1526
 10
216.110
 20
24.7725
 30
0.000000
  70
    32
  0
VERTEX
  8
0
  5
1527
 10
216.209
 20
24.9020
 30
0.000000
  70
    32
  0
VERTEX
  8
0
  5
1528
 10
216.297
 20
25.0342
 30
0.000000
  70
    32
  0
VERTEX
  8
0
  5
1529
 10
216.374
 20
25.1688
 30
0.000000
  70
    32
  0
VERTEX
  8
0
  5
152A
 10
216.440
 20
25.3053
 30
0.000000
  70
    32
  0
VERTEX
  8
0
  5
152B
 10
216.494
 20
25.4436
 30
0.000000
  70
    32
  0
VERTEX
  8
0
  5
152C
 10
216.536
 20
25.5832
 30
0.000000
  70
    32
  0
VERTEX
  8
0
  5
152D
 10
216.566
 20
25.7238
 30
0.000000
  70
    32
  0
VERTEX
  8
0
  5
152E
 10
216.584
 20
25.8651
 30
0.000000
  70
    32
  0
VERTEX
  8
0
  5
152F
 10
216.590
 20
26.0068
 30
0.000000
  70
    32
  0
VERTEX
  8
0
  5
1530
 10
216.584
 20
26.1484
 30
0.000000
  70
    32
  0
VERTEX
  8
0
  5
1531
 10
216.566
 20
26.2897
 30
0.000000
  70
    32
  0
VERTEX
  8
0
  5
1532
 10
216.536
 20
26.4303
 30
0.000000
  70
    32
  0
VERTEX
  8
0
  5
1533
 10
216.494
 20
26.5699
 30
0.000000
  70
    32
  0
VERTEX
  8
0
  5
1534
 10
216.440
 20
26.7082
 30
0.000000
  70
    32
  0
VERTEX
  8
0
  5
1535
 10
216.374
 20
26.8447
 30
0.000000
  70
    32
  0
VERTEX
  8
0
  5
1536
 10
216.297
 20
26.9793
 30
0.000000
  70
    32
  0
VERTEX
  8
0
  5
1537
 10
216.209
 20
27.1115
 30
0.000000
  70
    32
  0
VERTEX
  8
0
  5
1538
 10
216.110
 20
27.2410
 30
0.000000
  70
    32
  0
VERTEX
  8
0
  5
1539
 10
215.999
 20
27.3676
 30
0.000000
  70
    32
  0
VERTEX
  8
0
  5
153A
 10
215.878
 20
27.4908
 30
0.000000
  70
    32
  0
VERTEX
  8
0
  5
153B
 10
215.747
 20
27.6106
 30
0.000000
  70
    32
  0
VERTEX
  8
0
  5
153C
 10
215.606
 20
27.7264
 30
0.000000
  70
    32
  0
VERTEX
  8
0
  5
153D
 10
215.455
 20
27.8381
 30
0.000000
  70
    32
  0
VERTEX
  8
0
  5
153E
 10
215.294
 20
27.9454
 30
0.000000
  70
    32
  0
VERTEX
  8
0
  5
153F
 10
215.125
 20
28.0480
 30
0.000000
  70
    32
  0
VERTEX
  8
0
  5
1540
 10
214.947
 20
28.1457
 30
0.000000
  70
    32
  0
VERTEX
  8
0
  5
1541
 10
214.762
 20
28.2382
 30
0.000000
  70
    32
  0
VERTEX
  8
0
  5
1542
 10
214.568
 20
28.3254
 30
0.000000
  70
    32
  0
VERTEX
  8
0
  5
1543
 10
214.368
 20
28.4070
 30
0.000000
  70
    32
  0
VERTEX
  8
0
  5
1544
 10
214.160
 20
28.4828
 30
0.000000
  70
    32
  0
VERTEX
  8
0
  5
1545
 10
213.947
 20
28.5526
 30
0.000000
  70
    32
  0
VERTEX
  8
0
  5
1546
 10
213.727
 20
28.6164
 30
0.000000
  70
    32
  0
VERTEX
  8
0
  5
1547
 10
213.503
 20
28.6738
 30
0.000000
  70
    32
  0
VERTEX
  8
0
  5
1548
 10
213.274
 20
28.7248
 30
0.000000
  70
    32
  0
VERTEX
  8
0
  5
1549
 10
213.041
 20
28.7692
 30
0.000000
  70
    32
  0
VERTEX
  8
0
  5
154A
 10
212.805
 20
28.8070
 30
0.000000
  70
    32
  0
VERTEX
  8
0
  5
154B
 10
212.565
 20
28.8380
 30
0.000000
  70
    32
  0
VERTEX
  8
0
  5
154C
 10
212.323
 20
28.8623
 30
0.000000
  70
    32
  0
VERTEX
  8
0
  5
154D
 10
212.080
 20
28.8796
 30
0.000000
  70
    32
  0
VERTEX
  8
0
  5
154E
 10
211.835
 20
28.8900
 30
0.000000
  70
    32
  0
VERTEX
  8
0
  5
154F
 10
211.590
 20
28.8935
 30
0.000000
  70
    32
  0
VERTEX
  8
0
  5
1550
 10
211.344
 20
28.8900
 30
0.000000
  70
    32
  0
VERTEX
  8
0
  5
1551
 10
211.100
 20
28.8796
 30
0.000000
  70
    32
  0
VERTEX
  8
0
  5
1552
 10
210.856
 20
28.8623
 30
0.000000
  70
    32
  0
VERTEX
  8
0
  5
1553
 10
210.614
 20
28.8380
 30
0.000000
  70
    32
  0
VERTEX
  8
0
  5
1554
 10
210.375
 20
28.8070
 30
0.000000
  70
    32
  0
VERTEX
  8
0
  5
1555
 10
210.138
 20
28.7692
 30
0.000000
  70
    32
  0
VERTEX
  8
0
  5
1556
 10
209.905
 20
28.7248
 30
0.000000
  70
    32
  0
VERTEX
  8
0
  5
1557
 10
209.676
 20
28.6738
 30
0.000000
  70
    32
  0
VERTEX
  8
0
  5
1558
 10
209.452
 20
28.6164
 30
0.000000
  70
    32
  0
VERTEX
  8
0
  5
1559
 10
209.233
 20
28.5526
 30
0.000000
  70
    32
  0
VERTEX
  8
0
  5
155A
 10
209.019
 20
28.4828
 30
0.000000
  70
    32
  0
VERTEX
  8
0
  5
155B
 10
208.812
 20
28.4070
 30
0.000000
  70
    32
  0
VERTEX
  8
0
  5
155C
 10
208.611
 20
28.3254
 30
0.000000
  70
    32
  0
VERTEX
  8
0
  5
155D
 10
208.418
 20
28.2382
 30
0.000000
  70
    32
  0
VERTEX
  8
0
  5
155E
 10
208.232
 20
28.1457
 30
0.000000
  70
    32
  0
VERTEX
  8
0
  5
155F
 10
208.054
 20
28.0480
 30
0.000000
  70
    32
  0
VERTEX
  8
0
  5
1560
 10
207.885
 20
27.9454
 30
0.000000
  70
    32
  0
VERTEX
  8
0
  5
1561
 10
207.725
 20
27.8381
 30
0.000000
  70
    32
  0
VERTEX
  8
0
  5
1562
 10
207.574
 20
27.7264
 30
0.000000
  70
    32
  0
VERTEX
  8
0
  5
1563
 10
207.432
 20
27.6106
 30
0.000000
  70
    32
  0
VERTEX
  8
0
  5
1564
 10
207.301
 20
27.4908
 30
0.000000
  70
    32
  0
VERTEX
  8
0
  5
1565
 10
207.180
 20
27.3676
 30
0.000000
  70
    32
  0
VERTEX
  8
0
  5
1566
 10
207.070
 20
27.2410
 30
0.000000
  70
    32
  0
VERTEX
  8
0
  5
1567
 10
206.970
 20
27.1115
 30
0.000000
  70
    32
  0
VERTEX
  8
0
  5
1568
 10
206.882
 20
26.9793
 30
0.000000
  70
    32
  0
VERTEX
  8
0
  5
1569
 10
206.805
 20
26.8447
 30
0.000000
  70
    32
  0
VERTEX
  8
0
  5
156A
 10
206.740
 20
26.7082
 30
0.000000
  70
    32
  0
VERTEX
  8
0
  5
156B
 10
206.686
 20
26.5699
 30
0.000000
  70
    32
  0
VERTEX
  8
0
  5
156C
 10
206.644
 20
26.4303
 30
0.000000
  70
    32
  0
VERTEX
  8
0
  5
156D
 10
206.614
 20
26.2897
 30
0.000000
  70
    32
  0
VERTEX
  8
0
  5
156E
 10
206.596
 20
26.1484
 30
0.000000
  70
    32
  0
VERTEX
  8
0
  5
156F
 10
206.590
 20
26.0068
 30
0.000000
  70
    32
  0
SEQEND
  8
0
  5
1570
  0
POLYLINE
  5
101
  8
0
 10
259.26911484998772
 20
56.421256953302922
 30
0.0
 66
     1
 70
     8
  0
VERTEX
  8
0
  5
1571
 10
259.269
 20
56.4213
 30
0.000000
  70
    32
  0
VERTEX
  8
0
  5
1572
 10
259.275
 20
56.2796
 30
0.000000
  70
    32
  0
VERTEX
  8
0
  5
1573
 10
259.293
 20
56.1383
 30
0.000000
  70
    32
  0
VERTEX
  8
0
  5
1574
 10
259.323
 20
55.9977
 30
0.000000
  70
    32
  0
VERTEX
  8
0
  5
1575
 10
259.365
 20
55.8581
 30
0.000000
  70
    32
  0
VERTEX
  8
0
  5
1576
 10
259.419
 20
55.7198
 30
0.000000
  70
    32
  0
VERTEX
  8
0
  5
1577
 10
259.484
 20
55.5833
 30
0.000000
  70
    32
  0
VERTEX
  8
0
  5
1578
 10
259.561
 20
55.4487
 30
0.000000
  70
    32
  0
VERTEX
  8
0
  5
1579
 10
259.650
 20
55.3165
 30
0.000000
  70
    32
  0
VERTEX
  8
0
  5
157A
 10
259.749
 20
55.1870
 30
0.000000
  70
    32
  0
VERTEX
  8
0
  5
157B
 10
259.860
 20
55.0605
 30
0.000000
  70
    32
  0
VERTEX
  8
0
  5
157C
 10
259.980
 20
54.9372
 30
0.000000
  70
    32
  0
VERTEX
  8
0
  5
157D
 10
260.112
 20
54.8175
 30
0.000000
  70
    32
  0
VERTEX
  8
0
  5
157E
 10
260.253
 20
54.7016
 30
0.000000
  70
    32
  0
VERTEX
  8
0
  5
157F
 10
260.404
 20
54.5899
 30
0.000000
  70
    32
  0
VERTEX
  8
0
  5
1580
 10
260.564
 20
54.4826
 30
0.000000
  70
    32
  0
VERTEX
  8
0
  5
1581
 10
260.734
 20
54.3800
 30
0.000000
  70
    32
  0
VERTEX
  8
0
  5
1582
 10
260.911
 20
54.2823
 30
0.000000
  70
    32
  0
VERTEX
  8
0
  5
1583
 10
261.097
 20
54.1898
 30
0.000000
  70
    32
  0
VERTEX
  8
0
  5
1584
 10
261.291
 20
54.1026
 30
0.000000
  70
    32
  0
VERTEX
  8
0
  5
1585
 10
261.491
 20
54.0210
 30
0.000000
  70
    32
  0
VERTEX
  8
0
  5
1586
 10
261.699
 20
53.9452
 30
0.000000
  70
    32
  0
VERTEX
  8
0
  5
1587
 10
261.912
 20
53.8754
 30
0.000000
  70
    32
  0
VERTEX
  8
0
  5
1588
 10
262.131
 20
53.8117
 30
0.000000
  70
    32
  0
VERTEX
  8
0
  5
1589
 10
262.356
 20
53.7542
 30
0.000000
  70
    32
  0
VERTEX
  8
0
  5
158A
 10
262.585
 20
53.7033
 30
0.000000
  70
    32
  0
VERTEX
  8
0
  5
158B
 10
262.818
 20
53.6588
 30
0.000000
  70
    32
  0
VERTEX
  8
0
  5
158C
 10
263.054
 20
53.6210
 30
0.000000
  70
    32
  0
VERTEX
  8
0
  5
158D
 10
263.294
 20
53.5900
 30
0.000000
  70
    32
  0
VERTEX
  8
0
  5
158E
 10
263.535
 20
53.5658
 30
0.000000
  70
    32
  0
VERTEX
  8
0
  5
158F
 10
263.779
 20
53.5484
 30
0.000000
  70
    32
  0
VERTEX
  8
0
  5
1590
 10
264.024
 20
53.5380
 30
0.000000
  70
    32
  0
VERTEX
  8
0
  5
1591
 10
264.269
 20
53.5345
 30
0.000000
  70
    32
  0
VERTEX
  8
0
  5
1592
 10
264.514
 20
53.5380
 30
0.000000
  70
    32
  0
VERTEX
  8
0
  5
1593
 10
264.759
 20
53.5484
 30
0.000000
  70
    32
  0
VERTEX
  8
0
  5
1594
 10
265.003
 20
53.5658
 30
0.000000
  70
    32
  0
VERTEX
  8
0
  5
1595
 10
265.245
 20
53.5900
 30
0.000000
  70
    32
  0
VERTEX
  8
0
  5
1596
 10
265.484
 20
53.6210
 30
0.000000
  70
    32
  0
VERTEX
  8
0
  5
1597
 10
265.721
 20
53.6588
 30
0.000000
  70
    32
  0
VERTEX
  8
0
  5
1598
 10
265.954
 20
53.7033
 30
0.000000
  70
    32
  0
VERTEX
  8
0
  5
1599
 10
266.183
 20
53.7542
 30
0.000000
  70
    32
  0
VERTEX
  8
0
  5
159A
 10
266.407
 20
53.8117
 30
0.000000
  70
    32
  0
VERTEX
  8
0
  5
159B
 10
266.626
 20
53.8754
 30
0.000000
  70
    32
  0
VERTEX
  8
0
  5
159C
 10
266.840
 20
53.9452
 30
0.000000
  70
    32
  0
VERTEX
  8
0
  5
159D
 10
267.047
 20
54.0210
 30
0.000000
  70
    32
  0
VERTEX
  8
0
  5
159E
 10
267.248
 20
54.1026
 30
0.000000
  70
    32
  0
VERTEX
  8
0
  5
159F
 10
267.441
 20
54.1898
 30
0.000000
  70
    32
  0
VERTEX
  8
0
  5
15A0
 10
267.627
 20
54.2823
 30
0.000000
  70
    32
  0
VERTEX
  8
0
  5
15A1
 10
267.805
 20
54.3800
 30
0.000000
  70
    32
  0
VERTEX
  8
0
  5
15A2
 10
267.974
 20
54.4826
 30
0.000000
  70
    32
  0
VERTEX
  8
0
  5
15A3
 10
268.134
 20
54.5899
 30
0.000000
  70
    32
  0
VERTEX
  8
0
  5
15A4
 10
268.285
 20
54.7016
 30
0.000000
  70
    32
  0
VERTEX
  8
0
  5
15A5
 10
268.426
 20
54.8175
 30
0.000000
  70
    32
  0
VERTEX
  8
0
  5
15A6
 10
268.558
 20
54.9372
 30
0.000000
  70
    32
  0
VERTEX
  8
0
  5
15A7
 10
268.679
 20
55.0605
 30
0.000000
  70
    32
  0
VERTEX
  8
0
  5
15A8
 10
268.789
 20
55.1870
 30
0.000000
  70
    32
  0
VERTEX
  8
0
  5
15A9
 10
268.889
 20
55.3165
 30
0.000000
  70
    32
  0
VERTEX
  8
0
  5
15AA
 10
268.977
 20
55.4487
 30
0.000000
  70
    32
  0
VERTEX
  8
0
  5
15AB
 10
269.054
 20
55.5833
 30
0.000000
  70
    32
  0
VERTEX
  8
0
  5
15AC
 10
269.119
 20
55.7198
 30
0.000000
  70
    32
  0
VERTEX
  8
0
  5
15AD
 10
269.173
 20
55.8581
 30
0.000000
  70
    32
  0
VERTEX
  8
0
  5
15AE
 10
269.215
 20
55.9977
 30
0.000000
  70
    32
  0
VERTEX
  8
0
  5
15AF
 10
269.245
 20
56.1383
 30
0.000000
  70
    32
  0
VERTEX
  8
0
  5
15B0
 10
269.263
 20
56.2796
 30
0.000000
  70
    32
  0
VERTEX
  8
0
  5
15B1
 10
269.269
 20
56.4213
 30
0.000000
  70
    32
  0
VERTEX
  8
0
  5
15B2
 10
269.263
 20
56.5629
 30
0.000000
  70
    32
  0
VERTEX
  8
0
  5
15B3
 10
269.245
 20
56.7042
 30
0.000000
  70
    32
  0
VERTEX
  8
0
  5
15B4
 10
269.215
 20
56.8448
 30
0.000000
  70
    32
  0
VERTEX
  8
0
  5
15B5
 10
269.173
 20
56.9844
 30
0.000000
  70
    32
  0
VERTEX
  8
0
  5
15B6
 10
269.119
 20
57.1227
 30
0.000000
  70
    32
  0
VERTEX
  8
0
  5
15B7
 10
269.054
 20
57.2592
 30
0.000000
  70
    32
  0
VERTEX
  8
0
  5
15B8
 10
268.977
 20
57.3938
 30
0.000000
  70
    32
  0
VERTEX
  8
0
  5
15B9
 10
268.889
 20
57.5260
 30
0.000000
  70
    32
  0
VERTEX
  8
0
  5
15BA
 10
268.789
 20
57.6555
 30
0.000000
  70
    32
  0
VERTEX
  8
0
  5
15BB
 10
268.679
 20
57.7821
 30
0.000000
  70
    32
  0
VERTEX
  8
0
  5
15BC
 10
268.558
 20
57.9053
 30
0.000000
  70
    32
  0
VERTEX
  8
0
  5
15BD
 10
268.426
 20
58.0251
 30
0.000000
  70
    32
  0
VERTEX
  8
0
  5
15BE
 10
268.285
 20
58.1409
 30
0.000000
  70
    32
  0
VERTEX
  8
0
  5
15BF
 10
268.134
 20
58.2526
 30
0.000000
  70
    32
  0
VERTEX
  8
0
  5
15C0
 10
267.974
 20
58.3599
 30
0.000000
  70
    32
  0
VERTEX
  8
0
  5
15C1
 10
267.805
 20
58.4625
 30
0.000000
  70
    32
  0
VERTEX
  8
0
  5
15C2
 10
267.627
 20
58.5602
 30
0.000000
  70
    32
  0
VERTEX
  8
0
  5
15C3
 10
267.441
 20
58.6527
 30
0.000000
  70
    32
  0
VERTEX
  8
0
  5
15C4
 10
267.248
 20
58.7399
 30
0.000000
  70
    32
  0
VERTEX
  8
0
  5
15C5
 10
267.047
 20
58.8215
 30
0.000000
  70
    32
  0
VERTEX
  8
0
  5
15C6
 10
266.840
 20
58.8973
 30
0.000000
  70
    32
  0
VERTEX
  8
0
  5
15C7
 10
266.626
 20
58.9671
 30
0.000000
  70
    32
  0
VERTEX
  8
0
  5
15C8
 10
266.407
 20
59.0308
 30
0.000000
  70
    32
  0
VERTEX
  8
0
  5
15C9
 10
266.183
 20
59.0883
 30
0.000000
  70
    32
  0
VERTEX
  8
0
  5
15CA
 10
265.954
 20
59.1393
 30
0.000000
  70
    32
  0
VERTEX
  8
0
  5
15CB
 10
265.721
 20
59.1837
 30
0.000000
  70
    32
  0
VERTEX
  8
0
  5
15CC
 10
265.484
 20
59.2215
 30
0.000000
  70
    32
  0
VERTEX
  8
0
  5
15CD
 10
265.245
 20
59.2525
 30
0.000000
  70
    32
  0
VERTEX
  8
0
  5
15CE
 10
265.003
 20
59.2768
 30
0.000000
  70
    32
  0
VERTEX
  8
0
  5
15CF
 10
264.759
 20
59.2941
 30
0.000000
  70
    32
  0
VERTEX
  8
0
  5
15D0
 10
264.514
 20
59.3045
 30
0.000000
  70
    32
  0
VERTEX
  8
0
  5
15D1
 10
264.269
 20
59.3080
 30
0.000000
  70
    32
  0
VERTEX
  8
0
  5
15D2
 10
264.024
 20
59.3045
 30
0.000000
  70
    32
  0
VERTEX
  8
0
  5
15D3
 10
263.779
 20
59.2941
 30
0.000000
  70
    32
  0
VERTEX
  8
0
  5
15D4
 10
263.535
 20
59.2768
 30
0.000000
  70
    32
  0
VERTEX
  8
0
  5
15D5
 10
263.294
 20
59.2525
 30
0.000000
  70
    32
  0
VERTEX
  8
0
  5
15D6
 10
263.054
 20
59.2215
 30
0.000000
  70
    32
  0
VERTEX
  8
0
  5
15D7
 10
262.818
 20
59.1837
 30
0.000000
  70
    32
  0
VERTEX
  8
0
  5
15D8
 10
262.585
 20
59.1393
 30
0.000000
  70
    32
  0
VERTEX
  8
0
  5
15D9
 10
262.356
 20
59.0883
 30
0.000000
  70
    32
  0
VERTEX
  8
0
  5
15DA
 10
262.131
 20
59.0308
 30
0.000000
  70
    32
  0
VERTEX
  8
0
  5
15DB
 10
261.912
 20
58.9671
 30
0.000000
  70
    32
  0
VERTEX
  8
0
  5
15DC
 10
261.699
 20
58.8973
 30
0.000000
  70
    32
  0
VERTEX
  8
0
  5
15DD
 10
261.491
 20
58.8215
 30
0.000000
  70
    32
  0
VERTEX
  8
0
  5
15DE
 10
261.291
 20
58.7399
 30
0.000000
  70
    32
  0
VERTEX
  8
0
  5
15DF
 10
261.097
 20
58.6527
 30
0.000000
  70
    32
  0
VERTEX
  8
0
  5
15E0
 10
260.911
 20
58.5602
 30
0.000000
  70
    32
  0
VERTEX
  8
0
  5
15E1
 10
260.734
 20
58.4625
 30
0.000000
  70
    32
  0
VERTEX
  8
0
  5
15E2
 10
260.564
 20
58.3599
 30
0.000000
  70
    32
  0
VERTEX
  8
0
  5
15E3
 10
260.404
 20
58.2526
 30
0.000000
  70
    32
  0
VERTEX
  8
0
  5
15E4
 10
260.253
 20
58.1409
 30
0.000000
  70
    32
  0
VERTEX
  8
0
  5
15E5
 10
260.112
 20
58.0251
 30
0.000000
  70
    32
  0
VERTEX
  8
0
  5
15E6
 10
259.980
 20
57.9053
 30
0.000000
  70
    32
  0
VERTEX
  8
0
  5
15E7
 10
259.860
 20
57.7821
 30
0.000000
  70
    32
  0
VERTEX
  8
0
  5
15E8
 10
259.749
 20
57.6555
 30
0.000000
  70
    32
  0
VERTEX
  8
0
  5
15E9
 10
259.650
 20
57.5260
 30
0.000000
  70
    32
  0
VERTEX
  8
0
  5
15EA
 10
259.561
 20
57.3938
 30
0.000000
  70
    32
  0
VERTEX
  8
0
  5
15EB
 10
259.484
 20
57.2592
 30
0.000000
  70
    32
  0
VERTEX
  8
0
  5
15EC
 10
259.419
 20
57.1227
 30
0.000000
  70
    32
  0
VERTEX
  8
0
  5
15ED
 10
259.365
 20
56.9844
 30
0.000000
  70
    32
  0
VERTEX
  8
0
  5
15EE
 10
259.323
 20
56.8448
 30
0.000000
  70
    32
  0
VERTEX
  8
0
  5
15EF
 10
259.293
 20
56.7042
 30
0.000000
  70
    32
  0
VERTEX
  8
0
  5
15F0
 10
259.275
 20
56.5629
 30
0.000000
  70
    32
  0
VERTEX
  8
0
  5
15F1
 10
259.269
 20
56.4213
 30
0.000000
  70
    32
  0
SEQEND
  8
0
  5
15F2
  0
POLYLINE
  5
102
  8
0
 10
230.300619440715
 20
42.651891612806622
 30
0.0
 66
     1
 70
     8
  0
VERTEX
  8
0
  5
15F3
 10
230.301
 20
42.6519
 30
0.000000
  70
    32
  0
VERTEX
  8
0
  5
15F4
 10
230.231
 20
42.5215
 30
0.000000
  70
    32
  0
VERTEX
  8
0
  5
15F5
 10
230.167
 20
42.3899
 30
0.000000
  70
    32
  0
VERTEX
  8
0
  5
15F6
 10
230.110
 20
42.2573
 30
0.000000
  70
    32
  0
VERTEX
  8
0
  5
15F7
 10
230.061
 20
42.1238
 30
0.000000
  70
    32
  0
VERTEX
  8
0
  5
15F8
 10
230.018
 20
41.9896
 30
0.000000
  70
    32
  0
VERTEX
  8
0
  5
15F9
 10
229.981
 20
41.8546
 30
0.000000
  70
    32
  0
VERTEX
  8
0
  5
15FA
 10
229.952
 20
41.7191
 30
0.000000
  70
    32
  0
VERTEX
  8
0
  5
15FB
 10
229.930
 20
41.5832
 30
0.000000
  70
    32
  0
VERTEX
  8
0
  5
15FC
 10
229.915
 20
41.4469
 30
0.000000
  70
    32
  0
VERTEX
  8
0
  5
15FD
 10
229.906
 20
41.3104
 30
0.000000
  70
    32
  0
VERTEX
  8
0
  5
15FE
 10
229.905
 20
41.1739
 30
0.000000
  70
    32
  0
VERTEX
  8
0
  5
15FF
 10
229.910
 20
41.0373
 30
0.000000
  70
    32
  0
VERTEX
  8
0
  5
1600
 10
229.923
 20
40.9010
 30
0.000000
  70
    32
  0
VERTEX
  8
0
  5
1601
 10
229.942
 20
40.7649
 30
0.000000
  70
    32
  0
VERTEX
  8
0
  5
1602
 10
229.969
 20
40.6292
 30
0.000000
  70
    32
  0
VERTEX
  8
0
  5
1603
 10
230.002
 20
40.4940
 30
0.000000
  70
    32
  0
VERTEX
  8
0
  5
1604
 10
230.042
 20
40.3594
 30
0.000000
  70
    32
  0
VERTEX
  8
0
  5
1605
 10
230.089
 20
40.2256
 30
0.000000
  70
    32
  0
VERTEX
  8
0
  5
1606
 10
230.143
 20
40.0926
 30
0.000000
  70
    32
  0
VERTEX
  8
0
  5
1607
 10
230.204
 20
39.9606
 30
0.000000
  70
    32
  0
VERTEX
  8
0
  5
1608
 10
230.271
 20
39.8297
 30
0.000000
  70
    32
  0
VERTEX
  8
0
  5
1609
 10
230.345
 20
39.7000
 30
0.000000
  70
    32
  0
VERTEX
  8
0
  5
160A
 10
230.425
 20
39.5716
 30
0.000000
  70
    32
  0
VERTEX
  8
0
  5
160B
 10
230.513
 20
39.4447
 30
0.000000
  70
    32
  0
VERTEX
  8
0
  5
160C
 10
230.606
 20
39.3192
 30
0.000000
  70
    32
  0
VERTEX
  8
0
  5
160D
 10
230.706
 20
39.1955
 30
0.000000
  70
    32
  0
VERTEX
  8
0
  5
160E
 10
230.812
 20
39.0734
 30
0.000000
  70
    32
  0
VERTEX
  8
0
  5
160F
 10
230.925
 20
38.9533
 30
0.000000
  70
    32
  0
VERTEX
  8
0
  5
1610
 10
231.043
 20
38.8351
 30
0.000000
  70
    32
  0
VERTEX
  8
0
  5
1611
 10
231.167
 20
38.7189
 30
0.000000
  70
    32
  0
VERTEX
  8
0
  5
1612
 10
231.298
 20
38.6050
 30
0.000000
  70
    32
  0
VERTEX
  8
0
  5
1613
 10
231.434
 20
38.4933
 30
0.000000
  70
    32
  0
VERTEX
  8
0
  5
1614
 10
231.575
 20
38.3839
 30
0.000000
  70
    32
  0
VERTEX
  8
0
  5
1615
 10
231.723
 20
38.2771
 30
0.000000
  70
    32
  0
VERTEX
  8
0
  5
1616
 10
231.875
 20
38.1727
 30
0.000000
  70
    32
  0
VERTEX
  8
0
  5
1617
 10
232.033
 20
38.0710
 30
0.000000
  70
    32
  0
VERTEX
  8
0
  5
1618
 10
232.196
 20
37.9721
 30
0.000000
  70
    32
  0
VERTEX
  8
0
  5
1619
 10
232.364
 20
37.8759
 30
0.000000
  70
    32
  0
VERTEX
  8
0
  5
161A
 10
232.537
 20
37.7827
 30
0.000000
  70
    32
  0
VERTEX
  8
0
  5
161B
 10
232.714
 20
37.6924
 30
0.000000
  70
    32
  0
VERTEX
  8
0
  5
161C
 10
232.896
 20
37.6052
 30
0.000000
  70
    32
  0
VERTEX
  8
0
  5
161D
 10
233.083
 20
37.5212
 30
0.000000
  70
    32
  0
VERTEX
  8
0
  5
161E
 10
233.273
 20
37.4403
 30
0.000000
  70
    32
  0
VERTEX
  8
0
  5
161F
 10
233.468
 20
37.3627
 30
0.000000
  70
    32
  0
VERTEX
  8
0
  5
1620
 10
233.667
 20
37.2885
 30
0.000000
  70
    32
  0
VERTEX
  8
0
  5
1621
 10
233.869
 20
37.2177
 30
0.000000
  70
    32
  0
VERTEX
  8
0
  5
1622
 10
234.075
 20
37.1503
 30
0.000000
  70
    32
  0
VERTEX
  8
0
  5
1623
 10
234.284
 20
37.0865
 30
0.000000
  70
    32
  0
VERTEX
  8
0
  5
1624
 10
234.496
 20
37.0263
 30
0.000000
  70
    32
  0
VERTEX
  8
0
  5
1625
 10
234.711
 20
36.9697
 30
0.000000
  70
    32
  0
VERTEX
  8
0
  5
1626
 10
234.929
 20
36.9167
 30
0.000000
  70
    32
  0
VERTEX
  8
0
  5
1627
 10
235.150
 20
36.8676
 30
0.000000
  70
    32
  0
VERTEX
  8
0
  5
1628
 10
235.373
 20
36.8222
 30
0.000000
  70
    32
  0
VERTEX
  8
0
  5
1629
 10
235.598
 20
36.7806
 30
0.000000
  70
    32
  0
VERTEX
  8
0
  5
162A
 10
235.825
 20
36.7428
 30
0.000000
  70
    32
  0
VERTEX
  8
0
  5
162B
 10
236.055
 20
36.7090
 30
0.000000
  70
    32
  0
VERTEX
  8
0
  5
162C
 10
236.285
 20
36.6790
 30
0.000000
  70
    32
  0
VERTEX
  8
0
  5
162D
 10
236.518
 20
36.6530
 30
0.000000
  70
    32
  0
VERTEX
  8
0
  5
162E
 10
236.751
 20
36.6310
 30
0.000000
  70
    32
  0
VERTEX
  8
0
  5
162F
 10
236.985
 20
36.6129
 30
0.000000
  70
    32
  0
VERTEX
  8
0
  5
1630
 10
237.221
 20
36.5989
 30
0.000000
  70
    32
  0
VERTEX
  8
0
  5
1631
 10
237.457
 20
36.5888
 30
0.000000
  70
    32
  0
VERTEX
  8
0
  5
1632
 10
237.693
 20
36.5828
 30
0.000000
  70
    32
  0
VERTEX
  8
0
  5
1633
 10
237.929
 20
36.5808
 30
0.000000
  70
    32
  0
VERTEX
  8
0
  5
1634
 10
238.166
 20
36.5828
 30
0.000000
  70
    32
  0
VERTEX
  8
0
  5
1635
 10
238.402
 20
36.5888
 30
0.000000
  70
    32
  0
VERTEX
  8
0
  5
1636
 10
238.638
 20
36.5989
 30
0.000000
  70
    32
  0
VERTEX
  8
0
  5
1637
 10
238.873
 20
36.6129
 30
0.000000
  70
    32
  0
VERTEX
  8
0
  5
1638
 10
239.108
 20
36.6310
 30
0.000000
  70
    32
  0
VERTEX
  8
0
  5
1639
 10
239.341
 20
36.6530
 30
0.000000
  70
    32
  0
VERTEX
  8
0
  5
163A
 10
239.573
 20
36.6790
 30
0.000000
  70
    32
  0
VERTEX
  8
0
  5
163B
 10
239.804
 20
36.7090
 30
0.000000
  70
    32
  0
VERTEX
  8
0
  5
163C
 10
240.033
 20
36.7428
 30
0.000000
  70
    32
  0
VERTEX
  8
0
  5
163D
 10
240.261
 20
36.7806
 30
0.000000
  70
    32
  0
VERTEX
  8
0
  5
163E
 10
240.486
 20
36.8222
 30
0.000000
  70
    32
  0
VERTEX
  8
0
  5
163F
 10
240.709
 20
36.8676
 30
0.000000
  70
    32
  0
VERTEX
  8
0
  5
1640
 10
240.930
 20
36.9167
 30
0.000000
  70
    32
  0
VERTEX
  8
0
  5
1641
 10
241.148
 20
36.9697
 30
0.000000
  70
    32
  0
VERTEX
  8
0
  5
1642
 10
241.363
 20
37.0263
 30
0.000000
  70
    32
  0
VERTEX
  8
0
  5
1643
 10
241.575
 20
37.0865
 30
0.000000
  70
    32
  0
VERTEX
  8
0
  5
1644
 10
241.784
 20
37.1503
 30
0.000000
  70
    32
  0
VERTEX
  8
0
  5
1645
 10
241.990
 20
37.2177
 30
0.000000
  70
    32
  0
VERTEX
  8
0
  5
1646
 10
242.192
 20
37.2885
 30
0.000000
  70
    32
  0
VERTEX
  8
0
  5
1647
 10
242.391
 20
37.3627
 30
0.000000
  70
    32
  0
VERTEX
  8
0
  5
1648
 10
242.585
 20
37.4403
 30
0.000000
  70
    32
  0
VERTEX
  8
0
  5
1649
 10
242.776
 20
37.5212
 30
0.000000
  70
    32
  0
VERTEX
  8
0
  5
164A
 10
242.962
 20
37.6052
 30
0.000000
  70
    32
  0
VERTEX
  8
0
  5
164B
 10
243.144
 20
37.6924
 30
0.000000
  70
    32
  0
VERTEX
  8
0
  5
164C
 10
243.322
 20
37.7827
 30
0.000000
  70
    32
  0
VERTEX
  8
0
  5
164D
 10
243.495
 20
37.8759
 30
0.000000
  70
    32
  0
VERTEX
  8
0
  5
164E
 10
243.663
 20
37.9721
 30
0.000000
  70
    32
  0
VERTEX
  8
0
  5
164F
 10
243.826
 20
38.0710
 30
0.000000
  70
    32
  0
VERTEX
  8
0
  5
1650
 10
243.984
 20
38.1727
 30
0.000000
  70
    32
  0
VERTEX
  8
0
  5
1651
 10
244.136
 20
38.2771
 30
0.000000
  70
    32
  0
VERTEX
  8
0
  5
1652
 10
244.283
 20
38.3839
 30
0.000000
  70
    32
  0
VERTEX
  8
0
  5
1653
 10
244.425
 20
38.4933
 30
0.000000
  70
    32
  0
VERTEX
  8
0
  5
1654
 10
244.561
 20
38.6050
 30
0.000000
  70
    32
  0
VERTEX
  8
0
  5
1655
 10
244.691
 20
38.7189
 30
0.000000
  70
    32
  0
VERTEX
  8
0
  5
1656
 10
244.816
 20
38.8351
 30
0.000000
  70
    32
  0
VERTEX
  8
0
  5
1657
 10
244.934
 20
38.9533
 30
0.000000
  70
    32
  0
VERTEX
  8
0
  5
1658
 10
245.047
 20
39.0734
 30
0.000000
  70
    32
  0
VERTEX
  8
0
  5
1659
 10
245.153
 20
39.1955
 30
0.000000
  70
    32
  0
VERTEX
  8
0
  5
165A
 10
245.253
 20
39.3192
 30
0.000000
  70
    32
  0
VERTEX
  8
0
  5
165B
 10
245.346
 20
39.4447
 30
0.000000
  70
    32
  0
VERTEX
  8
0
  5
165C
 10
245.433
 20
39.5716
 30
0.000000
  70
    32
  0
VERTEX
  8
0
  5
165D
 10
245.514
 20
39.7000
 30
0.000000
  70
    32
  0
VERTEX
  8
0
  5
165E
 10
245.588
 20
39.8297
 30
0.000000
  70
    32
  0
VERTEX
  8
0
  5
165F
 10
245.655
 20
39.9606
 30
0.000000
  70
    32
  0
VERTEX
  8
0
  5
1660
 10
245.716
 20
40.0926
 30
0.000000
  70
    32
  0
VERTEX
  8
0
  5
1661
 10
245.770
 20
40.2256
 30
0.000000
  70
    32
  0
VERTEX
  8
0
  5
1662
 10
245.817
 20
40.3594
 30
0.000000
  70
    32
  0
VERTEX
  8
0
  5
1663
 10
245.857
 20
40.4940
 30
0.000000
  70
    32
  0
VERTEX
  8
0
  5
1664
 10
245.890
 20
40.6292
 30
0.000000
  70
    32
  0
VERTEX
  8
0
  5
1665
 10
245.917
 20
40.7649
 30
0.000000
  70
    32
  0
VERTEX
  8
0
  5
1666
 10
245.936
 20
40.9010
 30
0.000000
  70
    32
  0
VERTEX
  8
0
  5
1667
 10
245.949
 20
41.0373
 30
0.000000
  70
    32
  0
VERTEX
  8
0
  5
1668
 10
245.954
 20
41.1739
 30
0.000000
  70
    32
  0
VERTEX
  8
0
  5
1669
 10
245.953
 20
41.3104
 30
0.000000
  70
    32
  0
VERTEX
  8
0
  5
166A
 10
245.944
 20
41.4469
 30
0.000000
  70
    32
  0
VERTEX
  8
0
  5
166B
 10
245.929
 20
41.5832
 30
0.000000
  70
    32
  0
VERTEX
  8
0
  5
166C
 10
245.907
 20
41.7191
 30
0.000000
  70
    32
  0
VERTEX
  8
0
  5
166D
 10
245.877
 20
41.8546
 30
0.000000
  70
    32
  0
VERTEX
  8
0
  5
166E
 10
245.841
 20
41.9896
 30
0.000000
  70
    32
  0
VERTEX
  8
0
  5
166F
 10
245.798
 20
42.1238
 30
0.000000
  70
    32
  0
VERTEX
  8
0
  5
1670
 10
245.748
 20
42.2573
 30
0.000000
  70
    32
  0
VERTEX
  8
0
  5
1671
 10
245.692
 20
42.3899
 30
0.000000
  70
    32
  0
VERTEX
  8
0
  5
1672
 10
245.628
 20
42.5215
 30
0.000000
  70
    32
  0
VERTEX
  8
0
  5
1673
 10
245.558
 20
42.6519
 30
0.000000
  70
    32
  0
SEQEND
  8
0
  5
1674
  0
POLYLINE
  5
103
  8
0
 10
201.9026575556725
 20
11.446905096168045
 30
0.0
 66
     1
 70
     8
  0
VERTEX
  8
0
  5
1675
 10
201.903
 20
11.4469
 30
0.000000
  70
    32
  0
VERTEX
  8
0
  5
1676
 10
201.919
 20
11.4306
 30
0.000000
  70
    32
  0
VERTEX
  8
0
  5
1677
 10
201.936
 20
11.4145
 30
0.000000
  70
    32
  0
VERTEX
  8
0
  5
1678
 10
201.954
 20
11.3985
 30
0.000000
  70
    32
  0
VERTEX
  8
0
  5
1679
 10
201.972
 20
11.3827
 30
0.000000
  70
    32
  0
VERTEX
  8
0
  5
167A
 10
201.990
 20
11.3671
 30
0.000000
  70
    32
  0
VERTEX
  8
0
  5
167B
 10
202.009
 20
11.3517
 30
0.000000
  70
    32
  0
VERTEX
  8
0
  5
167C
 10
202.028
 20
11.3364
 30
0.000000
  70
    32
  0
VERTEX
  8
0
  5
167D
 10
202.048
 20
11.3213
 30
0.000000
  70
    32
  0
VERTEX
  8
0
  5
167E
 10
202.068
 20
11.3064
 30
0.000000
  70
    32
  0
VERTEX
  8
0
  5
167F
 10
202.089
 20
11.2917
 30
0.000000
  70
    32
  0
VERTEX
  8
0
  5
1680
 10
202.110
 20
11.2772
 30
0.000000
  70
    32
  0
VERTEX
  8
0
  5
1681
 10
202.131
 20
11.2629
 30
0.000000
  70
    32
  0
VERTEX
  8
0
  5
1682
 10
202.153
 20
11.2488
 30
0.000000
  70
    32
  0
VERTEX
  8
0
  5
1683
 10
202.175
 20
11.2349
 30
0.000000
  70
    32
  0
VERTEX
  8
0
  5
1684
 10
202.198
 20
11.2212
 30
0.000000
  70
    32
  0
VERTEX
  8
0
  5
1685
 10
202.220
 20
11.2078
 30
0.000000
  70
    32
  0
VERTEX
  8
0
  5
1686
 10
202.244
 20
11.1945
 30
0.000000
  70
    32
  0
VERTEX
  8
0
  5
1687
 10
202.268
 20
11.1815
 30
0.000000
  70
    32
  0
VERTEX
  8
0
  5
1688
 10
202.292
 20
11.1687
 30
0.000000
  70
    32
  0
VERTEX
  8
0
  5
1689
 10
202.316
 20
11.1561
 30
0.000000
  70
    32
  0
VERTEX
  8
0
  5
168A
 10
202.341
 20
11.1438
 30
0.000000
  70
    32
  0
VERTEX
  8
0
  5
168B
 10
202.366
 20
11.1317
 30
0.000000
  70
    32
  0
VERTEX
  8
0
  5
168C
 10
202.391
 20
11.1198
 30
0.000000
  70
    32
  0
VERTEX
  8
0
  5
168D
 10
202.417
 20
11.1082
 30
0.000000
  70
    32
  0
VERTEX
  8
0
  5
168E
 10
202.443
 20
11.0968
 30
0.000000
  70
    32
  0
VERTEX
  8
0
  5
168F
 10
202.470
 20
11.0857
 30
0.000000
  70
    32
  0
VERTEX
  8
0
  5
1690
 10
202.497
 20
11.0748
 30
0.000000
  70
    32
  0
VERTEX
  8
0
  5
1691
 10
202.524
 20
11.0642
 30
0.000000
  70
    32
  0
VERTEX
  8
0
  5
1692
 10
202.551
 20
11.0538
 30
0.000000
  70
    32
  0
VERTEX
  8
0
  5
1693
 10
202.579
 20
11.0437
 30
0.000000
  70
    32
  0
VERTEX
  8
0
  5
1694
 10
202.607
 20
11.0338
 30
0.000000
  70
    32
  0
VERTEX
  8
0
  5
1695
 10
202.635
 20
11.0243
 30
0.000000
  70
    32
  0
VERTEX
  8
0
  5
1696
 10
202.663
 20
11.0149
 30
0.000000
  70
    32
  0
VERTEX
  8
0
  5
1697
 10
202.692
 20
11.0059
 30
0.000000
  70
    32
  0
VERTEX
  8
0
  5
1698
 10
202.721
 20
10.9971
 30
0.000000
  70
    32
  0
VERTEX
  8
0
  5
1699
 10
202.750
 20
10.9886
 30
0.000000
  70
    32
  0
VERTEX
  8
0
  5
169A
 10
202.780
 20
10.9804
 30
0.000000
  70
    32
  0
VERTEX
  8
0
  5
169B
 10
202.809
 20
10.9725
 30
0.000000
  70
    32
  0
VERTEX
  8
0
  5
169C
 10
202.839
 20
10.9648
 30
0.000000
  70
    32
  0
VERTEX
  8
0
  5
169D
 10
202.869
 20
10.9575
 30
0.000000
  70
    32
  0
VERTEX
  8
0
  5
169E
 10
202.900
 20
10.9504
 30
0.000000
  70
    32
  0
VERTEX
  8
0
  5
169F
 10
202.930
 20
10.9436
 30
0.000000
  70
    32
  0
VERTEX
  8
0
  5
16A0
 10
202.961
 20
10.9371
 30
0.000000
  70
    32
  0
VERTEX
  8
0
  5
16A1
 10
202.992
 20
10.9308
 30
0.000000
  70
    32
  0
VERTEX
  8
0
  5
16A2
 10
203.023
 20
10.9249
 30
0.000000
  70
    32
  0
VERTEX
  8
0
  5
16A3
 10
203.054
 20
10.9193
 30
0.000000
  70
    32
  0
VERTEX
  8
0
  5
16A4
 10
203.086
 20
10.9139
 30
0.000000
  70
    32
  0
VERTEX
  8
0
  5
16A5
 10
203.117
 20
10.9089
 30
0.000000
  70
    32
  0
VERTEX
  8
0
  5
16A6
 10
203.149
 20
10.9042
 30
0.000000
  70
    32
  0
VERTEX
  8
0
  5
16A7
 10
203.181
 20
10.8997
 30
0.000000
  70
    32
  0
VERTEX
  8
0
  5
16A8
 10
203.212
 20
10.8956
 30
0.000000
  70
    32
  0
VERTEX
  8
0
  5
16A9
 10
203.245
 20
10.8917
 30
0.000000
  70
    32
  0
VERTEX
  8
0
  5
16AA
 10
203.277
 20
10.8882
 30
0.000000
  70
    32
  0
VERTEX
  8
0
  5
16AB
 10
203.309
 20
10.8850
 30
0.000000
  70
    32
  0
VERTEX
  8
0
  5
16AC
 10
203.341
 20
10.8821
 30
0.000000
  70
    32
  0
VERTEX
  8
0
  5
16AD
 10
203.374
 20
10.8794
 30
0.000000
  70
    32
  0
VERTEX
  8
0
  5
16AE
 10
203.406
 20
10.8771
 30
0.000000
  70
    32
  0
VERTEX
  8
0
  5
16AF
 10
203.439
 20
10.8751
 30
0.000000
  70
    32
  0
VERTEX
  8
0
  5
16B0
 10
203.471
 20
10.8734
 30
0.000000
  70
    32
  0
VERTEX
  8
0
  5
16B1
 10
203.504
 20
10.8720
 30
0.000000
  70
    32
  0
VERTEX
  8
0
  5
16B2
 10
203.537
 20
10.8709
 30
0.000000
  70
    32
  0
VERTEX
  8
0
  5
16B3
 10
203.569
 20
10.8702
 30
0.000000
  70
    32
  0
VERTEX
  8
0
  5
16B4
 10
203.602
 20
10.8697
 30
0.000000
  70
    32
  0
VERTEX
  8
0
  5
16B5
 10
203.635
 20
10.8696
 30
0.000000
  70
    32
  0
VERTEX
  8
0
  5
16B6
 10
203.667
 20
10.8697
 30
0.000000
  70
    32
  0
VERTEX
  8
0
  5
16B7
 10
203.700
 20
10.8702
 30
0.000000
  70
    32
  0
VERTEX
  8
0
  5
16B8
 10
203.733
 20
10.8709
 30
0.000000
  70
    32
  0
VERTEX
  8
0
  5
16B9
 10
203.766
 20
10.8720
 30
0.000000
  70
    32
  0
VERTEX
  8
0
  5
16BA
 10
203.798
 20
10.8734
 30
0.000000
  70
    32
  0
VERTEX
  8
0
  5
16BB
 10
203.831
 20
10.8751
 30
0.000000
  70
    32
  0
VERTEX
  8
0
  5
16BC
 10
203.863
 20
10.8771
 30
0.000000
  70
    32
  0
VERTEX
  8
0
  5
16BD
 10
203.896
 20
10.8794
 30
0.000000
  70
    32
  0
VERTEX
  8
0
  5
16BE
 10
203.928
 20
10.8821
 30
0.000000
  70
    32
  0
VERTEX
  8
0
  5
16BF
 10
203.960
 20
10.8850
 30
0.000000
  70
    32
  0
VERTEX
  8
0
  5
16C0
 10
203.993
 20
10.8882
 30
0.000000
  70
    32
  0
VERTEX
  8
0
  5
16C1
 10
204.025
 20
10.8917
 30
0.000000
  70
    32
  0
VERTEX
  8
0
  5
16C2
 10
204.057
 20
10.8956
 30
0.000000
  70
    32
  0
VERTEX
  8
0
  5
16C3
 10
204.089
 20
10.8997
 30
0.000000
  70
    32
  0
VERTEX
  8
0
  5
16C4
 10
204.121
 20
10.9042
 30
0.000000
  70
    32
  0
VERTEX
  8
0
  5
16C5
 10
204.152
 20
10.9089
 30
0.000000
  70
    32
  0
VERTEX
  8
0
  5
16C6
 10
204.184
 20
10.9139
 30
0.000000
  70
    32
  0
VERTEX
  8
0
  5
16C7
 10
204.215
 20
10.9193
 30
0.000000
  70
    32
  0
VERTEX
  8
0
  5
16C8
 10
204.247
 20
10.9249
 30
0.000000
  70
    32
  0
VERTEX
  8
0
  5
16C9
 10
204.278
 20
10.9308
 30
0.000000
  70
    32
  0
VERTEX
  8
0
  5
16CA
 10
204.308
 20
10.9371
 30
0.000000
  70
    32
  0
VERTEX
  8
0
  5
16CB
 10
204.339
 20
10.9436
 30
0.000000
  70
    32
  0
VERTEX
  8
0
  5
16CC
 10
204.370
 20
10.9504
 30
0.000000
  70
    32
  0
VERTEX
  8
0
  5
16CD
 10
204.400
 20
10.9575
 30
0.000000
  70
    32
  0
VERTEX
  8
0
  5
16CE
 10
204.430
 20
10.9648
 30
0.000000
  70
    32
  0
VERTEX
  8
0
  5
16CF
 10
204.460
 20
10.9725
 30
0.000000
  70
    32
  0
VERTEX
  8
0
  5
16D0
 10
204.490
 20
10.9804
 30
0.000000
  70
    32
  0
VERTEX
  8
0
  5
16D1
 10
204.519
 20
10.9886
 30
0.000000
  70
    32
  0
VERTEX
  8
0
  5
16D2
 10
204.549
 20
10.9971
 30
0.000000
  70
    32
  0
VERTEX
  8
0
  5
16D3
 10
204.578
 20
11.0059
 30
0.000000
  70
    32
  0
VERTEX
  8
0
  5
16D4
 10
204.606
 20
11.0149
 30
0.000000
  70
    32
  0
VERTEX
  8
0
  5
16D5
 10
204.635
 20
11.0243
 30
0.000000
  70
    32
  0
VERTEX
  8
0
  5
16D6
 10
204.663
 20
11.0338
 30
0.000000
  70
    32
  0
VERTEX
  8
0
  5
16D7
 10
204.691
 20
11.0437
 30
0.000000
  70
    32
  0
VERTEX
  8
0
  5
16D8
 10
204.718
 20
11.0538
 30
0.000000
  70
    32
  0
VERTEX
  8
0
  5
16D9
 10
204.746
 20
11.0642
 30
0.000000
  70
    32
  0
VERTEX
  8
0
  5
16DA
 10
204.773
 20
11.0748
 30
0.000000
  70
    32
  0
VERTEX
  8
0
  5
16DB
 10
204.800
 20
11.0857
 30
0.000000
  70
    32
  0
VERTEX
  8
0
  5
16DC
 10
204.826
 20
11.0968
 30
0.000000
  70
    32
  0
VERTEX
  8
0
  5
16DD
 10
204.852
 20
11.1082
 30
0.000000
  70
    32
  0
VERTEX
  8
0
  5
16DE
 10
204.878
 20
11.1198
 30
0.000000
  70
    32
  0
VERTEX
  8
0
  5
16DF
 10
204.903
 20
11.1317
 30
0.000000
  70
    32
  0
VERTEX
  8
0
  5
16E0
 10
204.929
 20
11.1438
 30
0.000000
  70
    32
  0
VERTEX
  8
0
  5
16E1
 10
204.953
 20
11.1561
 30
0.000000
  70
    32
  0
VERTEX
  8
0
  5
16E2
 10
204.978
 20
11.1687
 30
0.000000
  70
    32
  0
VERTEX
  8
0
  5
16E3
 10
205.002
 20
11.1815
 30
0.000000
  70
    32
  0
VERTEX
  8
0
  5
16E4
 10
205.026
 20
11.1945
 30
0.000000
  70
    32
  0
VERTEX
  8
0
  5
16E5
 10
205.049
 20
11.2078
 30
0.000000
  70
    32
  0
VERTEX
  8
0
  5
16E6
 10
205.072
 20
11.2212
 30
0.000000
  70
    32
  0
VERTEX
  8
0
  5
16E7
 10
205.094
 20
11.2349
 30
0.000000
  70
    32
  0
VERTEX
  8
0
  5
16E8
 10
205.117
 20
11.2488
 30
0.000000
  70
    32
  0
VERTEX
  8
0
  5
16E9
 10
205.138
 20
11.2629
 30
0.000000
  70
    32
  0
VERTEX
  8
0
  5
16EA
 10
205.160
 20
11.2772
 30
0.000000
  70
    32
  0
VERTEX
  8
0
  5
16EB
 10
205.181
 20
11.2917
 30
0.000000
  70
    32
  0
VERTEX
  8
0
  5
16EC
 10
205.201
 20
11.3064
 30
0.000000
  70
    32
  0
VERTEX
  8
0
  5
16ED
 10
205.221
 20
11.3213
 30
0.000000
  70
    32
  0
VERTEX
  8
0
  5
16EE
 10
205.241
 20
11.3364
 30
0.000000
  70
    32
  0
VERTEX
  8
0
  5
16EF
 10
205.260
 20
11.3517
 30
0.000000
  70
    32
  0
VERTEX
  8
0
  5
16F0
 10
205.279
 20
11.3671
 30
0.000000
  70
    32
  0
VERTEX
  8
0
  5
16F1
 10
205.298
 20
11.3827
 30
0.000000
  70
    32
  0
VERTEX
  8
0
  5
16F2
 10
205.316
 20
11.3985
 30
0.000000
  70
    32
  0
VERTEX
  8
0
  5
16F3
 10
205.333
 20
11.4145
 30
0.000000
  70
    32
  0
VERTEX
  8
0
  5
16F4
 10
205.350
 20
11.4306
 30
0.000000
  70
    32
  0
VERTEX
  8
0
  5
16F5
 10
205.367
 20
11.4469
 30
0.000000
  70
    32
  0
SEQEND
  8
0
  5
16F6
  0
LINE
  5
104
  8
0
 10
202.2204948008681
 20
11.20775878443005
 30
0.0
 11
202.2204948008681
 21
9.5747656225746045
 31
0.0
  0
POLYLINE
  5
105
  8
0
 10
201.90265755567214
 20
9.8139119343128112
 30
0.0
 66
     1
 70
     8
  0
VERTEX
  8
0
  5
16F7
 10
201.903
 20
9.81391
 30
0.000000
  70
    32
  0
VERTEX
  8
0
  5
16F8
 10
201.919
 20
9.79763
 30
0.000000
  70
    32
  0
VERTEX
  8
0
  5
16F9
 10
201.936
 20
9.78150
 30
0.000000
  70
    32
  0
VERTEX
  8
0
  5
16FA
 10
201.954
 20
9.76554
 30
0.000000
  70
    32
  0
VERTEX
  8
0
  5
16FB
 10
201.972
 20
9.74974
 30
0.000000
  70
    32
  0
VERTEX
  8
0
  5
16FC
 10
201.990
 20
9.73412
 30
0.000000
  70
    32
  0
VERTEX
  8
0
  5
16FD
 10
202.009
 20
9.71867
 30
0.000000
  70
    32
  0
VERTEX
  8
0
  5
16FE
 10
202.028
 20
9.70341
 30
0.000000
  70
    32
  0
VERTEX
  8
0
  5
16FF
 10
202.048
 20
9.68833
 30
0.000000
  70
    32
  0
VERTEX
  8
0
  5
1700
 10
202.068
 20
9.67343
 30
0.000000
  70
    32
  0
VERTEX
  8
0
  5
1701
 10
202.089
 20
9.65873
 30
0.000000
  70
    32
  0
VERTEX
  8
0
  5
1702
 10
202.110
 20
9.64422
 30
0.000000
  70
    32
  0
VERTEX
  8
0
  5
1703
 10
202.131
 20
9.62992
 30
0.000000
  70
    32
  0
VERTEX
  8
0
  5
1704
 10
202.153
 20
9.61581
 30
0.000000
  70
    32
  0
VERTEX
  8
0
  5
1705
 10
202.175
 20
9.60192
 30
0.000000
  70
    32
  0
VERTEX
  8
0
  5
1706
 10
202.198
 20
9.58823
 30
0.000000
  70
    32
  0
VERTEX
  8
0
  5
1707
 10
202.220
 20
9.57477
 30
0.000000
  70
    32
  0
VERTEX
  8
0
  5
1708
 10
202.244
 20
9.56152
 30
0.000000
  70
    32
  0
VERTEX
  8
0
  5
1709
 10
202.268
 20
9.54849
 30
0.000000
  70
    32
  0
VERTEX
  8
0
  5
170A
 10
202.292
 20
9.53569
 30
0.000000
  70
    32
  0
VERTEX
  8
0
  5
170B
 10
202.316
 20
9.52311
 30
0.000000
  70
    32
  0
VERTEX
  8
0
  5
170C
 10
202.341
 20
9.51077
 30
0.000000
  70
    32
  0
VERTEX
  8
0
  5
170D
 10
202.366
 20
9.49867
 30
0.000000
  70
    32
  0
VERTEX
  8
0
  5
170E
 10
202.391
 20
9.48680
 30
0.000000
  70
    32
  0
VERTEX
  8
0
  5
170F
 10
202.417
 20
9.47518
 30
0.000000
  70
    32
  0
VERTEX
  8
0
  5
1710
 10
202.443
 20
9.46380
 30
0.000000
  70
    32
  0
VERTEX
  8
0
  5
1711
 10
202.470
 20
9.45267
 30
0.000000
  70
    32
  0
VERTEX
  8
0
  5
1712
 10
202.497
 20
9.44179
 30
0.000000
  70
    32
  0
VERTEX
  8
0
  5
1713
 10
202.524
 20
9.43116
 30
0.000000
  70
    32
  0
VERTEX
  8
0
  5
1714
 10
202.551
 20
9.42080
 30
0.000000
  70
    32
  0
VERTEX
  8
0
  5
1715
 10
202.579
 20
9.41069
 30
0.000000
  70
    32
  0
VERTEX
  8
0
  5
1716
 10
202.607
 20
9.40084
 30
0.000000
  70
    32
  0
VERTEX
  8
0
  5
1717
 10
202.635
 20
9.39126
 30
0.000000
  70
    32
  0
VERTEX
  8
0
  5
1718
 10
202.663
 20
9.38195
 30
0.000000
  70
    32
  0
VERTEX
  8
0
  5
1719
 10
202.692
 20
9.37291
 30
0.000000
  70
    32
  0
VERTEX
  8
0
  5
171A
 10
202.721
 20
9.36414
 30
0.000000
  70
    32
  0
VERTEX
  8
0
  5
171B
 10
202.750
 20
9.35564
 30
0.000000
  70
    32
  0
VERTEX
  8
0
  5
171C
 10
202.780
 20
9.34743
 30
0.000000
  70
    32
  0
VERTEX
  8
0
  5
171D
 10
202.809
 20
9.33949
 30
0.000000
  70
    32
  0
VERTEX
  8
0
  5
171E
 10
202.839
 20
9.33183
 30
0.000000
  70
    32
  0
VERTEX
  8
0
  5
171F
 10
202.869
 20
9.32446
 30
0.000000
  70
    32
  0
VERTEX
  8
0
  5
1720
 10
202.900
 20
9.31737
 30
0.000000
  70
    32
  0
VERTEX
  8
0
  5
1721
 10
202.930
 20
9.31057
 30
0.000000
  70
    32
  0
VERTEX
  8
0
  5
1722
 10
202.961
 20
9.30406
 30
0.000000
  70
    32
  0
VERTEX
  8
0
  5
1723
 10
202.992
 20
9.29784
 30
0.000000
  70
    32
  0
VERTEX
  8
0
  5
1724
 10
203.023
 20
9.29191
 30
0.000000
  70
    32
  0
VERTEX
  8
0
  5
1725
 10
203.054
 20
9.28628
 30
0.000000
  70
    32
  0
VERTEX
  8
0
  5
1726
 10
203.086
 20
9.28095
 30
0.000000
  70
    32
  0
VERTEX
  8
0
  5
1727
 10
203.117
 20
9.27591
 30
0.000000
  70
    32
  0
VERTEX
  8
0
  5
1728
 10
203.149
 20
9.27117
 30
0.000000
  70
    32
  0
VERTEX
  8
0
  5
1729
 10
203.181
 20
9.26673
 30
0.000000
  70
    32
  0
VERTEX
  8
0
  5
172A
 10
203.212
 20
9.26259
 30
0.000000
  70
    32
  0
VERTEX
  8
0
  5
172B
 10
203.245
 20
9.25875
 30
0.000000
  70
    32
  0
VERTEX
  8
0
  5
172C
 10
203.277
 20
9.25521
 30
0.000000
  70
    32
  0
VERTEX
  8
0
  5
172D
 10
203.309
 20
9.25198
 30
0.000000
  70
    32
  0
VERTEX
  8
0
  5
172E
 10
203.341
 20
9.24906
 30
0.000000
  70
    32
  0
VERTEX
  8
0
  5
172F
 10
203.374
 20
9.24644
 30
0.000000
  70
    32
  0
VERTEX
  8
0
  5
1730
 10
203.406
 20
9.24413
 30
0.000000
  70
    32
  0
VERTEX
  8
0
  5
1731
 10
203.439
 20
9.24212
 30
0.000000
  70
    32
  0
VERTEX
  8
0
  5
1732
 10
203.471
 20
9.24042
 30
0.000000
  70
    32
  0
VERTEX
  8
0
  5
1733
 10
203.504
 20
9.23903
 30
0.000000
  70
    32
  0
VERTEX
  8
0
  5
1734
 10
203.537
 20
9.23795
 30
0.000000
  70
    32
  0
VERTEX
  8
0
  5
1735
 10
203.569
 20
9.23718
 30
0.000000
  70
    32
  0
VERTEX
  8
0
  5
1736
 10
203.602
 20
9.23672
 30
0.000000
  70
    32
  0
VERTEX
  8
0
  5
1737
 10
203.635
 20
9.23656
 30
0.000000
  70
    32
  0
VERTEX
  8
0
  5
1738
 10
203.667
 20
9.23672
 30
0.000000
  70
    32
  0
VERTEX
  8
0
  5
1739
 10
203.700
 20
9.23718
 30
0.000000
  70
    32
  0
VERTEX
  8
0
  5
173A
 10
203.733
 20
9.23795
 30
0.000000
  70
    32
  0
VERTEX
  8
0
  5
173B
 10
203.766
 20
9.23903
 30
0.000000
  70
    32
  0
VERTEX
  8
0
  5
173C
 10
203.798
 20
9.24042
 30
0.000000
  70
    32
  0
VERTEX
  8
0
  5
173D
 10
203.831
 20
9.24212
 30
0.000000
  70
    32
  0
VERTEX
  8
0
  5
173E
 10
203.863
 20
9.24413
 30
0.000000
  70
    32
  0
VERTEX
  8
0
  5
173F
 10
203.896
 20
9.24644
 30
0.000000
  70
    32
  0
VERTEX
  8
0
  5
1740
 10
203.928
 20
9.24906
 30
0.000000
  70
    32
  0
VERTEX
  8
0
  5
1741
 10
203.960
 20
9.25198
 30
0.000000
  70
    32
  0
VERTEX
  8
0
  5
1742
 10
203.993
 20
9.25521
 30
0.000000
  70
    32
  0
VERTEX
  8
0
  5
1743
 10
204.025
 20
9.25875
 30
0.000000
  70
    32
  0
VERTEX
  8
0
  5
1744
 10
204.057
 20
9.26259
 30
0.000000
  70
    32
  0
VERTEX
  8
0
  5
1745
 10
204.089
 20
9.26673
 30
0.000000
  70
    32
  0
VERTEX
  8
0
  5
1746
 10
204.121
 20
9.27117
 30
0.000000
  70
    32
  0
VERTEX
  8
0
  5
1747
 10
204.152
 20
9.27591
 30
0.000000
  70
    32
  0
VERTEX
  8
0
  5
1748
 10
204.184
 20
9.28095
 30
0.000000
  70
    32
  0
VERTEX
  8
0
  5
1749
 10
204.215
 20
9.28628
 30
0.000000
  70
    32
  0
VERTEX
  8
0
  5
174A
 10
204.247
 20
9.29191
 30
0.000000
  70
    32
  0
VERTEX
  8
0
  5
174B
 10
204.278
 20
9.29784
 30
0.000000
  70
    32
  0
VERTEX
  8
0
  5
174C
 10
204.308
 20
9.30406
 30
0.000000
  70
    32
  0
VERTEX
  8
0
  5
174D
 10
204.339
 20
9.31057
 30
0.000000
  70
    32
  0
VERTEX
  8
0
  5
174E
 10
204.370
 20
9.31737
 30
0.000000
  70
    32
  0
VERTEX
  8
0
  5
174F
 10
204.400
 20
9.32446
 30
0.000000
  70
    32
  0
VERTEX
  8
0
  5
1750
 10
204.430
 20
9.33183
 30
0.000000
  70
    32
  0
VERTEX
  8
0
  5
1751
 10
204.460
 20
9.33949
 30
0.000000
  70
    32
  0
VERTEX
  8
0
  5
1752
 10
204.490
 20
9.34743
 30
0.000000
  70
    32
  0
VERTEX
  8
0
  5
1753
 10
204.519
 20
9.35564
 30
0.000000
  70
    32
  0
VERTEX
  8
0
  5
1754
 10
204.549
 20
9.36414
 30
0.000000
  70
    32
  0
VERTEX
  8
0
  5
1755
 10
204.578
 20
9.37291
 30
0.000000
  70
    32
  0
VERTEX
  8
0
  5
1756
 10
204.606
 20
9.38195
 30
0.000000
  70
    32
  0
VERTEX
  8
0
  5
1757
 10
204.635
 20
9.39126
 30
0.000000
  70
    32
  0
VERTEX
  8
0
  5
1758
 10
204.663
 20
9.40084
 30
0.000000
  70
    32
  0
VERTEX
  8
0
  5
1759
 10
204.691
 20
9.41069
 30
0.000000
  70
    32
  0
VERTEX
  8
0
  5
175A
 10
204.718
 20
9.42080
 30
0.000000
  70
    32
  0
VERTEX
  8
0
  5
175B
 10
204.746
 20
9.43116
 30
0.000000
  70
    32
  0
VERTEX
  8
0
  5
175C
 10
204.773
 20
9.44179
 30
0.000000
  70
    32
  0
VERTEX
  8
0
  5
175D
 10
204.800
 20
9.45267
 30
0.000000
  70
    32
  0
VERTEX
  8
0
  5
175E
 10
204.826
 20
9.46380
 30
0.000000
  70
    32
  0
VERTEX
  8
0
  5
175F
 10
204.852
 20
9.47518
 30
0.000000
  70
    32
  0
VERTEX
  8
0
  5
1760
 10
204.878
 20
9.48680
 30
0.000000
  70
    32
  0
VERTEX
  8
0
  5
1761
 10
204.903
 20
9.49867
 30
0.000000
  70
    32
  0
VERTEX
  8
0
  5
1762
 10
204.929
 20
9.51077
 30
0.000000
  70
    32
  0
VERTEX
  8
0
  5
1763
 10
204.953
 20
9.52311
 30
0.000000
  70
    32
  0
VERTEX
  8
0
  5
1764
 10
204.978
 20
9.53569
 30
0.000000
  70
    32
  0
VERTEX
  8
0
  5
1765
 10
205.002
 20
9.54849
 30
0.000000
  70
    32
  0
VERTEX
  8
0
  5
1766
 10
205.026
 20
9.56152
 30
0.000000
  70
    32
  0
VERTEX
  8
0
  5
1767
 10
205.049
 20
9.57477
 30
0.000000
  70
    32
  0
VERTEX
  8
0
  5
1768
 10
205.072
 20
9.58823
 30
0.000000
  70
    32
  0
VERTEX
  8
0
  5
1769
 10
205.094
 20
9.60192
 30
0.000000
  70
    32
  0
VERTEX
  8
0
  5
176A
 10
205.117
 20
9.61581
 30
0.000000
  70
    32
  0
VERTEX
  8
0
  5
176B
 10
205.138
 20
9.62992
 30
0.000000
  70
    32
  0
VERTEX
  8
0
  5
176C
 10
205.160
 20
9.64422
 30
0.000000
  70
    32
  0
VERTEX
  8
0
  5
176D
 10
205.181
 20
9.65873
 30
0.000000
  70
    32
  0
VERTEX
  8
0
  5
176E
 10
205.201
 20
9.67343
 30
0.000000
  70
    32
  0
VERTEX
  8
0
  5
176F
 10
205.221
 20
9.68833
 30
0.000000
  70
    32
  0
VERTEX
  8
0
  5
1770
 10
205.241
 20
9.70341
 30
0.000000
  70
    32
  0
VERTEX
  8
0
  5
1771
 10
205.260
 20
9.71867
 30
0.000000
  70
    32
  0
VERTEX
  8
0
  5
1772
 10
205.279
 20
9.73412
 30
0.000000
  70
    32
  0
VERTEX
  8
0
  5
1773
 10
205.298
 20
9.74974
 30
0.000000
  70
    32
  0
VERTEX
  8
0
  5
1774
 10
205.316
 20
9.76554
 30
0.000000
  70
    32
  0
VERTEX
  8
0
  5
1775
 10
205.333
 20
9.78150
 30
0.000000
  70
    32
  0
VERTEX
  8
0
  5
1776
 10
205.350
 20
9.79763
 30
0.000000
  70
    32
  0
VERTEX
  8
0
  5
1777
 10
205.367
 20
9.81391
 30
0.000000
  70
    32
  0
SEQEND
  8
0
  5
1778
  0
LINE
  5
106
  8
0
 10
205.04892192561431
 20
9.5747656225746063
 30
0.0
 11
205.04892192561431
 21
11.20775878443005
 31
0.0
  0
POLYLINE
  5
107
  8
0
 10
185.37125239595059
 20
19.78097288417117
 30
0.0
 66
     1
 70
     8
  0
VERTEX
  8
0
  5
1779
 10
185.371
 20
19.7810
 30
0.000000
  70
    32
  0
VERTEX
  8
0
  5
177A
 10
185.371
 20
19.7762
 30
0.000000
  70
    32
  0
VERTEX
  8
0
  5
177B
 10
185.371
 20
19.7715
 30
0.000000
  70
    32
  0
VERTEX
  8
0
  5
177C
 10
185.371
 20
19.7668
 30
0.000000
  70
    32
  0
VERTEX
  8
0
  5
177D
 10
185.372
 20
19.7621
 30
0.000000
  70
    32
  0
VERTEX
  8
0
  5
177E
 10
185.372
 20
19.7574
 30
0.000000
  70
    32
  0
VERTEX
  8
0
  5
177F
 10
185.372
 20
19.7526
 30
0.000000
  70
    32
  0
VERTEX
  8
0
  5
1780
 10
185.372
 20
19.7479
 30
0.000000
  70
    32
  0
VERTEX
  8
0
  5
1781
 10
185.372
 20
19.7432
 30
0.000000
  70
    32
  0
VERTEX
  8
0
  5
1782
 10
185.373
 20
19.7385
 30
0.000000
  70
    32
  0
VERTEX
  8
0
  5
1783
 10
185.373
 20
19.7338
 30
0.000000
  70
    32
  0
VERTEX
  8
0
  5
1784
 10
185.373
 20
19.7290
 30
0.000000
  70
    32
  0
VERTEX
  8
0
  5
1785
 10
185.374
 20
19.7243
 30
0.000000
  70
    32
  0
VERTEX
  8
0
  5
1786
 10
185.374
 20
19.7196
 30
0.000000
  70
    32
  0
VERTEX
  8
0
  5
1787
 10
185.375
 20
19.7149
 30
0.000000
  70
    32
  0
VERTEX
  8
0
  5
1788
 10
185.375
 20
19.7102
 30
0.000000
  70
    32
  0
VERTEX
  8
0
  5
1789
 10
185.376
 20
19.7055
 30
0.000000
  70
    32
  0
VERTEX
  8
0
  5
178A
 10
185.376
 20
19.7007
 30
0.000000
  70
    32
  0
VERTEX
  8
0
  5
178B
 10
185.377
 20
19.6960
 30
0.000000
  70
    32
  0
VERTEX
  8
0
  5
178C
 10
185.377
 20
19.6913
 30
0.000000
  70
    32
  0
VERTEX
  8
0
  5
178D
 10
185.378
 20
19.6866
 30
0.000000
  70
    32
  0
VERTEX
  8
0
  5
178E
 10
185.379
 20
19.6819
 30
0.000000
  70
    32
  0
VERTEX
  8
0
  5
178F
 10
185.379
 20
19.6772
 30
0.000000
  70
    32
  0
VERTEX
  8
0
  5
1790
 10
185.380
 20
19.6725
 30
0.000000
  70
    32
  0
VERTEX
  8
0
  5
1791
 10
185.381
 20
19.6678
 30
0.000000
  70
    32
  0
VERTEX
  8
0
  5
1792
 10
185.382
 20
19.6631
 30
0.000000
  70
    32
  0
VERTEX
  8
0
  5
1793
 10
185.383
 20
19.6584
 30
0.000000
  70
    32
  0
VERTEX
  8
0
  5
1794
 10
185.383
 20
19.6537
 30
0.000000
  70
    32
  0
VERTEX
  8
0
  5
1795
 10
185.384
 20
19.6490
 30
0.000000
  70
    32
  0
VERTEX
  8
0
  5
1796
 10
185.385
 20
19.6443
 30
0.000000
  70
    32
  0
VERTEX
  8
0
  5
1797
 10
185.386
 20
19.6396
 30
0.000000
  70
    32
  0
VERTEX
  8
0
  5
1798
 10
185.387
 20
19.6349
 30
0.000000
  70
    32
  0
VERTEX
  8
0
  5
1799
 10
185.388
 20
19.6303
 30
0.000000
  70
    32
  0
VERTEX
  8
0
  5
179A
 10
185.389
 20
19.6256
 30
0.000000
  70
    32
  0
VERTEX
  8
0
  5
179B
 10
185.391
 20
19.6209
 30
0.000000
  70
    32
  0
VERTEX
  8
0
  5
179C
 10
185.392
 20
19.6162
 30
0.000000
  70
    32
  0
VERTEX
  8
0
  5
179D
 10
185.393
 20
19.6115
 30
0.000000
  70
    32
  0
VERTEX
  8
0
  5
179E
 10
185.394
 20
19.6069
 30
0.000000
  70
    32
  0
VERTEX
  8
0
  5
179F
 10
185.395
 20
19.6022
 30
0.000000
  70
    32
  0
VERTEX
  8
0
  5
17A0
 10
185.397
 20
19.5975
 30
0.000000
  70
    32
  0
VERTEX
  8
0
  5
17A1
 10
185.398
 20
19.5929
 30
0.000000
  70
    32
  0
VERTEX
  8
0
  5
17A2
 10
185.399
 20
19.5882
 30
0.000000
  70
    32
  0
VERTEX
  8
0
  5
17A3
 10
185.401
 20
19.5836
 30
0.000000
  70
    32
  0
VERTEX
  8
0
  5
17A4
 10
185.402
 20
19.5789
 30
0.000000
  70
    32
  0
VERTEX
  8
0
  5
17A5
 10
185.404
 20
19.5743
 30
0.000000
  70
    32
  0
VERTEX
  8
0
  5
17A6
 10
185.405
 20
19.5696
 30
0.000000
  70
    32
  0
VERTEX
  8
0
  5
17A7
 10
185.407
 20
19.5650
 30
0.000000
  70
    32
  0
VERTEX
  8
0
  5
17A8
 10
185.408
 20
19.5603
 30
0.000000
  70
    32
  0
VERTEX
  8
0
  5
17A9
 10
185.410
 20
19.5557
 30
0.000000
  70
    32
  0
VERTEX
  8
0
  5
17AA
 10
185.411
 20
19.5511
 30
0.000000
  70
    32
  0
VERTEX
  8
0
  5
17AB
 10
185.413
 20
19.5464
 30
0.000000
  70
    32
  0
VERTEX
  8
0
  5
17AC
 10
185.415
 20
19.5418
 30
0.000000
  70
    32
  0
VERTEX
  8
0
  5
17AD
 10
185.416
 20
19.5372
 30
0.000000
  70
    32
  0
VERTEX
  8
0
  5
17AE
 10
185.418
 20
19.5326
 30
0.000000
  70
    32
  0
VERTEX
  8
0
  5
17AF
 10
185.420
 20
19.5280
 30
0.000000
  70
    32
  0
VERTEX
  8
0
  5
17B0
 10
185.422
 20
19.5234
 30
0.000000
  70
    32
  0
VERTEX
  8
0
  5
17B1
 10
185.423
 20
19.5188
 30
0.000000
  70
    32
  0
VERTEX
  8
0
  5
17B2
 10
185.425
 20
19.5142
 30
0.000000
  70
    32
  0
VERTEX
  8
0
  5
17B3
 10
185.427
 20
19.5096
 30
0.000000
  70
    32
  0
VERTEX
  8
0
  5
17B4
 10
185.429
 20
19.5050
 30
0.000000
  70
    32
  0
VERTEX
  8
0
  5
17B5
 10
185.431
 20
19.5004
 30
0.000000
  70
    32
  0
VERTEX
  8
0
  5
17B6
 10
185.433
 20
19.4958
 30
0.000000
  70
    32
  0
VERTEX
  8
0
  5
17B7
 10
185.435
 20
19.4912
 30
0.000000
  70
    32
  0
VERTEX
  8
0
  5
17B8
 10
185.437
 20
19.4867
 30
0.000000
  70
    32
  0
VERTEX
  8
0
  5
17B9
 10
185.439
 20
19.4821
 30
0.000000
  70
    32
  0
VERTEX
  8
0
  5
17BA
 10
185.442
 20
19.4776
 30
0.000000
  70
    32
  0
VERTEX
  8
0
  5
17BB
 10
185.444
 20
19.4730
 30
0.000000
  70
    32
  0
VERTEX
  8
0
  5
17BC
 10
185.446
 20
19.4684
 30
0.000000
  70
    32
  0
VERTEX
  8
0
  5
17BD
 10
185.448
 20
19.4639
 30
0.000000
  70
    32
  0
VERTEX
  8
0
  5
17BE
 10
185.450
 20
19.4594
 30
0.000000
  70
    32
  0
VERTEX
  8
0
  5
17BF
 10
185.453
 20
19.4548
 30
0.000000
  70
    32
  0
VERTEX
  8
0
  5
17C0
 10
185.455
 20
19.4503
 30
0.000000
  70
    32
  0
VERTEX
  8
0
  5
17C1
 10
185.457
 20
19.4458
 30
0.000000
  70
    32
  0
VERTEX
  8
0
  5
17C2
 10
185.460
 20
19.4413
 30
0.000000
  70
    32
  0
VERTEX
  8
0
  5
17C3
 10
185.462
 20
19.4368
 30
0.000000
  70
    32
  0
VERTEX
  8
0
  5
17C4
 10
185.465
 20
19.4322
 30
0.000000
  70
    32
  0
VERTEX
  8
0
  5
17C5
 10
185.467
 20
19.4277
 30
0.000000
  70
    32
  0
VERTEX
  8
0
  5
17C6
 10
185.470
 20
19.4233
 30
0.000000
  70
    32
  0
VERTEX
  8
0
  5
17C7
 10
185.472
 20
19.4188
 30
0.000000
  70
    32
  0
VERTEX
  8
0
  5
17C8
 10
185.475
 20
19.4143
 30
0.000000
  70
    32
  0
VERTEX
  8
0
  5
17C9
 10
185.477
 20
19.4098
 30
0.000000
  70
    32
  0
VERTEX
  8
0
  5
17CA
 10
185.480
 20
19.4053
 30
0.000000
  70
    32
  0
VERTEX
  8
0
  5
17CB
 10
185.483
 20
19.4009
 30
0.000000
  70
    32
  0
VERTEX
  8
0
  5
17CC
 10
185.485
 20
19.3964
 30
0.000000
  70
    32
  0
VERTEX
  8
0
  5
17CD
 10
185.488
 20
19.3920
 30
0.000000
  70
    32
  0
VERTEX
  8
0
  5
17CE
 10
185.491
 20
19.3875
 30
0.000000
  70
    32
  0
VERTEX
  8
0
  5
17CF
 10
185.494
 20
19.3831
 30
0.000000
  70
    32
  0
VERTEX
  8
0
  5
17D0
 10
185.497
 20
19.3787
 30
0.000000
  70
    32
  0
VERTEX
  8
0
  5
17D1
 10
185.499
 20
19.3742
 30
0.000000
  70
    32
  0
VERTEX
  8
0
  5
17D2
 10
185.502
 20
19.3698
 30
0.000000
  70
    32
  0
VERTEX
  8
0
  5
17D3
 10
185.505
 20
19.3654
 30
0.000000
  70
    32
  0
VERTEX
  8
0
  5
17D4
 10
185.508
 20
19.3610
 30
0.000000
  70
    32
  0
VERTEX
  8
0
  5
17D5
 10
185.511
 20
19.3566
 30
0.000000
  70
    32
  0
VERTEX
  8
0
  5
17D6
 10
185.514
 20
19.3522
 30
0.000000
  70
    32
  0
VERTEX
  8
0
  5
17D7
 10
185.517
 20
19.3478
 30
0.000000
  70
    32
  0
VERTEX
  8
0
  5
17D8
 10
185.520
 20
19.3435
 30
0.000000
  70
    32
  0
VERTEX
  8
0
  5
17D9
 10
185.523
 20
19.3391
 30
0.000000
  70
    32
  0
VERTEX
  8
0
  5
17DA
 10
185.527
 20
19.3347
 30
0.000000
  70
    32
  0
VERTEX
  8
0
  5
17DB
 10
185.530
 20
19.3304
 30
0.000000
  70
    32
  0
VERTEX
  8
0
  5
17DC
 10
185.533
 20
19.3260
 30
0.000000
  70
    32
  0
VERTEX
  8
0
  5
17DD
 10
185.536
 20
19.3217
 30
0.000000
  70
    32
  0
VERTEX
  8
0
  5
17DE
 10
185.540
 20
19.3174
 30
0.000000
  70
    32
  0
VERTEX
  8
0
  5
17DF
 10
185.543
 20
19.3130
 30
0.000000
  70
    32
  0
VERTEX
  8
0
  5
17E0
 10
185.546
 20
19.3087
 30
0.000000
  70
    32
  0
VERTEX
  8
0
  5
17E1
 10
185.550
 20
19.3044
 30
0.000000
  70
    32
  0
VERTEX
  8
0
  5
17E2
 10
185.553
 20
19.3001
 30
0.000000
  70
    32
  0
VERTEX
  8
0
  5
17E3
 10
185.556
 20
19.2958
 30
0.000000
  70
    32
  0
VERTEX
  8
0
  5
17E4
 10
185.560
 20
19.2915
 30
0.000000
  70
    32
  0
VERTEX
  8
0
  5
17E5
 10
185.563
 20
19.2873
 30
0.000000
  70
    32
  0
VERTEX
  8
0
  5
17E6
 10
185.567
 20
19.2830
 30
0.000000
  70
    32
  0
VERTEX
  8
0
  5
17E7
 10
185.570
 20
19.2788
 30
0.000000
  70
    32
  0
VERTEX
  8
0
  5
17E8
 10
185.574
 20
19.2745
 30
0.000000
  70
    32
  0
VERTEX
  8
0
  5
17E9
 10
185.578
 20
19.2703
 30
0.000000
  70
    32
  0
VERTEX
  8
0
  5
17EA
 10
185.581
 20
19.2660
 30
0.000000
  70
    32
  0
VERTEX
  8
0
  5
17EB
 10
185.585
 20
19.2618
 30
0.000000
  70
    32
  0
VERTEX
  8
0
  5
17EC
 10
185.588
 20
19.2576
 30
0.000000
  70
    32
  0
VERTEX
  8
0
  5
17ED
 10
185.592
 20
19.2534
 30
0.000000
  70
    32
  0
VERTEX
  8
0
  5
17EE
 10
185.596
 20
19.2492
 30
0.000000
  70
    32
  0
VERTEX
  8
0
  5
17EF
 10
185.600
 20
19.2450
 30
0.000000
  70
    32
  0
VERTEX
  8
0
  5
17F0
 10
185.604
 20
19.2408
 30
0.000000
  70
    32
  0
VERTEX
  8
0
  5
17F1
 10
185.607
 20
19.2367
 30
0.000000
  70
    32
  0
VERTEX
  8
0
  5
17F2
 10
185.611
 20
19.2325
 30
0.000000
  70
    32
  0
VERTEX
  8
0
  5
17F3
 10
185.615
 20
19.2283
 30
0.000000
  70
    32
  0
VERTEX
  8
0
  5
17F4
 10
185.619
 20
19.2242
 30
0.000000
  70
    32
  0
VERTEX
  8
0
  5
17F5
 10
185.623
 20
19.2201
 30
0.000000
  70
    32
  0
VERTEX
  8
0
  5
17F6
 10
185.627
 20
19.2159
 30
0.000000
  70
    32
  0
VERTEX
  8
0
  5
17F7
 10
185.631
 20
19.2118
 30
0.000000
  70
    32
  0
VERTEX
  8
0
  5
17F8
 10
185.635
 20
19.2077
 30
0.000000
  70
    32
  0
VERTEX
  8
0
  5
17F9
 10
185.639
 20
19.2036
 30
0.000000
  70
    32
  0
SEQEND
  8
0
  5
17FA
  0
POLYLINE
  5
108
  8
0
 10
290.21957291319592
 20
58.803706789976296
 30
0.0
 66
     1
 70
     8
  0
VERTEX
  8
0
  5
17FB
 10
290.220
 20
58.8037
 30
0.000000
  70
    32
  0
VERTEX
  8
0
  5
17FC
 10
290.224
 20
58.8078
 30
0.000000
  70
    32
  0
VERTEX
  8
0
  5
17FD
 10
290.228
 20
58.8119
 30
0.000000
  70
    32
  0
VERTEX
  8
0
  5
17FE
 10
290.232
 20
58.8160
 30
0.000000
  70
    32
  0
VERTEX
  8
0
  5
17FF
 10
290.236
 20
58.8201
 30
0.000000
  70
    32
  0
VERTEX
  8
0
  5
1800
 10
290.240
 20
58.8243
 30
0.000000
  70
    32
  0
VERTEX
  8
0
  5
1801
 10
290.244
 20
58.8284
 30
0.000000
  70
    32
  0
VERTEX
  8
0
  5
1802
 10
290.247
 20
58.8326
 30
0.000000
  70
    32
  0
VERTEX
  8
0
  5
1803
 10
290.251
 20
58.8367
 30
0.000000
  70
    32
  0
VERTEX
  8
0
  5
1804
 10
290.255
 20
58.8409
 30
0.000000
  70
    32
  0
VERTEX
  8
0
  5
1805
 10
290.259
 20
58.8451
 30
0.000000
  70
    32
  0
VERTEX
  8
0
  5
1806
 10
290.263
 20
58.8493
 30
0.000000
  70
    32
  0
VERTEX
  8
0
  5
1807
 10
290.267
 20
58.8535
 30
0.000000
  70
    32
  0
VERTEX
  8
0
  5
1808
 10
290.270
 20
58.8577
 30
0.000000
  70
    32
  0
VERTEX
  8
0
  5
1809
 10
290.274
 20
58.8619
 30
0.000000
  70
    32
  0
VERTEX
  8
0
  5
180A
 10
290.278
 20
58.8661
 30
0.000000
  70
    32
  0
VERTEX
  8
0
  5
180B
 10
290.281
 20
58.8703
 30
0.000000
  70
    32
  0
VERTEX
  8
0
  5
180C
 10
290.285
 20
58.8746
 30
0.000000
  70
    32
  0
VERTEX
  8
0
  5
180D
 10
290.288
 20
58.8788
 30
0.000000
  70
    32
  0
VERTEX
  8
0
  5
180E
 10
290.292
 20
58.8831
 30
0.000000
  70
    32
  0
VERTEX
  8
0
  5
180F
 10
290.296
 20
58.8874
 30
0.000000
  70
    32
  0
VERTEX
  8
0
  5
1810
 10
290.299
 20
58.8916
 30
0.000000
  70
    32
  0
VERTEX
  8
0
  5
1811
 10
290.302
 20
58.8959
 30
0.000000
  70
    32
  0
VERTEX
  8
0
  5
1812
 10
290.306
 20
58.9002
 30
0.000000
  70
    32
  0
VERTEX
  8
0
  5
1813
 10
290.309
 20
58.9045
 30
0.000000
  70
    32
  0
VERTEX
  8
0
  5
1814
 10
290.313
 20
58.9088
 30
0.000000
  70
    32
  0
VERTEX
  8
0
  5
1815
 10
290.316
 20
58.9131
 30
0.000000
  70
    32
  0
VERTEX
  8
0
  5
1816
 10
290.319
 20
58.9174
 30
0.000000
  70
    32
  0
VERTEX
  8
0
  5
1817
 10
290.323
 20
58.9218
 30
0.000000
  70
    32
  0
VERTEX
  8
0
  5
1818
 10
290.326
 20
58.9261
 30
0.000000
  70
    32
  0
VERTEX
  8
0
  5
1819
 10
290.329
 20
58.9305
 30
0.000000
  70
    32
  0
VERTEX
  8
0
  5
181A
 10
290.332
 20
58.9348
 30
0.000000
  70
    32
  0
VERTEX
  8
0
  5
181B
 10
290.335
 20
58.9392
 30
0.000000
  70
    32
  0
VERTEX
  8
0
  5
181C
 10
290.338
 20
58.9435
 30
0.000000
  70
    32
  0
VERTEX
  8
0
  5
181D
 10
290.341
 20
58.9479
 30
0.000000
  70
    32
  0
VERTEX
  8
0
  5
181E
 10
290.345
 20
58.9523
 30
0.000000
  70
    32
  0
VERTEX
  8
0
  5
181F
 10
290.348
 20
58.9567
 30
0.000000
  70
    32
  0
VERTEX
  8
0
  5
1820
 10
290.351
 20
58.9611
 30
0.000000
  70
    32
  0
VERTEX
  8
0
  5
1821
 10
290.354
 20
58.9655
 30
0.000000
  70
    32
  0
VERTEX
  8
0
  5
1822
 10
290.356
 20
58.9699
 30
0.000000
  70
    32
  0
VERTEX
  8
0
  5
1823
 10
290.359
 20
58.9743
 30
0.000000
  70
    32
  0
VERTEX
  8
0
  5
1824
 10
290.362
 20
58.9787
 30
0.000000
  70
    32
  0
VERTEX
  8
0
  5
1825
 10
290.365
 20
58.9832
 30
0.000000
  70
    32
  0
VERTEX
  8
0
  5
1826
 10
290.368
 20
58.9876
 30
0.000000
  70
    32
  0
VERTEX
  8
0
  5
1827
 10
290.371
 20
58.9921
 30
0.000000
  70
    32
  0
VERTEX
  8
0
  5
1828
 10
290.373
 20
58.9965
 30
0.000000
  70
    32
  0
VERTEX
  8
0
  5
1829
 10
290.376
 20
59.0010
 30
0.000000
  70
    32
  0
VERTEX
  8
0
  5
182A
 10
290.379
 20
59.0054
 30
0.000000
  70
    32
  0
VERTEX
  8
0
  5
182B
 10
290.381
 20
59.0099
 30
0.000000
  70
    32
  0
VERTEX
  8
0
  5
182C
 10
290.384
 20
59.0144
 30
0.000000
  70
    32
  0
VERTEX
  8
0
  5
182D
 10
290.387
 20
59.0188
 30
0.000000
  70
    32
  0
VERTEX
  8
0
  5
182E
 10
290.389
 20
59.0233
 30
0.000000
  70
    32
  0
VERTEX
  8
0
  5
182F
 10
290.392
 20
59.0278
 30
0.000000
  70
    32
  0
VERTEX
  8
0
  5
1830
 10
290.394
 20
59.0323
 30
0.000000
  70
    32
  0
VERTEX
  8
0
  5
1831
 10
290.397
 20
59.0368
 30
0.000000
  70
    32
  0
VERTEX
  8
0
  5
1832
 10
290.399
 20
59.0413
 30
0.000000
  70
    32
  0
VERTEX
  8
0
  5
1833
 10
290.401
 20
59.0459
 30
0.000000
  70
    32
  0
VERTEX
  8
0
  5
1834
 10
290.404
 20
59.0504
 30
0.000000
  70
    32
  0
VERTEX
  8
0
  5
1835
 10
290.406
 20
59.0549
 30
0.000000
  70
    32
  0
VERTEX
  8
0
  5
1836
 10
290.408
 20
59.0595
 30
0.000000
  70
    32
  0
VERTEX
  8
0
  5
1837
 10
290.411
 20
59.0640
 30
0.000000
  70
    32
  0
VERTEX
  8
0
  5
1838
 10
290.413
 20
59.0685
 30
0.000000
  70
    32
  0
VERTEX
  8
0
  5
1839
 10
290.415
 20
59.0731
 30
0.000000
  70
    32
  0
VERTEX
  8
0
  5
183A
 10
290.417
 20
59.0776
 30
0.000000
  70
    32
  0
VERTEX
  8
0
  5
183B
 10
290.419
 20
59.0822
 30
0.000000
  70
    32
  0
VERTEX
  8
0
  5
183C
 10
290.421
 20
59.0868
 30
0.000000
  70
    32
  0
VERTEX
  8
0
  5
183D
 10
290.424
 20
59.0913
 30
0.000000
  70
    32
  0
VERTEX
  8
0
  5
183E
 10
290.426
 20
59.0959
 30
0.000000
  70
    32
  0
VERTEX
  8
0
  5
183F
 10
290.428
 20
59.1005
 30
0.000000
  70
    32
  0
VERTEX
  8
0
  5
1840
 10
290.430
 20
59.1051
 30
0.000000
  70
    32
  0
VERTEX
  8
0
  5
1841
 10
290.431
 20
59.1097
 30
0.000000
  70
    32
  0
VERTEX
  8
0
  5
1842
 10
290.433
 20
59.1143
 30
0.000000
  70
    32
  0
VERTEX
  8
0
  5
1843
 10
290.435
 20
59.1189
 30
0.000000
  70
    32
  0
VERTEX
  8
0
  5
1844
 10
290.437
 20
59.1235
 30
0.000000
  70
    32
  0
VERTEX
  8
0
  5
1845
 10
290.439
 20
59.1281
 30
0.000000
  70
    32
  0
VERTEX
  8
0
  5
1846
 10
290.441
 20
59.1327
 30
0.000000
  70
    32
  0
VERTEX
  8
0
  5
1847
 10
290.442
 20
59.1373
 30
0.000000
  70
    32
  0
VERTEX
  8
0
  5
1848
 10
290.444
 20
59.1419
 30
0.000000
  70
    32
  0
VERTEX
  8
0
  5
1849
 10
290.446
 20
59.1465
 30
0.000000
  70
    32
  0
VERTEX
  8
0
  5
184A
 10
290.447
 20
59.1512
 30
0.000000
  70
    32
  0
VERTEX
  8
0
  5
184B
 10
290.449
 20
59.1558
 30
0.000000
  70
    32
  0
VERTEX
  8
0
  5
184C
 10
290.451
 20
59.1604
 30
0.000000
  70
    32
  0
VERTEX
  8
0
  5
184D
 10
290.452
 20
59.1651
 30
0.000000
  70
    32
  0
VERTEX
  8
0
  5
184E
 10
290.454
 20
59.1697
 30
0.000000
  70
    32
  0
VERTEX
  8
0
  5
184F
 10
290.455
 20
59.1743
 30
0.000000
  70
    32
  0
VERTEX
  8
0
  5
1850
 10
290.457
 20
59.1790
 30
0.000000
  70
    32
  0
VERTEX
  8
0
  5
1851
 10
290.458
 20
59.1836
 30
0.000000
  70
    32
  0
VERTEX
  8
0
  5
1852
 10
290.459
 20
59.1883
 30
0.000000
  70
    32
  0
VERTEX
  8
0
  5
1853
 10
290.461
 20
59.1930
 30
0.000000
  70
    32
  0
VERTEX
  8
0
  5
1854
 10
290.462
 20
59.1976
 30
0.000000
  70
    32
  0
VERTEX
  8
0
  5
1855
 10
290.463
 20
59.2023
 30
0.000000
  70
    32
  0
VERTEX
  8
0
  5
1856
 10
290.465
 20
59.2070
 30
0.000000
  70
    32
  0
VERTEX
  8
0
  5
1857
 10
290.466
 20
59.2116
 30
0.000000
  70
    32
  0
VERTEX
  8
0
  5
1858
 10
290.467
 20
59.2163
 30
0.000000
  70
    32
  0
VERTEX
  8
0
  5
1859
 10
290.468
 20
59.2210
 30
0.000000
  70
    32
  0
VERTEX
  8
0
  5
185A
 10
290.469
 20
59.2257
 30
0.000000
  70
    32
  0
VERTEX
  8
0
  5
185B
 10
290.470
 20
59.2303
 30
0.000000
  70
    32
  0
VERTEX
  8
0
  5
185C
 10
290.471
 20
59.2350
 30
0.000000
  70
    32
  0
VERTEX
  8
0
  5
185D
 10
290.472
 20
59.2397
 30
0.000000
  70
    32
  0
VERTEX
  8
0
  5
185E
 10
290.473
 20
59.2444
 30
0.000000
  70
    32
  0
VERTEX
  8
0
  5
185F
 10
290.474
 20
59.2491
 30
0.000000
  70
    32
  0
VERTEX
  8
0
  5
1860
 10
290.475
 20
59.2538
 30
0.000000
  70
    32
  0
VERTEX
  8
0
  5
1861
 10
290.476
 20
59.2585
 30
0.000000
  70
    32
  0
VERTEX
  8
0
  5
1862
 10
290.477
 20
59.2632
 30
0.000000
  70
    32
  0
VERTEX
  8
0
  5
1863
 10
290.478
 20
59.2679
 30
0.000000
  70
    32
  0
VERTEX
  8
0
  5
1864
 10
290.479
 20
59.2726
 30
0.000000
  70
    32
  0
VERTEX
  8
0
  5
1865
 10
290.479
 20
59.2773
 30
0.000000
  70
    32
  0
VERTEX
  8
0
  5
1866
 10
290.480
 20
59.2820
 30
0.000000
  70
    32
  0
VERTEX
  8
0
  5
1867
 10
290.481
 20
59.2867
 30
0.000000
  70
    32
  0
VERTEX
  8
0
  5
1868
 10
290.481
 20
59.2914
 30
0.000000
  70
    32
  0
VERTEX
  8
0
  5
1869
 10
290.482
 20
59.2961
 30
0.000000
  70
    32
  0
VERTEX
  8
0
  5
186A
 10
290.483
 20
59.3008
 30
0.000000
  70
    32
  0
VERTEX
  8
0
  5
186B
 10
290.483
 20
59.3055
 30
0.000000
  70
    32
  0
VERTEX
  8
0
  5
186C
 10
290.484
 20
59.3102
 30
0.000000
  70
    32
  0
VERTEX
  8
0
  5
186D
 10
290.484
 20
59.3150
 30
0.000000
  70
    32
  0
VERTEX
  8
0
  5
186E
 10
290.485
 20
59.3197
 30
0.000000
  70
    32
  0
VERTEX
  8
0
  5
186F
 10
290.485
 20
59.3244
 30
0.000000
  70
    32
  0
VERTEX
  8
0
  5
1870
 10
290.485
 20
59.3291
 30
0.000000
  70
    32
  0
VERTEX
  8
0
  5
1871
 10
290.486
 20
59.3338
 30
0.000000
  70
    32
  0
VERTEX
  8
0
  5
1872
 10
290.486
 20
59.3386
 30
0.000000
  70
    32
  0
VERTEX
  8
0
  5
1873
 10
290.486
 20
59.3433
 30
0.000000
  70
    32
  0
VERTEX
  8
0
  5
1874
 10
290.487
 20
59.3480
 30
0.000000
  70
    32
  0
VERTEX
  8
0
  5
1875
 10
290.487
 20
59.3527
 30
0.000000
  70
    32
  0
VERTEX
  8
0
  5
1876
 10
290.487
 20
59.3574
 30
0.000000
  70
    32
  0
VERTEX
  8
0
  5
1877
 10
290.487
 20
59.3622
 30
0.000000
  70
    32
  0
VERTEX
  8
0
  5
1878
 10
290.487
 20
59.3669
 30
0.000000
  70
    32
  0
VERTEX
  8
0
  5
1879
 10
290.487
 20
59.3716
 30
0.000000
  70
    32
  0
VERTEX
  8
0
  5
187A
 10
290.488
 20
59.3763
 30
0.000000
  70
    32
  0
VERTEX
  8
0
  5
187B
 10
290.488
 20
59.3811
 30
0.000000
  70
    32
  0
SEQEND
  8
0
  5
187C
  0
LINE
  5
109
  8
0
 10
185.95703883357751
 20
18.96447630324344
 30
0.0
 11
185.95703883357751
 21
20.597469465098889
 31
0.0
  0
POLYLINE
  5
10A
  8
0
 10
185.63920158838172
 20
21.991316315216245
 30
0.0
 66
     1
 70
     8
  0
VERTEX
  8
0
  5
187D
 10
185.639
 20
21.9913
 30
0.000000
  70
    32
  0
VERTEX
  8
0
  5
187E
 10
185.631
 20
21.9831
 30
0.000000
  70
    32
  0
VERTEX
  8
0
  5
187F
 10
185.623
 20
21.9749
 30
0.000000
  70
    32
  0
VERTEX
  8
0
  5
1880
 10
185.615
 20
21.9666
 30
0.000000
  70
    32
  0
VERTEX
  8
0
  5
1881
 10
185.607
 20
21.9583
 30
0.000000
  70
    32
  0
VERTEX
  8
0
  5
1882
 10
185.600
 20
21.9499
 30
0.000000
  70
    32
  0
VERTEX
  8
0
  5
1883
 10
185.592
 20
21.9416
 30
0.000000
  70
    32
  0
VERTEX
  8
0
  5
1884
 10
185.585
 20
21.9331
 30
0.000000
  70
    32
  0
VERTEX
  8
0
  5
1885
 10
185.578
 20
21.9247
 30
0.000000
  70
    32
  0
VERTEX
  8
0
  5
1886
 10
185.570
 20
21.9162
 30
0.000000
  70
    32
  0
VERTEX
  8
0
  5
1887
 10
185.563
 20
21.9077
 30
0.000000
  70
    32
  0
VERTEX
  8
0
  5
1888
 10
185.556
 20
21.8991
 30
0.000000
  70
    32
  0
VERTEX
  8
0
  5
1889
 10
185.550
 20
21.8905
 30
0.000000
  70
    32
  0
VERTEX
  8
0
  5
188A
 10
185.543
 20
21.8819
 30
0.000000
  70
    32
  0
VERTEX
  8
0
  5
188B
 10
185.536
 20
21.8732
 30
0.000000
  70
    32
  0
VERTEX
  8
0
  5
188C
 10
185.530
 20
21.8646
 30
0.000000
  70
    32
  0
VERTEX
  8
0
  5
188D
 10
185.523
 20
21.8559
 30
0.000000
  70
    32
  0
VERTEX
  8
0
  5
188E
 10
185.517
 20
21.8471
 30
0.000000
  70
    32
  0
VERTEX
  8
0
  5
188F
 10
185.511
 20
21.8383
 30
0.000000
  70
    32
  0
VERTEX
  8
0
  5
1890
 10
185.505
 20
21.8295
 30
0.000000
  70
    32
  0
VERTEX
  8
0
  5
1891
 10
185.499
 20
21.8207
 30
0.000000
  70
    32
  0
VERTEX
  8
0
  5
1892
 10
185.494
 20
21.8119
 30
0.000000
  70
    32
  0
VERTEX
  8
0
  5
1893
 10
185.488
 20
21.8030
 30
0.000000
  70
    32
  0
VERTEX
  8
0
  5
1894
 10
185.483
 20
21.7941
 30
0.000000
  70
    32
  0
VERTEX
  8
0
  5
1895
 10
185.477
 20
21.7851
 30
0.000000
  70
    32
  0
VERTEX
  8
0
  5
1896
 10
185.472
 20
21.7762
 30
0.000000
  70
    32
  0
VERTEX
  8
0
  5
1897
 10
185.467
 20
21.7672
 30
0.000000
  70
    32
  0
VERTEX
  8
0
  5
1898
 10
185.462
 20
21.7582
 30
0.000000
  70
    32
  0
VERTEX
  8
0
  5
1899
 10
185.457
 20
21.7492
 30
0.000000
  70
    32
  0
VERTEX
  8
0
  5
189A
 10
185.453
 20
21.7401
 30
0.000000
  70
    32
  0
VERTEX
  8
0
  5
189B
 10
185.448
 20
21.7310
 30
0.000000
  70
    32
  0
VERTEX
  8
0
  5
189C
 10
185.444
 20
21.7219
 30
0.000000
  70
    32
  0
VERTEX
  8
0
  5
189D
 10
185.439
 20
21.7128
 30
0.000000
  70
    32
  0
VERTEX
  8
0
  5
189E
 10
185.435
 20
21.7037
 30
0.000000
  70
    32
  0
VERTEX
  8
0
  5
189F
 10
185.431
 20
21.6945
 30
0.000000
  70
    32
  0
VERTEX
  8
0
  5
18A0
 10
185.427
 20
21.6854
 30
0.000000
  70
    32
  0
VERTEX
  8
0
  5
18A1
 10
185.423
 20
21.6762
 30
0.000000
  70
    32
  0
VERTEX
  8
0
  5
18A2
 10
185.420
 20
21.6670
 30
0.000000
  70
    32
  0
VERTEX
  8
0
  5
18A3
 10
185.416
 20
21.6577
 30
0.000000
  70
    32
  0
VERTEX
  8
0
  5
18A4
 10
185.413
 20
21.6485
 30
0.000000
  70
    32
  0
VERTEX
  8
0
  5
18A5
 10
185.410
 20
21.6392
 30
0.000000
  70
    32
  0
VERTEX
  8
0
  5
18A6
 10
185.407
 20
21.6300
 30
0.000000
  70
    32
  0
VERTEX
  8
0
  5
18A7
 10
185.404
 20
21.6207
 30
0.000000
  70
    32
  0
VERTEX
  8
0
  5
18A8
 10
185.401
 20
21.6114
 30
0.000000
  70
    32
  0
VERTEX
  8
0
  5
18A9
 10
185.398
 20
21.6021
 30
0.000000
  70
    32
  0
VERTEX
  8
0
  5
18AA
 10
185.395
 20
21.5927
 30
0.000000
  70
    32
  0
VERTEX
  8
0
  5
18AB
 10
185.393
 20
21.5834
 30
0.000000
  70
    32
  0
VERTEX
  8
0
  5
18AC
 10
185.391
 20
21.5740
 30
0.000000
  70
    32
  0
VERTEX
  8
0
  5
18AD
 10
185.388
 20
21.5647
 30
0.000000
  70
    32
  0
VERTEX
  8
0
  5
18AE
 10
185.386
 20
21.5553
 30
0.000000
  70
    32
  0
VERTEX
  8
0
  5
18AF
 10
185.384
 20
21.5459
 30
0.000000
  70
    32
  0
VERTEX
  8
0
  5
18B0
 10
185.383
 20
21.5365
 30
0.000000
  70
    32
  0
VERTEX
  8
0
  5
18B1
 10
185.381
 20
21.5271
 30
0.000000
  70
    32
  0
VERTEX
  8
0
  5
18B2
 10
185.379
 20
21.5177
 30
0.000000
  70
    32
  0
VERTEX
  8
0
  5
18B3
 10
185.378
 20
21.5083
 30
0.000000
  70
    32
  0
VERTEX
  8
0
  5
18B4
 10
185.377
 20
21.4989
 30
0.000000
  70
    32
  0
VERTEX
  8
0
  5
18B5
 10
185.376
 20
21.4895
 30
0.000000
  70
    32
  0
VERTEX
  8
0
  5
18B6
 10
185.375
 20
21.4801
 30
0.000000
  70
    32
  0
VERTEX
  8
0
  5
18B7
 10
185.374
 20
21.4706
 30
0.000000
  70
    32
  0
VERTEX
  8
0
  5
18B8
 10
185.373
 20
21.4612
 30
0.000000
  70
    32
  0
VERTEX
  8
0
  5
18B9
 10
185.372
 20
21.4517
 30
0.000000
  70
    32
  0
VERTEX
  8
0
  5
18BA
 10
185.372
 20
21.4423
 30
0.000000
  70
    32
  0
VERTEX
  8
0
  5
18BB
 10
185.372
 20
21.4329
 30
0.000000
  70
    32
  0
VERTEX
  8
0
  5
18BC
 10
185.371
 20
21.4234
 30
0.000000
  70
    32
  0
VERTEX
  8
0
  5
18BD
 10
185.371
 20
21.4140
 30
0.000000
  70
    32
  0
VERTEX
  8
0
  5
18BE
 10
185.371
 20
21.4045
 30
0.000000
  70
    32
  0
VERTEX
  8
0
  5
18BF
 10
185.372
 20
21.3951
 30
0.000000
  70
    32
  0
VERTEX
  8
0
  5
18C0
 10
185.372
 20
21.3856
 30
0.000000
  70
    32
  0
VERTEX
  8
0
  5
18C1
 10
185.372
 20
21.3762
 30
0.000000
  70
    32
  0
VERTEX
  8
0
  5
18C2
 10
185.373
 20
21.3667
 30
0.000000
  70
    32
  0
VERTEX
  8
0
  5
18C3
 10
185.374
 20
21.3573
 30
0.000000
  70
    32
  0
VERTEX
  8
0
  5
18C4
 10
185.375
 20
21.3479
 30
0.000000
  70
    32
  0
VERTEX
  8
0
  5
18C5
 10
185.376
 20
21.3384
 30
0.000000
  70
    32
  0
VERTEX
  8
0
  5
18C6
 10
185.377
 20
21.3290
 30
0.000000
  70
    32
  0
VERTEX
  8
0
  5
18C7
 10
185.378
 20
21.3196
 30
0.000000
  70
    32
  0
VERTEX
  8
0
  5
18C8
 10
185.379
 20
21.3102
 30
0.000000
  70
    32
  0
VERTEX
  8
0
  5
18C9
 10
185.381
 20
21.3008
 30
0.000000
  70
    32
  0
VERTEX
  8
0
  5
18CA
 10
185.383
 20
21.2914
 30
0.000000
  70
    32
  0
VERTEX
  8
0
  5
18CB
 10
185.384
 20
21.2820
 30
0.000000
  70
    32
  0
VERTEX
  8
0
  5
18CC
 10
185.386
 20
21.2726
 30
0.000000
  70
    32
  0
VERTEX
  8
0
  5
18CD
 10
185.388
 20
21.2632
 30
0.000000
  70
    32
  0
VERTEX
  8
0
  5
18CE
 10
185.391
 20
21.2539
 30
0.000000
  70
    32
  0
VERTEX
  8
0
  5
18CF
 10
185.393
 20
21.2445
 30
0.000000
  70
    32
  0
VERTEX
  8
0
  5
18D0
 10
185.395
 20
21.2352
 30
0.000000
  70
    32
  0
VERTEX
  8
0
  5
18D1
 10
185.398
 20
21.2259
 30
0.000000
  70
    32
  0
VERTEX
  8
0
  5
18D2
 10
185.401
 20
21.2166
 30
0.000000
  70
    32
  0
VERTEX
  8
0
  5
18D3
 10
185.404
 20
21.2073
 30
0.000000
  70
    32
  0
VERTEX
  8
0
  5
18D4
 10
185.407
 20
21.1980
 30
0.000000
  70
    32
  0
VERTEX
  8
0
  5
18D5
 10
185.410
 20
21.1887
 30
0.000000
  70
    32
  0
VERTEX
  8
0
  5
18D6
 10
185.413
 20
21.1794
 30
0.000000
  70
    32
  0
VERTEX
  8
0
  5
18D7
 10
185.416
 20
21.1702
 30
0.000000
  70
    32
  0
VERTEX
  8
0
  5
18D8
 10
185.420
 20
21.1610
 30
0.000000
  70
    32
  0
VERTEX
  8
0
  5
18D9
 10
185.423
 20
21.1518
 30
0.000000
  70
    32
  0
VERTEX
  8
0
  5
18DA
 10
185.427
 20
21.1426
 30
0.000000
  70
    32
  0
VERTEX
  8
0
  5
18DB
 10
185.431
 20
21.1334
 30
0.000000
  70
    32
  0
VERTEX
  8
0
  5
18DC
 10
185.435
 20
21.1242
 30
0.000000
  70
    32
  0
VERTEX
  8
0
  5
18DD
 10
185.439
 20
21.1151
 30
0.000000
  70
    32
  0
VERTEX
  8
0
  5
18DE
 10
185.444
 20
21.1060
 30
0.000000
  70
    32
  0
VERTEX
  8
0
  5
18DF
 10
185.448
 20
21.0969
 30
0.000000
  70
    32
  0
VERTEX
  8
0
  5
18E0
 10
185.453
 20
21.0878
 30
0.000000
  70
    32
  0
VERTEX
  8
0
  5
18E1
 10
185.457
 20
21.0788
 30
0.000000
  70
    32
  0
VERTEX
  8
0
  5
18E2
 10
185.462
 20
21.0697
 30
0.000000
  70
    32
  0
VERTEX
  8
0
  5
18E3
 10
185.467
 20
21.0607
 30
0.000000
  70
    32
  0
VERTEX
  8
0
  5
18E4
 10
185.472
 20
21.0518
 30
0.000000
  70
    32
  0
VERTEX
  8
0
  5
18E5
 10
185.477
 20
21.0428
 30
0.000000
  70
    32
  0
VERTEX
  8
0
  5
18E6
 10
185.483
 20
21.0339
 30
0.000000
  70
    32
  0
VERTEX
  8
0
  5
18E7
 10
185.488
 20
21.0250
 30
0.000000
  70
    32
  0
VERTEX
  8
0
  5
18E8
 10
185.494
 20
21.0161
 30
0.000000
  70
    32
  0
VERTEX
  8
0
  5
18E9
 10
185.499
 20
21.0072
 30
0.000000
  70
    32
  0
VERTEX
  8
0
  5
18EA
 10
185.505
 20
20.9984
 30
0.000000
  70
    32
  0
VERTEX
  8
0
  5
18EB
 10
185.511
 20
20.9896
 30
0.000000
  70
    32
  0
VERTEX
  8
0
  5
18EC
 10
185.517
 20
20.9808
 30
0.000000
  70
    32
  0
VERTEX
  8
0
  5
18ED
 10
185.523
 20
20.9721
 30
0.000000
  70
    32
  0
VERTEX
  8
0
  5
18EE
 10
185.530
 20
20.9634
 30
0.000000
  70
    32
  0
VERTEX
  8
0
  5
18EF
 10
185.536
 20
20.9547
 30
0.000000
  70
    32
  0
VERTEX
  8
0
  5
18F0
 10
185.543
 20
20.9460
 30
0.000000
  70
    32
  0
VERTEX
  8
0
  5
18F1
 10
185.550
 20
20.9374
 30
0.000000
  70
    32
  0
VERTEX
  8
0
  5
18F2
 10
185.556
 20
20.9288
 30
0.000000
  70
    32
  0
VERTEX
  8
0
  5
18F3
 10
185.563
 20
20.9203
 30
0.000000
  70
    32
  0
VERTEX
  8
0
  5
18F4
 10
185.570
 20
20.9117
 30
0.000000
  70
    32
  0
VERTEX
  8
0
  5
18F5
 10
185.578
 20
20.9033
 30
0.000000
  70
    32
  0
VERTEX
  8
0
  5
18F6
 10
185.585
 20
20.8948
 30
0.000000
  70
    32
  0
VERTEX
  8
0
  5
18F7
 10
185.592
 20
20.8864
 30
0.000000
  70
    32
  0
VERTEX
  8
0
  5
18F8
 10
185.600
 20
20.8780
 30
0.000000
  70
    32
  0
VERTEX
  8
0
  5
18F9
 10
185.607
 20
20.8696
 30
0.000000
  70
    32
  0
VERTEX
  8
0
  5
18FA
 10
185.615
 20
20.8613
 30
0.000000
  70
    32
  0
VERTEX
  8
0
  5
18FB
 10
185.623
 20
20.8531
 30
0.000000
  70
    32
  0
VERTEX
  8
0
  5
18FC
 10
185.631
 20
20.8448
 30
0.000000
  70
    32
  0
VERTEX
  8
0
  5
18FD
 10
185.639
 20
20.8366
 30
0.000000
  70
    32
  0
SEQEND
  8
0
  5
18FE
  0
POLYLINE
  5
10B
  8
0
 10
290.21957291319586
 20
60.436699951831756
 30
0.0
 66
     1
 70
     8
  0
VERTEX
  8
0
  5
18FF
 10
290.220
 20
60.4367
 30
0.000000
  70
    32
  0
VERTEX
  8
0
  5
1900
 10
290.228
 20
60.4449
 30
0.000000
  70
    32
  0
VERTEX
  8
0
  5
1901
 10
290.236
 20
60.4531
 30
0.000000
  70
    32
  0
VERTEX
  8
0
  5
1902
 10
290.244
 20
60.4614
 30
0.000000
  70
    32
  0
VERTEX
  8
0
  5
1903
 10
290.251
 20
60.4697
 30
0.000000
  70
    32
  0
VERTEX
  8
0
  5
1904
 10
290.259
 20
60.4781
 30
0.000000
  70
    32
  0
VERTEX
  8
0
  5
1905
 10
290.267
 20
60.4865
 30
0.000000
  70
    32
  0
VERTEX
  8
0
  5
1906
 10
290.274
 20
60.4949
 30
0.000000
  70
    32
  0
VERTEX
  8
0
  5
1907
 10
290.281
 20
60.5033
 30
0.000000
  70
    32
  0
VERTEX
  8
0
  5
1908
 10
290.288
 20
60.5118
 30
0.000000
  70
    32
  0
VERTEX
  8
0
  5
1909
 10
290.296
 20
60.5204
 30
0.000000
  70
    32
  0
VERTEX
  8
0
  5
190A
 10
290.302
 20
60.5289
 30
0.000000
  70
    32
  0
VERTEX
  8
0
  5
190B
 10
290.309
 20
60.5375
 30
0.000000
  70
    32
  0
VERTEX
  8
0
  5
190C
 10
290.316
 20
60.5461
 30
0.000000
  70
    32
  0
VERTEX
  8
0
  5
190D
 10
290.323
 20
60.5548
 30
0.000000
  70
    32
  0
VERTEX
  8
0
  5
190E
 10
290.329
 20
60.5635
 30
0.000000
  70
    32
  0
VERTEX
  8
0
  5
190F
 10
290.335
 20
60.5722
 30
0.000000
  70
    32
  0
VERTEX
  8
0
  5
1910
 10
290.341
 20
60.5809
 30
0.000000
  70
    32
  0
VERTEX
  8
0
  5
1911
 10
290.348
 20
60.5897
 30
0.000000
  70
    32
  0
VERTEX
  8
0
  5
1912
 10
290.354
 20
60.5985
 30
0.000000
  70
    32
  0
VERTEX
  8
0
  5
1913
 10
290.359
 20
60.6073
 30
0.000000
  70
    32
  0
VERTEX
  8
0
  5
1914
 10
290.365
 20
60.6162
 30
0.000000
  70
    32
  0
VERTEX
  8
0
  5
1915
 10
290.371
 20
60.6250
 30
0.000000
  70
    32
  0
VERTEX
  8
0
  5
1916
 10
290.376
 20
60.6340
 30
0.000000
  70
    32
  0
VERTEX
  8
0
  5
1917
 10
290.381
 20
60.6429
 30
0.000000
  70
    32
  0
VERTEX
  8
0
  5
1918
 10
290.387
 20
60.6518
 30
0.000000
  70
    32
  0
VERTEX
  8
0
  5
1919
 10
290.392
 20
60.6608
 30
0.000000
  70
    32
  0
VERTEX
  8
0
  5
191A
 10
290.397
 20
60.6698
 30
0.000000
  70
    32
  0
VERTEX
  8
0
  5
191B
 10
290.401
 20
60.6789
 30
0.000000
  70
    32
  0
VERTEX
  8
0
  5
191C
 10
290.406
 20
60.6879
 30
0.000000
  70
    32
  0
VERTEX
  8
0
  5
191D
 10
290.411
 20
60.6970
 30
0.000000
  70
    32
  0
VERTEX
  8
0
  5
191E
 10
290.415
 20
60.7061
 30
0.000000
  70
    32
  0
VERTEX
  8
0
  5
191F
 10
290.419
 20
60.7152
 30
0.000000
  70
    32
  0
VERTEX
  8
0
  5
1920
 10
290.424
 20
60.7243
 30
0.000000
  70
    32
  0
VERTEX
  8
0
  5
1921
 10
290.428
 20
60.7335
 30
0.000000
  70
    32
  0
VERTEX
  8
0
  5
1922
 10
290.431
 20
60.7427
 30
0.000000
  70
    32
  0
VERTEX
  8
0
  5
1923
 10
290.435
 20
60.7518
 30
0.000000
  70
    32
  0
VERTEX
  8
0
  5
1924
 10
290.439
 20
60.7611
 30
0.000000
  70
    32
  0
VERTEX
  8
0
  5
1925
 10
290.442
 20
60.7703
 30
0.000000
  70
    32
  0
VERTEX
  8
0
  5
1926
 10
290.446
 20
60.7795
 30
0.000000
  70
    32
  0
VERTEX
  8
0
  5
1927
 10
290.449
 20
60.7888
 30
0.000000
  70
    32
  0
VERTEX
  8
0
  5
1928
 10
290.452
 20
60.7981
 30
0.000000
  70
    32
  0
VERTEX
  8
0
  5
1929
 10
290.455
 20
60.8073
 30
0.000000
  70
    32
  0
VERTEX
  8
0
  5
192A
 10
290.458
 20
60.8166
 30
0.000000
  70
    32
  0
VERTEX
  8
0
  5
192B
 10
290.461
 20
60.8260
 30
0.000000
  70
    32
  0
VERTEX
  8
0
  5
192C
 10
290.463
 20
60.8353
 30
0.000000
  70
    32
  0
VERTEX
  8
0
  5
192D
 10
290.466
 20
60.8446
 30
0.000000
  70
    32
  0
VERTEX
  8
0
  5
192E
 10
290.468
 20
60.8540
 30
0.000000
  70
    32
  0
VERTEX
  8
0
  5
192F
 10
290.470
 20
60.8633
 30
0.000000
  70
    32
  0
VERTEX
  8
0
  5
1930
 10
290.472
 20
60.8727
 30
0.000000
  70
    32
  0
VERTEX
  8
0
  5
1931
 10
290.474
 20
60.8821
 30
0.000000
  70
    32
  0
VERTEX
  8
0
  5
1932
 10
290.476
 20
60.8915
 30
0.000000
  70
    32
  0
VERTEX
  8
0
  5
1933
 10
290.478
 20
60.9009
 30
0.000000
  70
    32
  0
VERTEX
  8
0
  5
1934
 10
290.479
 20
60.9103
 30
0.000000
  70
    32
  0
VERTEX
  8
0
  5
1935
 10
290.481
 20
60.9197
 30
0.000000
  70
    32
  0
VERTEX
  8
0
  5
1936
 10
290.482
 20
60.9291
 30
0.000000
  70
    32
  0
VERTEX
  8
0
  5
1937
 10
290.483
 20
60.9385
 30
0.000000
  70
    32
  0
VERTEX
  8
0
  5
1938
 10
290.484
 20
60.9480
 30
0.000000
  70
    32
  0
VERTEX
  8
0
  5
1939
 10
290.485
 20
60.9574
 30
0.000000
  70
    32
  0
VERTEX
  8
0
  5
193A
 10
290.486
 20
60.9668
 30
0.000000
  70
    32
  0
VERTEX
  8
0
  5
193B
 10
290.486
 20
60.9763
 30
0.000000
  70
    32
  0
VERTEX
  8
0
  5
193C
 10
290.487
 20
60.9857
 30
0.000000
  70
    32
  0
VERTEX
  8
0
  5
193D
 10
290.487
 20
60.9952
 30
0.000000
  70
    32
  0
VERTEX
  8
0
  5
193E
 10
290.487
 20
61.0046
 30
0.000000
  70
    32
  0
VERTEX
  8
0
  5
193F
 10
290.488
 20
61.0141
 30
0.000000
  70
    32
  0
VERTEX
  8
0
  5
1940
 10
290.487
 20
61.0235
 30
0.000000
  70
    32
  0
VERTEX
  8
0
  5
1941
 10
290.487
 20
61.0329
 30
0.000000
  70
    32
  0
VERTEX
  8
0
  5
1942
 10
290.487
 20
61.0424
 30
0.000000
  70
    32
  0
VERTEX
  8
0
  5
1943
 10
290.486
 20
61.0518
 30
0.000000
  70
    32
  0
VERTEX
  8
0
  5
1944
 10
290.486
 20
61.0613
 30
0.000000
  70
    32
  0
VERTEX
  8
0
  5
1945
 10
290.485
 20
61.0707
 30
0.000000
  70
    32
  0
VERTEX
  8
0
  5
1946
 10
290.484
 20
61.0801
 30
0.000000
  70
    32
  0
VERTEX
  8
0
  5
1947
 10
290.483
 20
61.0896
 30
0.000000
  70
    32
  0
VERTEX
  8
0
  5
1948
 10
290.482
 20
61.0990
 30
0.000000
  70
    32
  0
VERTEX
  8
0
  5
1949
 10
290.481
 20
61.1084
 30
0.000000
  70
    32
  0
VERTEX
  8
0
  5
194A
 10
290.479
 20
61.1178
 30
0.000000
  70
    32
  0
VERTEX
  8
0
  5
194B
 10
290.478
 20
61.1272
 30
0.000000
  70
    32
  0
VERTEX
  8
0
  5
194C
 10
290.476
 20
61.1366
 30
0.000000
  70
    32
  0
VERTEX
  8
0
  5
194D
 10
290.474
 20
61.1460
 30
0.000000
  70
    32
  0
VERTEX
  8
0
  5
194E
 10
290.472
 20
61.1554
 30
0.000000
  70
    32
  0
VERTEX
  8
0
  5
194F
 10
290.470
 20
61.1648
 30
0.000000
  70
    32
  0
VERTEX
  8
0
  5
1950
 10
290.468
 20
61.1741
 30
0.000000
  70
    32
  0
VERTEX
  8
0
  5
1951
 10
290.466
 20
61.1835
 30
0.000000
  70
    32
  0
VERTEX
  8
0
  5
1952
 10
290.463
 20
61.1928
 30
0.000000
  70
    32
  0
VERTEX
  8
0
  5
1953
 10
290.461
 20
61.2021
 30
0.000000
  70
    32
  0
VERTEX
  8
0
  5
1954
 10
290.458
 20
61.2115
 30
0.000000
  70
    32
  0
VERTEX
  8
0
  5
1955
 10
290.455
 20
61.2208
 30
0.000000
  70
    32
  0
VERTEX
  8
0
  5
1956
 10
290.452
 20
61.2300
 30
0.000000
  70
    32
  0
VERTEX
  8
0
  5
1957
 10
290.449
 20
61.2393
 30
0.000000
  70
    32
  0
VERTEX
  8
0
  5
1958
 10
290.446
 20
61.2486
 30
0.000000
  70
    32
  0
VERTEX
  8
0
  5
1959
 10
290.442
 20
61.2578
 30
0.000000
  70
    32
  0
VERTEX
  8
0
  5
195A
 10
290.439
 20
61.2670
 30
0.000000
  70
    32
  0
VERTEX
  8
0
  5
195B
 10
290.435
 20
61.2763
 30
0.000000
  70
    32
  0
VERTEX
  8
0
  5
195C
 10
290.431
 20
61.2854
 30
0.000000
  70
    32
  0
VERTEX
  8
0
  5
195D
 10
290.428
 20
61.2946
 30
0.000000
  70
    32
  0
VERTEX
  8
0
  5
195E
 10
290.424
 20
61.3038
 30
0.000000
  70
    32
  0
VERTEX
  8
0
  5
195F
 10
290.419
 20
61.3129
 30
0.000000
  70
    32
  0
VERTEX
  8
0
  5
1960
 10
290.415
 20
61.3220
 30
0.000000
  70
    32
  0
VERTEX
  8
0
  5
1961
 10
290.411
 20
61.3311
 30
0.000000
  70
    32
  0
VERTEX
  8
0
  5
1962
 10
290.406
 20
61.3402
 30
0.000000
  70
    32
  0
VERTEX
  8
0
  5
1963
 10
290.401
 20
61.3492
 30
0.000000
  70
    32
  0
VERTEX
  8
0
  5
1964
 10
290.397
 20
61.3583
 30
0.000000
  70
    32
  0
VERTEX
  8
0
  5
1965
 10
290.392
 20
61.3673
 30
0.000000
  70
    32
  0
VERTEX
  8
0
  5
1966
 10
290.387
 20
61.3763
 30
0.000000
  70
    32
  0
VERTEX
  8
0
  5
1967
 10
290.381
 20
61.3852
 30
0.000000
  70
    32
  0
VERTEX
  8
0
  5
1968
 10
290.376
 20
61.3941
 30
0.000000
  70
    32
  0
VERTEX
  8
0
  5
1969
 10
290.371
 20
61.4031
 30
0.000000
  70
    32
  0
VERTEX
  8
0
  5
196A
 10
290.365
 20
61.4119
 30
0.000000
  70
    32
  0
VERTEX
  8
0
  5
196B
 10
290.359
 20
61.4208
 30
0.000000
  70
    32
  0
VERTEX
  8
0
  5
196C
 10
290.354
 20
61.4296
 30
0.000000
  70
    32
  0
VERTEX
  8
0
  5
196D
 10
290.348
 20
61.4384
 30
0.000000
  70
    32
  0
VERTEX
  8
0
  5
196E
 10
290.341
 20
61.4472
 30
0.000000
  70
    32
  0
VERTEX
  8
0
  5
196F
 10
290.335
 20
61.4559
 30
0.000000
  70
    32
  0
VERTEX
  8
0
  5
1970
 10
290.329
 20
61.4646
 30
0.000000
  70
    32
  0
VERTEX
  8
0
  5
1971
 10
290.323
 20
61.4733
 30
0.000000
  70
    32
  0
VERTEX
  8
0
  5
1972
 10
290.316
 20
61.4820
 30
0.000000
  70
    32
  0
VERTEX
  8
0
  5
1973
 10
290.309
 20
61.4906
 30
0.000000
  70
    32
  0
VERTEX
  8
0
  5
1974
 10
290.302
 20
61.4992
 30
0.000000
  70
    32
  0
VERTEX
  8
0
  5
1975
 10
290.296
 20
61.5077
 30
0.000000
  70
    32
  0
VERTEX
  8
0
  5
1976
 10
290.288
 20
61.5163
 30
0.000000
  70
    32
  0
VERTEX
  8
0
  5
1977
 10
290.281
 20
61.5248
 30
0.000000
  70
    32
  0
VERTEX
  8
0
  5
1978
 10
290.274
 20
61.5332
 30
0.000000
  70
    32
  0
VERTEX
  8
0
  5
1979
 10
290.267
 20
61.5416
 30
0.000000
  70
    32
  0
VERTEX
  8
0
  5
197A
 10
290.259
 20
61.5500
 30
0.000000
  70
    32
  0
VERTEX
  8
0
  5
197B
 10
290.251
 20
61.5584
 30
0.000000
  70
    32
  0
VERTEX
  8
0
  5
197C
 10
290.244
 20
61.5667
 30
0.000000
  70
    32
  0
VERTEX
  8
0
  5
197D
 10
290.236
 20
61.5750
 30
0.000000
  70
    32
  0
VERTEX
  8
0
  5
197E
 10
290.228
 20
61.5832
 30
0.000000
  70
    32
  0
VERTEX
  8
0
  5
197F
 10
290.220
 20
61.5914
 30
0.000000
  70
    32
  0
SEQEND
  8
0
  5
1980
  0
LINE
  5
10C
  8
0
 10
289.90173566800007
 20
60.197553640093659
 30
0.0
 11
289.90173566800007
 21
58.564560478238207
 31
0.0
  0
POLYLINE
  5
10D
  8
0
 10
273.95611694590502
 20
70.981111170879984
 30
0.0
 66
     1
 70
     8
  0
VERTEX
  8
0
  5
1981
 10
273.956
 20
70.9811
 30
0.000000
  70
    32
  0
VERTEX
  8
0
  5
1982
 10
273.940
 20
70.9974
 30
0.000000
  70
    32
  0
VERTEX
  8
0
  5
1983
 10
273.922
 20
71.0135
 30
0.000000
  70
    32
  0
VERTEX
  8
0
  5
1984
 10
273.905
 20
71.0295
 30
0.000000
  70
    32
  0
VERTEX
  8
0
  5
1985
 10
273.887
 20
71.0453
 30
0.000000
  70
    32
  0
VERTEX
  8
0
  5
1986
 10
273.869
 20
71.0609
 30
0.000000
  70
    32
  0
VERTEX
  8
0
  5
1987
 10
273.850
 20
71.0763
 30
0.000000
  70
    32
  0
VERTEX
  8
0
  5
1988
 10
273.830
 20
71.0916
 30
0.000000
  70
    32
  0
VERTEX
  8
0
  5
1989
 10
273.811
 20
71.1067
 30
0.000000
  70
    32
  0
VERTEX
  8
0
  5
198A
 10
273.791
 20
71.1216
 30
0.000000
  70
    32
  0
VERTEX
  8
0
  5
198B
 10
273.770
 20
71.1363
 30
0.000000
  70
    32
  0
VERTEX
  8
0
  5
198C
 10
273.749
 20
71.1508
 30
0.000000
  70
    32
  0
VERTEX
  8
0
  5
198D
 10
273.728
 20
71.1651
 30
0.000000
  70
    32
  0
VERTEX
  8
0
  5
198E
 10
273.706
 20
71.1792
 30
0.000000
  70
    32
  0
VERTEX
  8
0
  5
198F
 10
273.684
 20
71.1931
 30
0.000000
  70
    32
  0
VERTEX
  8
0
  5
1990
 10
273.661
 20
71.2068
 30
0.000000
  70
    32
  0
VERTEX
  8
0
  5
1991
 10
273.638
 20
71.2203
 30
0.000000
  70
    32
  0
VERTEX
  8
0
  5
1992
 10
273.615
 20
71.2335
 30
0.000000
  70
    32
  0
VERTEX
  8
0
  5
1993
 10
273.591
 20
71.2465
 30
0.000000
  70
    32
  0
VERTEX
  8
0
  5
1994
 10
273.567
 20
71.2593
 30
0.000000
  70
    32
  0
VERTEX
  8
0
  5
1995
 10
273.543
 20
71.2719
 30
0.000000
  70
    32
  0
VERTEX
  8
0
  5
1996
 10
273.518
 20
71.2843
 30
0.000000
  70
    32
  0
VERTEX
  8
0
  5
1997
 10
273.493
 20
71.2964
 30
0.000000
  70
    32
  0
VERTEX
  8
0
  5
1998
 10
273.467
 20
71.3082
 30
0.000000
  70
    32
  0
VERTEX
  8
0
  5
1999
 10
273.442
 20
71.3198
 30
0.000000
  70
    32
  0
VERTEX
  8
0
  5
199A
 10
273.415
 20
71.3312
 30
0.000000
  70
    32
  0
VERTEX
  8
0
  5
199B
 10
273.389
 20
71.3424
 30
0.000000
  70
    32
  0
VERTEX
  8
0
  5
199C
 10
273.362
 20
71.3532
 30
0.000000
  70
    32
  0
VERTEX
  8
0
  5
199D
 10
273.335
 20
71.3639
 30
0.000000
  70
    32
  0
VERTEX
  8
0
  5
199E
 10
273.308
 20
71.3742
 30
0.000000
  70
    32
  0
VERTEX
  8
0
  5
199F
 10
273.280
 20
71.3843
 30
0.000000
  70
    32
  0
VERTEX
  8
0
  5
19A0
 10
273.252
 20
71.3942
 30
0.000000
  70
    32
  0
VERTEX
  8
0
  5
19A1
 10
273.224
 20
71.4038
 30
0.000000
  70
    32
  0
VERTEX
  8
0
  5
19A2
 10
273.196
 20
71.4131
 30
0.000000
  70
    32
  0
VERTEX
  8
0
  5
19A3
 10
273.167
 20
71.4221
 30
0.000000
  70
    32
  0
VERTEX
  8
0
  5
19A4
 10
273.138
 20
71.4309
 30
0.000000
  70
    32
  0
VERTEX
  8
0
  5
19A5
 10
273.109
 20
71.4394
 30
0.000000
  70
    32
  0
VERTEX
  8
0
  5
19A6
 10
273.079
 20
71.4476
 30
0.000000
  70
    32
  0
VERTEX
  8
0
  5
19A7
 10
273.049
 20
71.4555
 30
0.000000
  70
    32
  0
VERTEX
  8
0
  5
19A8
 10
273.020
 20
71.4632
 30
0.000000
  70
    32
  0
VERTEX
  8
0
  5
19A9
 10
272.989
 20
71.4706
 30
0.000000
  70
    32
  0
VERTEX
  8
0
  5
19AA
 10
272.959
 20
71.4777
 30
0.000000
  70
    32
  0
VERTEX
  8
0
  5
19AB
 10
272.929
 20
71.4845
 30
0.000000
  70
    32
  0
VERTEX
  8
0
  5
19AC
 10
272.898
 20
71.4910
 30
0.000000
  70
    32
  0
VERTEX
  8
0
  5
19AD
 10
272.867
 20
71.4972
 30
0.000000
  70
    32
  0
VERTEX
  8
0
  5
19AE
 10
272.836
 20
71.5031
 30
0.000000
  70
    32
  0
VERTEX
  8
0
  5
19AF
 10
272.805
 20
71.5087
 30
0.000000
  70
    32
  0
VERTEX
  8
0
  5
19B0
 10
272.773
 20
71.5141
 30
0.000000
  70
    32
  0
VERTEX
  8
0
  5
19B1
 10
272.742
 20
71.5191
 30
0.000000
  70
    32
  0
VERTEX
  8
0
  5
19B2
 10
272.710
 20
71.5239
 30
0.000000
  70
    32
  0
VERTEX
  8
0
  5
19B3
 10
272.678
 20
71.5283
 30
0.000000
  70
    32
  0
VERTEX
  8
0
  5
19B4
 10
272.646
 20
71.5324
 30
0.000000
  70
    32
  0
VERTEX
  8
0
  5
19B5
 10
272.614
 20
71.5363
 30
0.000000
  70
    32
  0
VERTEX
  8
0
  5
19B6
 10
272.582
 20
71.5398
 30
0.000000
  70
    32
  0
VERTEX
  8
0
  5
19B7
 10
272.550
 20
71.5430
 30
0.000000
  70
    32
  0
VERTEX
  8
0
  5
19B8
 10
272.518
 20
71.5460
 30
0.000000
  70
    32
  0
VERTEX
  8
0
  5
19B9
 10
272.485
 20
71.5486
 30
0.000000
  70
    32
  0
VERTEX
  8
0
  5
19BA
 10
272.453
 20
71.5509
 30
0.000000
  70
    32
  0
VERTEX
  8
0
  5
19BB
 10
272.420
 20
71.5529
 30
0.000000
  70
    32
  0
VERTEX
  8
0
  5
19BC
 10
272.388
 20
71.5546
 30
0.000000
  70
    32
  0
VERTEX
  8
0
  5
19BD
 10
272.355
 20
71.5560
 30
0.000000
  70
    32
  0
VERTEX
  8
0
  5
19BE
 10
272.322
 20
71.5571
 30
0.000000
  70
    32
  0
VERTEX
  8
0
  5
19BF
 10
272.290
 20
71.5578
 30
0.000000
  70
    32
  0
VERTEX
  8
0
  5
19C0
 10
272.257
 20
71.5583
 30
0.000000
  70
    32
  0
VERTEX
  8
0
  5
19C1
 10
272.224
 20
71.5585
 30
0.000000
  70
    32
  0
VERTEX
  8
0
  5
19C2
 10
272.191
 20
71.5583
 30
0.000000
  70
    32
  0
VERTEX
  8
0
  5
19C3
 10
272.159
 20
71.5578
 30
0.000000
  70
    32
  0
VERTEX
  8
0
  5
19C4
 10
272.126
 20
71.5571
 30
0.000000
  70
    32
  0
VERTEX
  8
0
  5
19C5
 10
272.093
 20
71.5560
 30
0.000000
  70
    32
  0
VERTEX
  8
0
  5
19C6
 10
272.061
 20
71.5546
 30
0.000000
  70
    32
  0
VERTEX
  8
0
  5
19C7
 10
272.028
 20
71.5529
 30
0.000000
  70
    32
  0
VERTEX
  8
0
  5
19C8
 10
271.995
 20
71.5509
 30
0.000000
  70
    32
  0
VERTEX
  8
0
  5
19C9
 10
271.963
 20
71.5486
 30
0.000000
  70
    32
  0
VERTEX
  8
0
  5
19CA
 10
271.931
 20
71.5460
 30
0.000000
  70
    32
  0
VERTEX
  8
0
  5
19CB
 10
271.898
 20
71.5430
 30
0.000000
  70
    32
  0
VERTEX
  8
0
  5
19CC
 10
271.866
 20
71.5398
 30
0.000000
  70
    32
  0
VERTEX
  8
0
  5
19CD
 10
271.834
 20
71.5363
 30
0.000000
  70
    32
  0
VERTEX
  8
0
  5
19CE
 10
271.802
 20
71.5324
 30
0.000000
  70
    32
  0
VERTEX
  8
0
  5
19CF
 10
271.770
 20
71.5283
 30
0.000000
  70
    32
  0
VERTEX
  8
0
  5
19D0
 10
271.738
 20
71.5239
 30
0.000000
  70
    32
  0
VERTEX
  8
0
  5
19D1
 10
271.706
 20
71.5191
 30
0.000000
  70
    32
  0
VERTEX
  8
0
  5
19D2
 10
271.675
 20
71.5141
 30
0.000000
  70
    32
  0
VERTEX
  8
0
  5
19D3
 10
271.643
 20
71.5087
 30
0.000000
  70
    32
  0
VERTEX
  8
0
  5
19D4
 10
271.612
 20
71.5031
 30
0.000000
  70
    32
  0
VERTEX
  8
0
  5
19D5
 10
271.581
 20
71.4972
 30
0.000000
  70
    32
  0
VERTEX
  8
0
  5
19D6
 10
271.550
 20
71.4910
 30
0.000000
  70
    32
  0
VERTEX
  8
0
  5
19D7
 10
271.520
 20
71.4845
 30
0.000000
  70
    32
  0
VERTEX
  8
0
  5
19D8
 10
271.489
 20
71.4777
 30
0.000000
  70
    32
  0
VERTEX
  8
0
  5
19D9
 10
271.459
 20
71.4706
 30
0.000000
  70
    32
  0
VERTEX
  8
0
  5
19DA
 10
271.429
 20
71.4632
 30
0.000000
  70
    32
  0
VERTEX
  8
0
  5
19DB
 10
271.399
 20
71.4555
 30
0.000000
  70
    32
  0
VERTEX
  8
0
  5
19DC
 10
271.369
 20
71.4476
 30
0.000000
  70
    32
  0
VERTEX
  8
0
  5
19DD
 10
271.339
 20
71.4394
 30
0.000000
  70
    32
  0
VERTEX
  8
0
  5
19DE
 10
271.310
 20
71.4309
 30
0.000000
  70
    32
  0
VERTEX
  8
0
  5
19DF
 10
271.281
 20
71.4221
 30
0.000000
  70
    32
  0
VERTEX
  8
0
  5
19E0
 10
271.253
 20
71.4131
 30
0.000000
  70
    32
  0
VERTEX
  8
0
  5
19E1
 10
271.224
 20
71.4038
 30
0.000000
  70
    32
  0
VERTEX
  8
0
  5
19E2
 10
271.196
 20
71.3942
 30
0.000000
  70
    32
  0
VERTEX
  8
0
  5
19E3
 10
271.168
 20
71.3843
 30
0.000000
  70
    32
  0
VERTEX
  8
0
  5
19E4
 10
271.140
 20
71.3742
 30
0.000000
  70
    32
  0
VERTEX
  8
0
  5
19E5
 10
271.113
 20
71.3639
 30
0.000000
  70
    32
  0
VERTEX
  8
0
  5
19E6
 10
271.086
 20
71.3532
 30
0.000000
  70
    32
  0
VERTEX
  8
0
  5
19E7
 10
271.059
 20
71.3424
 30
0.000000
  70
    32
  0
VERTEX
  8
0
  5
19E8
 10
271.033
 20
71.3312
 30
0.000000
  70
    32
  0
VERTEX
  8
0
  5
19E9
 10
271.007
 20
71.3198
 30
0.000000
  70
    32
  0
VERTEX
  8
0
  5
19EA
 10
270.981
 20
71.3082
 30
0.000000
  70
    32
  0
VERTEX
  8
0
  5
19EB
 10
270.955
 20
71.2964
 30
0.000000
  70
    32
  0
VERTEX
  8
0
  5
19EC
 10
270.930
 20
71.2843
 30
0.000000
  70
    32
  0
VERTEX
  8
0
  5
19ED
 10
270.905
 20
71.2719
 30
0.000000
  70
    32
  0
VERTEX
  8
0
  5
19EE
 10
270.881
 20
71.2593
 30
0.000000
  70
    32
  0
VERTEX
  8
0
  5
19EF
 10
270.857
 20
71.2465
 30
0.000000
  70
    32
  0
VERTEX
  8
0
  5
19F0
 10
270.833
 20
71.2335
 30
0.000000
  70
    32
  0
VERTEX
  8
0
  5
19F1
 10
270.810
 20
71.2203
 30
0.000000
  70
    32
  0
VERTEX
  8
0
  5
19F2
 10
270.787
 20
71.2068
 30
0.000000
  70
    32
  0
VERTEX
  8
0
  5
19F3
 10
270.764
 20
71.1931
 30
0.000000
  70
    32
  0
VERTEX
  8
0
  5
19F4
 10
270.742
 20
71.1792
 30
0.000000
  70
    32
  0
VERTEX
  8
0
  5
19F5
 10
270.720
 20
71.1651
 30
0.000000
  70
    32
  0
VERTEX
  8
0
  5
19F6
 10
270.699
 20
71.1508
 30
0.000000
  70
    32
  0
VERTEX
  8
0
  5
19F7
 10
270.678
 20
71.1363
 30
0.000000
  70
    32
  0
VERTEX
  8
0
  5
19F8
 10
270.657
 20
71.1216
 30
0.000000
  70
    32
  0
VERTEX
  8
0
  5
19F9
 10
270.637
 20
71.1067
 30
0.000000
  70
    32
  0
VERTEX
  8
0
  5
19FA
 10
270.618
 20
71.0916
 30
0.000000
  70
    32
  0
VERTEX
  8
0
  5
19FB
 10
270.598
 20
71.0763
 30
0.000000
  70
    32
  0
VERTEX
  8
0
  5
19FC
 10
270.580
 20
71.0609
 30
0.000000
  70
    32
  0
VERTEX
  8
0
  5
19FD
 10
270.561
 20
71.0453
 30
0.000000
  70
    32
  0
VERTEX
  8
0
  5
19FE
 10
270.543
 20
71.0295
 30
0.000000
  70
    32
  0
VERTEX
  8
0
  5
19FF
 10
270.526
 20
71.0135
 30
0.000000
  70
    32
  0
VERTEX
  8
0
  5
1A00
 10
270.509
 20
70.9974
 30
0.000000
  70
    32
  0
VERTEX
  8
0
  5
1A01
 10
270.492
 20
70.9811
 30
0.000000
  70
    32
  0
SEQEND
  8
0
  5
1A02
  0
LINE
  5
10E
  8
0
 10
185.37125239595059
 20
19.78097288417117
 30
0.0
 11
185.37125239595059
 21
21.413966046026619
 31
0.0
  0
LINE
  5
10F
  8
0
 10
290.48752210562691
 20
59.381057059165919
 30
0.0
 11
290.48752210562691
 21
61.014050221021378
 31
0.0
  0
POLYLINE
  5
110
  8
0
 10
267.86888330150703
 20
54.811837049222319
 30
0.0
 66
     1
 70
     8
  0
VERTEX
  8
0
  5
1A03
 10
267.869
 20
54.8118
 30
0.000000
  70
    32
  0
VERTEX
  8
0
  5
1A04
 10
267.867
 20
54.8625
 30
0.000000
  70
    32
  0
VERTEX
  8
0
  5
1A05
 10
267.863
 20
54.9131
 30
0.000000
  70
    32
  0
VERTEX
  8
0
  5
1A06
 10
267.856
 20
54.9636
 30
0.000000
  70
    32
  0
VERTEX
  8
0
  5
1A07
 10
267.848
 20
55.0140
 30
0.000000
  70
    32
  0
VERTEX
  8
0
  5
1A08
 10
267.837
 20
55.0642
 30
0.000000
  70
    32
  0
VERTEX
  8
0
  5
1A09
 10
267.825
 20
55.1144
 30
0.000000
  70
    32
  0
VERTEX
  8
0
  5
1A0A
 10
267.810
 20
55.1643
 30
0.000000
  70
    32
  0
VERTEX
  8
0
  5
1A0B
 10
267.793
 20
55.2140
 30
0.000000
  70
    32
  0
VERTEX
  8
0
  5
1A0C
 10
267.774
 20
55.2634
 30
0.000000
  70
    32
  0
VERTEX
  8
0
  5
1A0D
 10
267.753
 20
55.3126
 30
0.000000
  70
    32
  0
VERTEX
  8
0
  5
1A0E
 10
267.730
 20
55.3614
 30
0.000000
  70
    32
  0
VERTEX
  8
0
  5
1A0F
 10
267.704
 20
55.4099
 30
0.000000
  70
    32
  0
VERTEX
  8
0
  5
1A10
 10
267.677
 20
55.4580
 30
0.000000
  70
    32
  0
VERTEX
  8
0
  5
1A11
 10
267.648
 20
55.5058
 30
0.000000
  70
    32
  0
VERTEX
  8
0
  5
1A12
 10
267.617
 20
55.5531
 30
0.000000
  70
    32
  0
VERTEX
  8
0
  5
1A13
 10
267.583
 20
55.6000
 30
0.000000
  70
    32
  0
VERTEX
  8
0
  5
1A14
 10
267.548
 20
55.6463
 30
0.000000
  70
    32
  0
VERTEX
  8
0
  5
1A15
 10
267.511
 20
55.6922
 30
0.000000
  70
    32
  0
VERTEX
  8
0
  5
1A16
 10
267.472
 20
55.7375
 30
0.000000
  70
    32
  0
VERTEX
  8
0
  5
1A17
 10
267.431
 20
55.7823
 30
0.000000
  70
    32
  0
VERTEX
  8
0
  5
1A18
 10
267.388
 20
55.8265
 30
0.000000
  70
    32
  0
VERTEX
  8
0
  5
1A19
 10
267.343
 20
55.8700
 30
0.000000
  70
    32
  0
VERTEX
  8
0
  5
1A1A
 10
267.297
 20
55.9130
 30
0.000000
  70
    32
  0
VERTEX
  8
0
  5
1A1B
 10
267.248
 20
55.9552
 30
0.000000
  70
    32
  0
VERTEX
  8
0
  5
1A1C
 10
267.198
 20
55.9968
 30
0.000000
  70
    32
  0
VERTEX
  8
0
  5
1A1D
 10
267.146
 20
56.0376
 30
0.000000
  70
    32
  0
VERTEX
  8
0
  5
1A1E
 10
267.093
 20
56.0777
 30
0.000000
  70
    32
  0
VERTEX
  8
0
  5
1A1F
 10
267.037
 20
56.1170
 30
0.000000
  70
    32
  0
VERTEX
  8
0
  5
1A20
 10
266.980
 20
56.1556
 30
0.000000
  70
    32
  0
VERTEX
  8
0
  5
1A21
 10
266.922
 20
56.1933
 30
0.000000
  70
    32
  0
VERTEX
  8
0
  5
1A22
 10
266.862
 20
56.2302
 30
0.000000
  70
    32
  0
VERTEX
  8
0
  5
1A23
 10
266.800
 20
56.2663
 30
0.000000
  70
    32
  0
VERTEX
  8
0
  5
1A24
 10
266.737
 20
56.3014
 30
0.000000
  70
    32
  0
VERTEX
  8
0
  5
1A25
 10
266.673
 20
56.3357
 30
0.000000
  70
    32
  0
VERTEX
  8
0
  5
1A26
 10
266.606
 20
56.3690
 30
0.000000
  70
    32
  0
VERTEX
  8
0
  5
1A27
 10
266.539
 20
56.4015
 30
0.000000
  70
    32
  0
VERTEX
  8
0
  5
1A28
 10
266.470
 20
56.4329
 30
0.000000
  70
    32
  0
VERTEX
  8
0
  5
1A29
 10
266.400
 20
56.4634
 30
0.000000
  70
    32
  0
VERTEX
  8
0
  5
1A2A
 10
266.329
 20
56.4929
 30
0.000000
  70
    32
  0
VERTEX
  8
0
  5
1A2B
 10
266.256
 20
56.5213
 30
0.000000
  70
    32
  0
VERTEX
  8
0
  5
1A2C
 10
266.183
 20
56.5488
 30
0.000000
  70
    32
  0
VERTEX
  8
0
  5
1A2D
 10
266.108
 20
56.5752
 30
0.000000
  70
    32
  0
VERTEX
  8
0
  5
1A2E
 10
266.032
 20
56.6005
 30
0.000000
  70
    32
  0
VERTEX
  8
0
  5
1A2F
 10
265.955
 20
56.6248
 30
0.000000
  70
    32
  0
VERTEX
  8
0
  5
1A30
 10
265.877
 20
56.6479
 30
0.000000
  70
    32
  0
VERTEX
  8
0
  5
1A31
 10
265.798
 20
56.6700
 30
0.000000
  70
    32
  0
VERTEX
  8
0
  5
1A32
 10
265.718
 20
56.6909
 30
0.000000
  70
    32
  0
VERTEX
  8
0
  5
1A33
 10
265.637
 20
56.7108
 30
0.000000
  70
    32
  0
VERTEX
  8
0
  5
1A34
 10
265.556
 20
56.7294
 30
0.000000
  70
    32
  0
VERTEX
  8
0
  5
1A35
 10
265.474
 20
56.7470
 30
0.000000
  70
    32
  0
VERTEX
  8
0
  5
1A36
 10
265.390
 20
56.7633
 30
0.000000
  70
    32
  0
VERTEX
  8
0
  5
1A37
 10
265.307
 20
56.7785
 30
0.000000
  70
    32
  0
VERTEX
  8
0
  5
1A38
 10
265.223
 20
56.7925
 30
0.000000
  70
    32
  0
VERTEX
  8
0
  5
1A39
 10
265.138
 20
56.8053
 30
0.000000
  70
    32
  0
VERTEX
  8
0
  5
1A3A
 10
265.052
 20
56.8169
 30
0.000000
  70
    32
  0
VERTEX
  8
0
  5
1A3B
 10
264.966
 20
56.8274
 30
0.000000
  70
    32
  0
VERTEX
  8
0
  5
1A3C
 10
264.880
 20
56.8366
 30
0.000000
  70
    32
  0
VERTEX
  8
0
  5
1A3D
 10
264.794
 20
56.8446
 30
0.000000
  70
    32
  0
VERTEX
  8
0
  5
1A3E
 10
264.707
 20
56.8513
 30
0.000000
  70
    32
  0
VERTEX
  8
0
  5
1A3F
 10
264.619
 20
56.8569
 30
0.000000
  70
    32
  0
VERTEX
  8
0
  5
1A40
 10
264.532
 20
56.8612
 30
0.000000
  70
    32
  0
VERTEX
  8
0
  5
1A41
 10
264.444
 20
56.8643
 30
0.000000
  70
    32
  0
VERTEX
  8
0
  5
1A42
 10
264.357
 20
56.8661
 30
0.000000
  70
    32
  0
VERTEX
  8
0
  5
1A43
 10
264.269
 20
56.8667
 30
0.000000
  70
    32
  0
VERTEX
  8
0
  5
1A44
 10
264.181
 20
56.8661
 30
0.000000
  70
    32
  0
VERTEX
  8
0
  5
1A45
 10
264.094
 20
56.8643
 30
0.000000
  70
    32
  0
VERTEX
  8
0
  5
1A46
 10
264.006
 20
56.8612
 30
0.000000
  70
    32
  0
VERTEX
  8
0
  5
1A47
 10
263.919
 20
56.8569
 30
0.000000
  70
    32
  0
VERTEX
  8
0
  5
1A48
 10
263.832
 20
56.8513
 30
0.000000
  70
    32
  0
VERTEX
  8
0
  5
1A49
 10
263.745
 20
56.8446
 30
0.000000
  70
    32
  0
VERTEX
  8
0
  5
1A4A
 10
263.658
 20
56.8366
 30
0.000000
  70
    32
  0
VERTEX
  8
0
  5
1A4B
 10
263.572
 20
56.8274
 30
0.000000
  70
    32
  0
VERTEX
  8
0
  5
1A4C
 10
263.486
 20
56.8169
 30
0.000000
  70
    32
  0
VERTEX
  8
0
  5
1A4D
 10
263.401
 20
56.8053
 30
0.000000
  70
    32
  0
VERTEX
  8
0
  5
1A4E
 10
263.316
 20
56.7925
 30
0.000000
  70
    32
  0
VERTEX
  8
0
  5
1A4F
 10
263.231
 20
56.7785
 30
0.000000
  70
    32
  0
VERTEX
  8
0
  5
1A50
 10
263.148
 20
56.7633
 30
0.000000
  70
    32
  0
VERTEX
  8
0
  5
1A51
 10
263.065
 20
56.7470
 30
0.000000
  70
    32
  0
VERTEX
  8
0
  5
1A52
 10
262.982
 20
56.7294
 30
0.000000
  70
    32
  0
VERTEX
  8
0
  5
1A53
 10
262.901
 20
56.7108
 30
0.000000
  70
    32
  0
VERTEX
  8
0
  5
1A54
 10
262.820
 20
56.6909
 30
0.000000
  70
    32
  0
VERTEX
  8
0
  5
1A55
 10
262.740
 20
56.6700
 30
0.000000
  70
    32
  0
VERTEX
  8
0
  5
1A56
 10
262.661
 20
56.6479
 30
0.000000
  70
    32
  0
VERTEX
  8
0
  5
1A57
 10
262.583
 20
56.6248
 30
0.000000
  70
    32
  0
VERTEX
  8
0
  5
1A58
 10
262.506
 20
56.6005
 30
0.000000
  70
    32
  0
VERTEX
  8
0
  5
1A59
 10
262.430
 20
56.5752
 30
0.000000
  70
    32
  0
VERTEX
  8
0
  5
1A5A
 10
262.356
 20
56.5488
 30
0.000000
  70
    32
  0
VERTEX
  8
0
  5
1A5B
 10
262.282
 20
56.5213
 30
0.000000
  70
    32
  0
VERTEX
  8
0
  5
1A5C
 10
262.209
 20
56.4929
 30
0.000000
  70
    32
  0
VERTEX
  8
0
  5
1A5D
 10
262.138
 20
56.4634
 30
0.000000
  70
    32
  0
VERTEX
  8
0
  5
1A5E
 10
262.068
 20
56.4329
 30
0.000000
  70
    32
  0
VERTEX
  8
0
  5
1A5F
 10
261.999
 20
56.4015
 30
0.000000
  70
    32
  0
VERTEX
  8
0
  5
1A60
 10
261.932
 20
56.3690
 30
0.000000
  70
    32
  0
VERTEX
  8
0
  5
1A61
 10
261.866
 20
56.3357
 30
0.000000
  70
    32
  0
VERTEX
  8
0
  5
1A62
 10
261.801
 20
56.3014
 30
0.000000
  70
    32
  0
VERTEX
  8
0
  5
1A63
 10
261.738
 20
56.2663
 30
0.000000
  70
    32
  0
VERTEX
  8
0
  5
1A64
 10
261.676
 20
56.2302
 30
0.000000
  70
    32
  0
VERTEX
  8
0
  5
1A65
 10
261.616
 20
56.1933
 30
0.000000
  70
    32
  0
VERTEX
  8
0
  5
1A66
 10
261.558
 20
56.1556
 30
0.000000
  70
    32
  0
VERTEX
  8
0
  5
1A67
 10
261.501
 20
56.1170
 30
0.000000
  70
    32
  0
VERTEX
  8
0
  5
1A68
 10
261.446
 20
56.0777
 30
0.000000
  70
    32
  0
VERTEX
  8
0
  5
1A69
 10
261.392
 20
56.0376
 30
0.000000
  70
    32
  0
VERTEX
  8
0
  5
1A6A
 10
261.340
 20
55.9968
 30
0.000000
  70
    32
  0
VERTEX
  8
0
  5
1A6B
 10
261.290
 20
55.9552
 30
0.000000
  70
    32
  0
VERTEX
  8
0
  5
1A6C
 10
261.242
 20
55.9130
 30
0.000000
  70
    32
  0
VERTEX
  8
0
  5
1A6D
 10
261.195
 20
55.8700
 30
0.000000
  70
    32
  0
VERTEX
  8
0
  5
1A6E
 10
261.150
 20
55.8265
 30
0.000000
  70
    32
  0
VERTEX
  8
0
  5
1A6F
 10
261.108
 20
55.7823
 30
0.000000
  70
    32
  0
VERTEX
  8
0
  5
1A70
 10
261.067
 20
55.7375
 30
0.000000
  70
    32
  0
VERTEX
  8
0
  5
1A71
 10
261.027
 20
55.6922
 30
0.000000
  70
    32
  0
VERTEX
  8
0
  5
1A72
 10
260.990
 20
55.6463
 30
0.000000
  70
    32
  0
VERTEX
  8
0
  5
1A73
 10
260.955
 20
55.6000
 30
0.000000
  70
    32
  0
VERTEX
  8
0
  5
1A74
 10
260.922
 20
55.5531
 30
0.000000
  70
    32
  0
VERTEX
  8
0
  5
1A75
 10
260.890
 20
55.5058
 30
0.000000
  70
    32
  0
VERTEX
  8
0
  5
1A76
 10
260.861
 20
55.4580
 30
0.000000
  70
    32
  0
VERTEX
  8
0
  5
1A77
 10
260.834
 20
55.4099
 30
0.000000
  70
    32
  0
VERTEX
  8
0
  5
1A78
 10
260.809
 20
55.3614
 30
0.000000
  70
    32
  0
VERTEX
  8
0
  5
1A79
 10
260.786
 20
55.3126
 30
0.000000
  70
    32
  0
VERTEX
  8
0
  5
1A7A
 10
260.764
 20
55.2634
 30
0.000000
  70
    32
  0
VERTEX
  8
0
  5
1A7B
 10
260.745
 20
55.2140
 30
0.000000
  70
    32
  0
VERTEX
  8
0
  5
1A7C
 10
260.729
 20
55.1643
 30
0.000000
  70
    32
  0
VERTEX
  8
0
  5
1A7D
 10
260.714
 20
55.1144
 30
0.000000
  70
    32
  0
VERTEX
  8
0
  5
1A7E
 10
260.701
 20
55.0642
 30
0.000000
  70
    32
  0
VERTEX
  8
0
  5
1A7F
 10
260.690
 20
55.0140
 30
0.000000
  70
    32
  0
VERTEX
  8
0
  5
1A80
 10
260.682
 20
54.9636
 30
0.000000
  70
    32
  0
VERTEX
  8
0
  5
1A81
 10
260.676
 20
54.9131
 30
0.000000
  70
    32
  0
VERTEX
  8
0
  5
1A82
 10
260.671
 20
54.8625
 30
0.000000
  70
    32
  0
VERTEX
  8
0
  5
1A83
 10
260.669
 20
54.8118
 30
0.000000
  70
    32
  0
SEQEND
  8
0
  5
1A84
  0
POLYLINE
  5
111
  8
0
 10
215.18942810310921
 20
24.397339409664507
 30
0.0
 66
     1
 70
     8
  0
VERTEX
  8
0
  5
1A85
 10
215.189
 20
24.3973
 30
0.000000
  70
    32
  0
VERTEX
  8
0
  5
1A86
 10
215.187
 20
24.4480
 30
0.000000
  70
    32
  0
VERTEX
  8
0
  5
1A87
 10
215.183
 20
24.4986
 30
0.000000
  70
    32
  0
VERTEX
  8
0
  5
1A88
 10
215.177
 20
24.5491
 30
0.000000
  70
    32
  0
VERTEX
  8
0
  5
1A89
 10
215.168
 20
24.5995
 30
0.000000
  70
    32
  0
VERTEX
  8
0
  5
1A8A
 10
215.158
 20
24.6497
 30
0.000000
  70
    32
  0
VERTEX
  8
0
  5
1A8B
 10
215.145
 20
24.6999
 30
0.000000
  70
    32
  0
VERTEX
  8
0
  5
1A8C
 10
215.130
 20
24.7498
 30
0.000000
  70
    32
  0
VERTEX
  8
0
  5
1A8D
 10
215.113
 20
24.7995
 30
0.000000
  70
    32
  0
VERTEX
  8
0
  5
1A8E
 10
215.094
 20
24.8489
 30
0.000000
  70
    32
  0
VERTEX
  8
0
  5
1A8F
 10
215.073
 20
24.8981
 30
0.000000
  70
    32
  0
VERTEX
  8
0
  5
1A90
 10
215.050
 20
24.9469
 30
0.000000
  70
    32
  0
VERTEX
  8
0
  5
1A91
 10
215.025
 20
24.9954
 30
0.000000
  70
    32
  0
VERTEX
  8
0
  5
1A92
 10
214.998
 20
25.0436
 30
0.000000
  70
    32
  0
VERTEX
  8
0
  5
1A93
 10
214.968
 20
25.0913
 30
0.000000
  70
    32
  0
VERTEX
  8
0
  5
1A94
 10
214.937
 20
25.1386
 30
0.000000
  70
    32
  0
VERTEX
  8
0
  5
1A95
 10
214.904
 20
25.1855
 30
0.000000
  70
    32
  0
VERTEX
  8
0
  5
1A96
 10
214.869
 20
25.2318
 30
0.000000
  70
    32
  0
VERTEX
  8
0
  5
1A97
 10
214.831
 20
25.2777
 30
0.000000
  70
    32
  0
VERTEX
  8
0
  5
1A98
 10
214.792
 20
25.3230
 30
0.000000
  70
    32
  0
VERTEX
  8
0
  5
1A99
 10
214.751
 20
25.3678
 30
0.000000
  70
    32
  0
VERTEX
  8
0
  5
1A9A
 10
214.708
 20
25.4120
 30
0.000000
  70
    32
  0
VERTEX
  8
0
  5
1A9B
 10
214.664
 20
25.4555
 30
0.000000
  70
    32
  0
VERTEX
  8
0
  5
1A9C
 10
214.617
 20
25.4985
 30
0.000000
  70
    32
  0
VERTEX
  8
0
  5
1A9D
 10
214.569
 20
25.5407
 30
0.000000
  70
    32
  0
VERTEX
  8
0
  5
1A9E
 10
214.519
 20
25.5823
 30
0.000000
  70
    32
  0
VERTEX
  8
0
  5
1A9F
 10
214.467
 20
25.6231
 30
0.000000
  70
    32
  0
VERTEX
  8
0
  5
1AA0
 10
214.413
 20
25.6632
 30
0.000000
  70
    32
  0
VERTEX
  8
0
  5
1AA1
 10
214.358
 20
25.7026
 30
0.000000
  70
    32
  0
VERTEX
  8
0
  5
1AA2
 10
214.301
 20
25.7411
 30
0.000000
  70
    32
  0
VERTEX
  8
0
  5
1AA3
 10
214.242
 20
25.7788
 30
0.000000
  70
    32
  0
VERTEX
  8
0
  5
1AA4
 10
214.182
 20
25.8157
 30
0.000000
  70
    32
  0
VERTEX
  8
0
  5
1AA5
 10
214.121
 20
25.8518
 30
0.000000
  70
    32
  0
VERTEX
  8
0
  5
1AA6
 10
214.058
 20
25.8869
 30
0.000000
  70
    32
  0
VERTEX
  8
0
  5
1AA7
 10
213.993
 20
25.9212
 30
0.000000
  70
    32
  0
VERTEX
  8
0
  5
1AA8
 10
213.927
 20
25.9546
 30
0.000000
  70
    32
  0
VERTEX
  8
0
  5
1AA9
 10
213.860
 20
25.9870
 30
0.000000
  70
    32
  0
VERTEX
  8
0
  5
1AAA
 10
213.791
 20
26.0184
 30
0.000000
  70
    32
  0
VERTEX
  8
0
  5
1AAB
 10
213.721
 20
26.0489
 30
0.000000
  70
    32
  0
VERTEX
  8
0
  5
1AAC
 10
213.650
 20
26.0784
 30
0.000000
  70
    32
  0
VERTEX
  8
0
  5
1AAD
 10
213.577
 20
26.1068
 30
0.000000
  70
    32
  0
VERTEX
  8
0
  5
1AAE
 10
213.503
 20
26.1343
 30
0.000000
  70
    32
  0
VERTEX
  8
0
  5
1AAF
 10
213.428
 20
26.1607
 30
0.000000
  70
    32
  0
VERTEX
  8
0
  5
1AB0
 10
213.352
 20
26.1860
 30
0.000000
  70
    32
  0
VERTEX
  8
0
  5
1AB1
 10
213.275
 20
26.2103
 30
0.000000
  70
    32
  0
VERTEX
  8
0
  5
1AB2
 10
213.197
 20
26.2334
 30
0.000000
  70
    32
  0
VERTEX
  8
0
  5
1AB3
 10
213.118
 20
26.2555
 30
0.000000
  70
    32
  0
VERTEX
  8
0
  5
1AB4
 10
213.039
 20
26.2764
 30
0.000000
  70
    32
  0
VERTEX
  8
0
  5
1AB5
 10
212.958
 20
26.2963
 30
0.000000
  70
    32
  0
VERTEX
  8
0
  5
1AB6
 10
212.876
 20
26.3149
 30
0.000000
  70
    32
  0
VERTEX
  8
0
  5
1AB7
 10
212.794
 20
26.3325
 30
0.000000
  70
    32
  0
VERTEX
  8
0
  5
1AB8
 10
212.711
 20
26.3488
 30
0.000000
  70
    32
  0
VERTEX
  8
0
  5
1AB9
 10
212.627
 20
26.3640
 30
0.000000
  70
    32
  0
VERTEX
  8
0
  5
1ABA
 10
212.543
 20
26.3780
 30
0.000000
  70
    32
  0
VERTEX
  8
0
  5
1ABB
 10
212.458
 20
26.3908
 30
0.000000
  70
    32
  0
VERTEX
  8
0
  5
1ABC
 10
212.373
 20
26.4024
 30
0.000000
  70
    32
  0
VERTEX
  8
0
  5
1ABD
 10
212.287
 20
26.4129
 30
0.000000
  70
    32
  0
VERTEX
  8
0
  5
1ABE
 10
212.201
 20
26.4221
 30
0.000000
  70
    32
  0
VERTEX
  8
0
  5
1ABF
 10
212.114
 20
26.4301
 30
0.000000
  70
    32
  0
VERTEX
  8
0
  5
1AC0
 10
212.027
 20
26.4368
 30
0.000000
  70
    32
  0
VERTEX
  8
0
  5
1AC1
 10
211.940
 20
26.4424
 30
0.000000
  70
    32
  0
VERTEX
  8
0
  5
1AC2
 10
211.853
 20
26.4467
 30
0.000000
  70
    32
  0
VERTEX
  8
0
  5
1AC3
 10
211.765
 20
26.4498
 30
0.000000
  70
    32
  0
VERTEX
  8
0
  5
1AC4
 10
211.677
 20
26.4516
 30
0.000000
  70
    32
  0
VERTEX
  8
0
  5
1AC5
 10
211.590
 20
26.4522
 30
0.000000
  70
    32
  0
VERTEX
  8
0
  5
1AC6
 10
211.502
 20
26.4516
 30
0.000000
  70
    32
  0
VERTEX
  8
0
  5
1AC7
 10
211.414
 20
26.4498
 30
0.000000
  70
    32
  0
VERTEX
  8
0
  5
1AC8
 10
211.327
 20
26.4467
 30
0.000000
  70
    32
  0
VERTEX
  8
0
  5
1AC9
 10
211.239
 20
26.4424
 30
0.000000
  70
    32
  0
VERTEX
  8
0
  5
1ACA
 10
211.152
 20
26.4368
 30
0.000000
  70
    32
  0
VERTEX
  8
0
  5
1ACB
 10
211.065
 20
26.4301
 30
0.000000
  70
    32
  0
VERTEX
  8
0
  5
1ACC
 10
210.979
 20
26.4221
 30
0.000000
  70
    32
  0
VERTEX
  8
0
  5
1ACD
 10
210.892
 20
26.4129
 30
0.000000
  70
    32
  0
VERTEX
  8
0
  5
1ACE
 10
210.806
 20
26.4024
 30
0.000000
  70
    32
  0
VERTEX
  8
0
  5
1ACF
 10
210.721
 20
26.3908
 30
0.000000
  70
    32
  0
VERTEX
  8
0
  5
1AD0
 10
210.636
 20
26.3780
 30
0.000000
  70
    32
  0
VERTEX
  8
0
  5
1AD1
 10
210.552
 20
26.3640
 30
0.000000
  70
    32
  0
VERTEX
  8
0
  5
1AD2
 10
210.468
 20
26.3488
 30
0.000000
  70
    32
  0
VERTEX
  8
0
  5
1AD3
 10
210.385
 20
26.3325
 30
0.000000
  70
    32
  0
VERTEX
  8
0
  5
1AD4
 10
210.303
 20
26.3149
 30
0.000000
  70
    32
  0
VERTEX
  8
0
  5
1AD5
 10
210.221
 20
26.2963
 30
0.000000
  70
    32
  0
VERTEX
  8
0
  5
1AD6
 10
210.141
 20
26.2764
 30
0.000000
  70
    32
  0
VERTEX
  8
0
  5
1AD7
 10
210.061
 20
26.2555
 30
0.000000
  70
    32
  0
VERTEX
  8
0
  5
1AD8
 10
209.982
 20
26.2334
 30
0.000000
  70
    32
  0
VERTEX
  8
0
  5
1AD9
 10
209.904
 20
26.2103
 30
0.000000
  70
    32
  0
VERTEX
  8
0
  5
1ADA
 10
209.827
 20
26.1860
 30
0.000000
  70
    32
  0
VERTEX
  8
0
  5
1ADB
 10
209.751
 20
26.1607
 30
0.000000
  70
    32
  0
VERTEX
  8
0
  5
1ADC
 10
209.676
 20
26.1343
 30
0.000000
  70
    32
  0
VERTEX
  8
0
  5
1ADD
 10
209.602
 20
26.1068
 30
0.000000
  70
    32
  0
VERTEX
  8
0
  5
1ADE
 10
209.530
 20
26.0784
 30
0.000000
  70
    32
  0
VERTEX
  8
0
  5
1ADF
 10
209.458
 20
26.0489
 30
0.000000
  70
    32
  0
VERTEX
  8
0
  5
1AE0
 10
209.388
 20
26.0184
 30
0.000000
  70
    32
  0
VERTEX
  8
0
  5
1AE1
 10
209.320
 20
25.9870
 30
0.000000
  70
    32
  0
VERTEX
  8
0
  5
1AE2
 10
209.252
 20
25.9546
 30
0.000000
  70
    32
  0
VERTEX
  8
0
  5
1AE3
 10
209.186
 20
25.9212
 30
0.000000
  70
    32
  0
VERTEX
  8
0
  5
1AE4
 10
209.122
 20
25.8869
 30
0.000000
  70
    32
  0
VERTEX
  8
0
  5
1AE5
 10
209.059
 20
25.8518
 30
0.000000
  70
    32
  0
VERTEX
  8
0
  5
1AE6
 10
208.997
 20
25.8157
 30
0.000000
  70
    32
  0
VERTEX
  8
0
  5
1AE7
 10
208.937
 20
25.7788
 30
0.000000
  70
    32
  0
VERTEX
  8
0
  5
1AE8
 10
208.878
 20
25.7411
 30
0.000000
  70
    32
  0
VERTEX
  8
0
  5
1AE9
 10
208.821
 20
25.7026
 30
0.000000
  70
    32
  0
VERTEX
  8
0
  5
1AEA
 10
208.766
 20
25.6632
 30
0.000000
  70
    32
  0
VERTEX
  8
0
  5
1AEB
 10
208.713
 20
25.6231
 30
0.000000
  70
    32
  0
VERTEX
  8
0
  5
1AEC
 10
208.661
 20
25.5823
 30
0.000000
  70
    32
  0
VERTEX
  8
0
  5
1AED
 10
208.611
 20
25.5407
 30
0.000000
  70
    32
  0
VERTEX
  8
0
  5
1AEE
 10
208.562
 20
25.4985
 30
0.000000
  70
    32
  0
VERTEX
  8
0
  5
1AEF
 10
208.516
 20
25.4555
 30
0.000000
  70
    32
  0
VERTEX
  8
0
  5
1AF0
 10
208.471
 20
25.4120
 30
0.000000
  70
    32
  0
VERTEX
  8
0
  5
1AF1
 10
208.428
 20
25.3678
 30
0.000000
  70
    32
  0
VERTEX
  8
0
  5
1AF2
 10
208.387
 20
25.3230
 30
0.000000
  70
    32
  0
VERTEX
  8
0
  5
1AF3
 10
208.348
 20
25.2777
 30
0.000000
  70
    32
  0
VERTEX
  8
0
  5
1AF4
 10
208.311
 20
25.2318
 30
0.000000
  70
    32
  0
VERTEX
  8
0
  5
1AF5
 10
208.276
 20
25.1855
 30
0.000000
  70
    32
  0
VERTEX
  8
0
  5
1AF6
 10
208.242
 20
25.1386
 30
0.000000
  70
    32
  0
VERTEX
  8
0
  5
1AF7
 10
208.211
 20
25.0913
 30
0.000000
  70
    32
  0
VERTEX
  8
0
  5
1AF8
 10
208.182
 20
25.0436
 30
0.000000
  70
    32
  0
VERTEX
  8
0
  5
1AF9
 10
208.154
 20
24.9954
 30
0.000000
  70
    32
  0
VERTEX
  8
0
  5
1AFA
 10
208.129
 20
24.9469
 30
0.000000
  70
    32
  0
VERTEX
  8
0
  5
1AFB
 10
208.106
 20
24.8981
 30
0.000000
  70
    32
  0
VERTEX
  8
0
  5
1AFC
 10
208.085
 20
24.8489
 30
0.000000
  70
    32
  0
VERTEX
  8
0
  5
1AFD
 10
208.066
 20
24.7995
 30
0.000000
  70
    32
  0
VERTEX
  8
0
  5
1AFE
 10
208.049
 20
24.7498
 30
0.000000
  70
    32
  0
VERTEX
  8
0
  5
1AFF
 10
208.034
 20
24.6999
 30
0.000000
  70
    32
  0
VERTEX
  8
0
  5
1B00
 10
208.022
 20
24.6497
 30
0.000000
  70
    32
  0
VERTEX
  8
0
  5
1B01
 10
208.011
 20
24.5995
 30
0.000000
  70
    32
  0
VERTEX
  8
0
  5
1B02
 10
208.002
 20
24.5491
 30
0.000000
  70
    32
  0
VERTEX
  8
0
  5
1B03
 10
207.996
 20
24.4986
 30
0.000000
  70
    32
  0
VERTEX
  8
0
  5
1B04
 10
207.992
 20
24.4480
 30
0.000000
  70
    32
  0
VERTEX
  8
0
  5
1B05
 10
207.990
 20
24.3973
 30
0.000000
  70
    32
  0
SEQEND
  8
0
  5
1B06
  0
LINE
  5
112
  8
0
 10
185.95703883357751
 20
18.96447630324344
 30
0.0
 11
202.2204948008681
 21
9.5747656225746045
 31
0.0
  0
LINE
  5
113
  8
0
 10
205.04892192561431
 20
9.5747656225746063
 30
0.0
 11
289.90173566800007
 21
58.564560478238207
 31
0.0
  0
LINE
  5
114
  8
0
 10
185.95703883357751
 20
20.597469465098889
 30
0.0
 11
202.2204948008681
 21
11.20775878443005
 31
0.0
  0
LINE
  5
115
  8
0
 10
289.90173566800007
 20
61.830546801949112
 30
0.0
 11
273.63827970070952
 21
71.220257482617967
 31
0.0
  0
LINE
  5
116
  8
0
 10
270.8098525759633
 20
71.220257482617967
 30
0.0
 11
244.94641978850601
 21
56.287997600611718
 31
0.0
  0
LINE
  5
117
  8
0
 10
230.4804992291678
 20
47.936094471602019
 30
0.0
 11
185.95703883357751
 21
22.230462626954349
 31
0.0
  0
LINE
  5
118
  8
0
 10
205.04892192561431
 20
11.20775878443005
 30
0.0
 11
289.90173566800007
 21
60.197553640093659
 31
0.0
  0
POLYLINE
  5
119
  8
0
 10
231.42938725078881
 20
58.768684623470371
 30
0.0
 66
     1
 70
     8
  0
VERTEX
  8
0
  5
1B07
 10
231.429
 20
58.7687
 30
0.000000
  70
    32
  0
VERTEX
  8
0
  5
1B08
 10
231.437
 20
58.5845
 30
0.000000
  70
    32
  0
VERTEX
  8
0
  5
1B09
 10
231.461
 20
58.4008
 30
0.000000
  70
    32
  0
VERTEX
  8
0
  5
1B0A
 10
231.500
 20
58.2180
 30
0.000000
  70
    32
  0
VERTEX
  8
0
  5
1B0B
 10
231.554
 20
58.0366
 30
0.000000
  70
    32
  0
VERTEX
  8
0
  5
1B0C
 10
231.624
 20
57.8568
 30
0.000000
  70
    32
  0
VERTEX
  8
0
  5
1B0D
 10
231.709
 20
57.6793
 30
0.000000
  70
    32
  0
VERTEX
  8
0
  5
1B0E
 10
231.809
 20
57.5044
 30
0.000000
  70
    32
  0
VERTEX
  8
0
  5
1B0F
 10
231.924
 20
57.3326
 30
0.000000
  70
    32
  0
VERTEX
  8
0
  5
1B10
 10
232.053
 20
57.1642
 30
0.000000
  70
    32
  0
VERTEX
  8
0
  5
1B11
 10
232.197
 20
56.9996
 30
0.000000
  70
    32
  0
VERTEX
  8
0
  5
1B12
 10
232.354
 20
56.8394
 30
0.000000
  70
    32
  0
VERTEX
  8
0
  5
1B13
 10
232.525
 20
56.6838
 30
0.000000
  70
    32
  0
VERTEX
  8
0
  5
1B14
 10
232.709
 20
56.5332
 30
0.000000
  70
    32
  0
VERTEX
  8
0
  5
1B15
 10
232.905
 20
56.3879
 30
0.000000
  70
    32
  0
VERTEX
  8
0
  5
1B16
 10
233.113
 20
56.2485
 30
0.000000
  70
    32
  0
VERTEX
  8
0
  5
1B17
 10
233.333
 20
56.1151
 30
0.000000
  70
    32
  0
VERTEX
  8
0
  5
1B18
 10
233.564
 20
55.9881
 30
0.000000
  70
    32
  0
VERTEX
  8
0
  5
1B19
 10
233.806
 20
55.8677
 30
0.000000
  70
    32
  0
VERTEX
  8
0
  5
1B1A
 10
234.057
 20
55.7544
 30
0.000000
  70
    32
  0
VERTEX
  8
0
  5
1B1B
 10
234.318
 20
55.6484
 30
0.000000
  70
    32
  0
VERTEX
  8
0
  5
1B1C
 10
234.588
 20
55.5498
 30
0.000000
  70
    32
  0
VERTEX
  8
0
  5
1B1D
 10
234.865
 20
55.4590
 30
0.000000
  70
    32
  0
VERTEX
  8
0
  5
1B1E
 10
235.150
 20
55.3762
 30
0.000000
  70
    32
  0
VERTEX
  8
0
  5
1B1F
 10
235.442
 20
55.3016
 30
0.000000
  70
    32
  0
VERTEX
  8
0
  5
1B20
 10
235.740
 20
55.2353
 30
0.000000
  70
    32
  0
VERTEX
  8
0
  5
1B21
 10
236.043
 20
55.1775
 30
0.000000
  70
    32
  0
VERTEX
  8
0
  5
1B22
 10
236.350
 20
55.1284
 30
0.000000
  70
    32
  0
VERTEX
  8
0
  5
1B23
 10
236.661
 20
55.0880
 30
0.000000
  70
    32
  0
VERTEX
  8
0
  5
1B24
 10
236.976
 20
55.0565
 30
0.000000
  70
    32
  0
VERTEX
  8
0
  5
1B25
 10
237.292
 20
55.0340
 30
0.000000
  70
    32
  0
VERTEX
  8
0
  5
1B26
 10
237.610
 20
55.0204
 30
0.000000
  70
    32
  0
VERTEX
  8
0
  5
1B27
 10
237.929
 20
55.0159
 30
0.000000
  70
    32
  0
VERTEX
  8
0
  5
1B28
 10
238.248
 20
55.0204
 30
0.000000
  70
    32
  0
VERTEX
  8
0
  5
1B29
 10
238.566
 20
55.0340
 30
0.000000
  70
    32
  0
VERTEX
  8
0
  5
1B2A
 10
238.883
 20
55.0565
 30
0.000000
  70
    32
  0
VERTEX
  8
0
  5
1B2B
 10
239.197
 20
55.0880
 30
0.000000
  70
    32
  0
VERTEX
  8
0
  5
1B2C
 10
239.509
 20
55.1284
 30
0.000000
  70
    32
  0
VERTEX
  8
0
  5
1B2D
 10
239.816
 20
55.1775
 30
0.000000
  70
    32
  0
VERTEX
  8
0
  5
1B2E
 10
240.119
 20
55.2353
 30
0.000000
  70
    32
  0
VERTEX
  8
0
  5
1B2F
 10
240.417
 20
55.3016
 30
0.000000
  70
    32
  0
VERTEX
  8
0
  5
1B30
 10
240.708
 20
55.3762
 30
0.000000
  70
    32
  0
VERTEX
  8
0
  5
1B31
 10
240.993
 20
55.4590
 30
0.000000
  70
    32
  0
VERTEX
  8
0
  5
1B32
 10
241.271
 20
55.5498
 30
0.000000
  70
    32
  0
VERTEX
  8
0
  5
1B33
 10
241.541
 20
55.6484
 30
0.000000
  70
    32
  0
VERTEX
  8
0
  5
1B34
 10
241.801
 20
55.7544
 30
0.000000
  70
    32
  0
VERTEX
  8
0
  5
1B35
 10
242.053
 20
55.8677
 30
0.000000
  70
    32
  0
VERTEX
  8
0
  5
1B36
 10
242.295
 20
55.9881
 30
0.000000
  70
    32
  0
VERTEX
  8
0
  5
1B37
 10
242.526
 20
56.1151
 30
0.000000
  70
    32
  0
VERTEX
  8
0
  5
1B38
 10
242.746
 20
56.2485
 30
0.000000
  70
    32
  0
VERTEX
  8
0
  5
1B39
 10
242.954
 20
56.3879
 30
0.000000
  70
    32
  0
VERTEX
  8
0
  5
1B3A
 10
243.150
 20
56.5332
 30
0.000000
  70
    32
  0
VERTEX
  8
0
  5
1B3B
 10
243.334
 20
56.6838
 30
0.000000
  70
    32
  0
VERTEX
  8
0
  5
1B3C
 10
243.505
 20
56.8394
 30
0.000000
  70
    32
  0
VERTEX
  8
0
  5
1B3D
 10
243.662
 20
56.9996
 30
0.000000
  70
    32
  0
VERTEX
  8
0
  5
1B3E
 10
243.805
 20
57.1642
 30
0.000000
  70
    32
  0
VERTEX
  8
0
  5
1B3F
 10
243.935
 20
57.3326
 30
0.000000
  70
    32
  0
VERTEX
  8
0
  5
1B40
 10
244.049
 20
57.5044
 30
0.000000
  70
    32
  0
VERTEX
  8
0
  5
1B41
 10
244.149
 20
57.6793
 30
0.000000
  70
    32
  0
VERTEX
  8
0
  5
1B42
 10
244.235
 20
57.8568
 30
0.000000
  70
    32
  0
VERTEX
  8
0
  5
1B43
 10
244.304
 20
58.0366
 30
0.000000
  70
    32
  0
VERTEX
  8
0
  5
1B44
 10
244.359
 20
58.2180
 30
0.000000
  70
    32
  0
VERTEX
  8
0
  5
1B45
 10
244.398
 20
58.4008
 30
0.000000
  70
    32
  0
VERTEX
  8
0
  5
1B46
 10
244.422
 20
58.5845
 30
0.000000
  70
    32
  0
VERTEX
  8
0
  5
1B47
 10
244.429
 20
58.7687
 30
0.000000
  70
    32
  0
VERTEX
  8
0
  5
1B48
 10
244.422
 20
58.9528
 30
0.000000
  70
    32
  0
VERTEX
  8
0
  5
1B49
 10
244.398
 20
59.1365
 30
0.000000
  70
    32
  0
VERTEX
  8
0
  5
1B4A
 10
244.359
 20
59.3193
 30
0.000000
  70
    32
  0
VERTEX
  8
0
  5
1B4B
 10
244.304
 20
59.5008
 30
0.000000
  70
    32
  0
VERTEX
  8
0
  5
1B4C
 10
244.235
 20
59.6805
 30
0.000000
  70
    32
  0
VERTEX
  8
0
  5
1B4D
 10
244.149
 20
59.8581
 30
0.000000
  70
    32
  0
VERTEX
  8
0
  5
1B4E
 10
244.049
 20
60.0330
 30
0.000000
  70
    32
  0
VERTEX
  8
0
  5
1B4F
 10
243.935
 20
60.2048
 30
0.000000
  70
    32
  0
VERTEX
  8
0
  5
1B50
 10
243.805
 20
60.3732
 30
0.000000
  70
    32
  0
VERTEX
  8
0
  5
1B51
 10
243.662
 20
60.5377
 30
0.000000
  70
    32
  0
VERTEX
  8
0
  5
1B52
 10
243.505
 20
60.6980
 30
0.000000
  70
    32
  0
VERTEX
  8
0
  5
1B53
 10
243.334
 20
60.8536
 30
0.000000
  70
    32
  0
VERTEX
  8
0
  5
1B54
 10
243.150
 20
61.0042
 30
0.000000
  70
    32
  0
VERTEX
  8
0
  5
1B55
 10
242.954
 20
61.1494
 30
0.000000
  70
    32
  0
VERTEX
  8
0
  5
1B56
 10
242.746
 20
61.2889
 30
0.000000
  70
    32
  0
VERTEX
  8
0
  5
1B57
 10
242.526
 20
61.4223
 30
0.000000
  70
    32
  0
VERTEX
  8
0
  5
1B58
 10
242.295
 20
61.5493
 30
0.000000
  70
    32
  0
VERTEX
  8
0
  5
1B59
 10
242.053
 20
61.6696
 30
0.000000
  70
    32
  0
VERTEX
  8
0
  5
1B5A
 10
241.801
 20
61.7829
 30
0.000000
  70
    32
  0
VERTEX
  8
0
  5
1B5B
 10
241.541
 20
61.8890
 30
0.000000
  70
    32
  0
VERTEX
  8
0
  5
1B5C
 10
241.271
 20
61.9875
 30
0.000000
  70
    32
  0
VERTEX
  8
0
  5
1B5D
 10
240.993
 20
62.0783
 30
0.000000
  70
    32
  0
VERTEX
  8
0
  5
1B5E
 10
240.708
 20
62.1612
 30
0.000000
  70
    32
  0
VERTEX
  8
0
  5
1B5F
 10
240.417
 20
62.2358
 30
0.000000
  70
    32
  0
VERTEX
  8
0
  5
1B60
 10
240.119
 20
62.3021
 30
0.000000
  70
    32
  0
VERTEX
  8
0
  5
1B61
 10
239.816
 20
62.3599
 30
0.000000
  70
    32
  0
VERTEX
  8
0
  5
1B62
 10
239.509
 20
62.4090
 30
0.000000
  70
    32
  0
VERTEX
  8
0
  5
1B63
 10
239.197
 20
62.4494
 30
0.000000
  70
    32
  0
VERTEX
  8
0
  5
1B64
 10
238.883
 20
62.4808
 30
0.000000
  70
    32
  0
VERTEX
  8
0
  5
1B65
 10
238.566
 20
62.5034
 30
0.000000
  70
    32
  0
VERTEX
  8
0
  5
1B66
 10
238.248
 20
62.5169
 30
0.000000
  70
    32
  0
VERTEX
  8
0
  5
1B67
 10
237.929
 20
62.5215
 30
0.000000
  70
    32
  0
VERTEX
  8
0
  5
1B68
 10
237.610
 20
62.5169
 30
0.000000
  70
    32
  0
VERTEX
  8
0
  5
1B69
 10
237.292
 20
62.5034
 30
0.000000
  70
    32
  0
VERTEX
  8
0
  5
1B6A
 10
236.976
 20
62.4808
 30
0.000000
  70
    32
  0
VERTEX
  8
0
  5
1B6B
 10
236.661
 20
62.4494
 30
0.000000
  70
    32
  0
VERTEX
  8
0
  5
1B6C
 10
236.350
 20
62.4090
 30
0.000000
  70
    32
  0
VERTEX
  8
0
  5
1B6D
 10
236.043
 20
62.3599
 30
0.000000
  70
    32
  0
VERTEX
  8
0
  5
1B6E
 10
235.740
 20
62.3021
 30
0.000000
  70
    32
  0
VERTEX
  8
0
  5
1B6F
 10
235.442
 20
62.2358
 30
0.000000
  70
    32
  0
VERTEX
  8
0
  5
1B70
 10
235.150
 20
62.1612
 30
0.000000
  70
    32
  0
VERTEX
  8
0
  5
1B71
 10
234.865
 20
62.0783
 30
0.000000
  70
    32
  0
VERTEX
  8
0
  5
1B72
 10
234.588
 20
61.9875
 30
0.000000
  70
    32
  0
VERTEX
  8
0
  5
1B73
 10
234.318
 20
61.8890
 30
0.000000
  70
    32
  0
VERTEX
  8
0
  5
1B74
 10
234.057
 20
61.7829
 30
0.000000
  70
    32
  0
VERTEX
  8
0
  5
1B75
 10
233.806
 20
61.6696
 30
0.000000
  70
    32
  0
VERTEX
  8
0
  5
1B76
 10
233.564
 20
61.5493
 30
0.000000
  70
    32
  0
VERTEX
  8
0
  5
1B77
 10
233.333
 20
61.4223
 30
0.000000
  70
    32
  0
VERTEX
  8
0
  5
1B78
 10
233.113
 20
61.2889
 30
0.000000
  70
    32
  0
VERTEX
  8
0
  5
1B79
 10
232.905
 20
61.1494
 30
0.000000
  70
    32
  0
VERTEX
  8
0
  5
1B7A
 10
232.709
 20
61.0042
 30
0.000000
  70
    32
  0
VERTEX
  8
0
  5
1B7B
 10
232.525
 20
60.8536
 30
0.000000
  70
    32
  0
VERTEX
  8
0
  5
1B7C
 10
232.354
 20
60.6980
 30
0.000000
  70
    32
  0
VERTEX
  8
0
  5
1B7D
 10
232.197
 20
60.5377
 30
0.000000
  70
    32
  0
VERTEX
  8
0
  5
1B7E
 10
232.053
 20
60.3732
 30
0.000000
  70
    32
  0
VERTEX
  8
0
  5
1B7F
 10
231.924
 20
60.2048
 30
0.000000
  70
    32
  0
VERTEX
  8
0
  5
1B80
 10
231.809
 20
60.0330
 30
0.000000
  70
    32
  0
VERTEX
  8
0
  5
1B81
 10
231.709
 20
59.8581
 30
0.000000
  70
    32
  0
VERTEX
  8
0
  5
1B82
 10
231.624
 20
59.6805
 30
0.000000
  70
    32
  0
VERTEX
  8
0
  5
1B83
 10
231.554
 20
59.5008
 30
0.000000
  70
    32
  0
VERTEX
  8
0
  5
1B84
 10
231.500
 20
59.3193
 30
0.000000
  70
    32
  0
VERTEX
  8
0
  5
1B85
 10
231.461
 20
59.1365
 30
0.000000
  70
    32
  0
VERTEX
  8
0
  5
1B86
 10
231.437
 20
58.9528
 30
0.000000
  70
    32
  0
VERTEX
  8
0
  5
1B87
 10
231.429
 20
58.7687
 30
0.000000
  70
    32
  0
SEQEND
  8
0
  5
1B88
  0
POLYLINE
  5
11A
  8
0
 10
231.44872024952548
 20
40.924782028930245
 30
0.0
 66
     1
 70
     8
  0
VERTEX
  8
0
  5
1B89
 10
231.449
 20
40.9248
 30
0.000000
  70
    32
  0
VERTEX
  8
0
  5
1B8A
 10
231.462
 20
40.8375
 30
0.000000
  70
    32
  0
VERTEX
  8
0
  5
1B8B
 10
231.479
 20
40.7505
 30
0.000000
  70
    32
  0
VERTEX
  8
0
  5
1B8C
 10
231.500
 20
40.6637
 30
0.000000
  70
    32
  0
VERTEX
  8
0
  5
1B8D
 10
231.524
 20
40.5773
 30
0.000000
  70
    32
  0
VERTEX
  8
0
  5
1B8E
 10
231.551
 20
40.4911
 30
0.000000
  70
    32
  0
VERTEX
  8
0
  5
1B8F
 10
231.582
 20
40.4054
 30
0.000000
  70
    32
  0
VERTEX
  8
0
  5
1B90
 10
231.616
 20
40.3201
 30
0.000000
  70
    32
  0
VERTEX
  8
0
  5
1B91
 10
231.654
 20
40.2353
 30
0.000000
  70
    32
  0
VERTEX
  8
0
  5
1B92
 10
231.696
 20
40.1510
 30
0.000000
  70
    32
  0
VERTEX
  8
0
  5
1B93
 10
231.740
 20
40.0673
 30
0.000000
  70
    32
  0
VERTEX
  8
0
  5
1B94
 10
231.788
 20
39.9842
 30
0.000000
  70
    32
  0
VERTEX
  8
0
  5
1B95
 10
231.840
 20
39.9018
 30
0.000000
  70
    32
  0
VERTEX
  8
0
  5
1B96
 10
231.894
 20
39.8201
 30
0.000000
  70
    32
  0
VERTEX
  8
0
  5
1B97
 10
231.952
 20
39.7392
 30
0.000000
  70
    32
  0
VERTEX
  8
0
  5
1B98
 10
232.014
 20
39.6591
 30
0.000000
  70
    32
  0
VERTEX
  8
0
  5
1B99
 10
232.078
 20
39.5798
 30
0.000000
  70
    32
  0
VERTEX
  8
0
  5
1B9A
 10
232.146
 20
39.5014
 30
0.000000
  70
    32
  0
VERTEX
  8
0
  5
1B9B
 10
232.217
 20
39.4239
 30
0.000000
  70
    32
  0
VERTEX
  8
0
  5
1B9C
 10
232.290
 20
39.3475
 30
0.000000
  70
    32
  0
VERTEX
  8
0
  5
1B9D
 10
232.367
 20
39.2720
 30
0.000000
  70
    32
  0
VERTEX
  8
0
  5
1B9E
 10
232.447
 20
39.1976
 30
0.000000
  70
    32
  0
VERTEX
  8
0
  5
1B9F
 10
232.530
 20
39.1243
 30
0.000000
  70
    32
  0
VERTEX
  8
0
  5
1BA0
 10
232.616
 20
39.0521
 30
0.000000
  70
    32
  0
VERTEX
  8
0
  5
1BA1
 10
232.705
 20
38.9811
 30
0.000000
  70
    32
  0
VERTEX
  8
0
  5
1BA2
 10
232.797
 20
38.9113
 30
0.000000
  70
    32
  0
VERTEX
  8
0
  5
1BA3
 10
232.891
 20
38.8428
 30
0.000000
  70
    32
  0
VERTEX
  8
0
  5
1BA4
 10
232.989
 20
38.7756
 30
0.000000
  70
    32
  0
VERTEX
  8
0
  5
1BA5
 10
233.088
 20
38.7097
 30
0.000000
  70
    32
  0
VERTEX
  8
0
  5
1BA6
 10
233.191
 20
38.6451
 30
0.000000
  70
    32
  0
VERTEX
  8
0
  5
1BA7
 10
233.296
 20
38.5820
 30
0.000000
  70
    32
  0
VERTEX
  8
0
  5
1BA8
 10
233.404
 20
38.5203
 30
0.000000
  70
    32
  0
VERTEX
  8
0
  5
1BA9
 10
233.514
 20
38.4600
 30
0.000000
  70
    32
  0
VERTEX
  8
0
  5
1BAA
 10
233.626
 20
38.4013
 30
0.000000
  70
    32
  0
VERTEX
  8
0
  5
1BAB
 10
233.741
 20
38.3441
 30
0.000000
  70
    32
  0
VERTEX
  8
0
  5
1BAC
 10
233.858
 20
38.2884
 30
0.000000
  70
    32
  0
VERTEX
  8
0
  5
1BAD
 10
233.978
 20
38.2344
 30
0.000000
  70
    32
  0
VERTEX
  8
0
  5
1BAE
 10
234.099
 20
38.1820
 30
0.000000
  70
    32
  0
VERTEX
  8
0
  5
1BAF
 10
234.223
 20
38.1312
 30
0.000000
  70
    32
  0
VERTEX
  8
0
  5
1BB0
 10
234.348
 20
38.0821
 30
0.000000
  70
    32
  0
VERTEX
  8
0
  5
1BB1
 10
234.476
 20
38.0347
 30
0.000000
  70
    32
  0
VERTEX
  8
0
  5
1BB2
 10
234.605
 20
37.9890
 30
0.000000
  70
    32
  0
VERTEX
  8
0
  5
1BB3
 10
234.737
 20
37.9451
 30
0.000000
  70
    32
  0
VERTEX
  8
0
  5
1BB4
 10
234.870
 20
37.9030
 30
0.000000
  70
    32
  0
VERTEX
  8
0
  5
1BB5
 10
235.004
 20
37.8627
 30
0.000000
  70
    32
  0
VERTEX
  8
0
  5
1BB6
 10
235.141
 20
37.8242
 30
0.000000
  70
    32
  0
VERTEX
  8
0
  5
1BB7
 10
235.278
 20
37.7875
 30
0.000000
  70
    32
  0
VERTEX
  8
0
  5
1BB8
 10
235.418
 20
37.7527
 30
0.000000
  70
    32
  0
VERTEX
  8
0
  5
1BB9
 10
235.558
 20
37.7198
 30
0.000000
  70
    32
  0
VERTEX
  8
0
  5
1BBA
 10
235.700
 20
37.6888
 30
0.000000
  70
    32
  0
VERTEX
  8
0
  5
1BBB
 10
235.843
 20
37.6598
 30
0.000000
  70
    32
  0
VERTEX
  8
0
  5
1BBC
 10
235.987
 20
37.6326
 30
0.000000
  70
    32
  0
VERTEX
  8
0
  5
1BBD
 10
236.133
 20
37.6074
 30
0.000000
  70
    32
  0
VERTEX
  8
0
  5
1BBE
 10
236.279
 20
37.5842
 30
0.000000
  70
    32
  0
VERTEX
  8
0
  5
1BBF
 10
236.426
 20
37.5630
 30
0.000000
  70
    32
  0
VERTEX
  8
0
  5
1BC0
 10
236.574
 20
37.5437
 30
0.000000
  70
    32
  0
VERTEX
  8
0
  5
1BC1
 10
236.723
 20
37.5265
 30
0.000000
  70
    32
  0
VERTEX
  8
0
  5
1BC2
 10
236.872
 20
37.5112
 30
0.000000
  70
    32
  0
VERTEX
  8
0
  5
1BC3
 10
237.022
 20
37.4980
 30
0.000000
  70
    32
  0
VERTEX
  8
0
  5
1BC4
 10
237.173
 20
37.4868
 30
0.000000
  70
    32
  0
VERTEX
  8
0
  5
1BC5
 10
237.323
 20
37.4776
 30
0.000000
  70
    32
  0
VERTEX
  8
0
  5
1BC6
 10
237.475
 20
37.4704
 30
0.000000
  70
    32
  0
VERTEX
  8
0
  5
1BC7
 10
237.626
 20
37.4653
 30
0.000000
  70
    32
  0
VERTEX
  8
0
  5
1BC8
 10
237.778
 20
37.4623
 30
0.000000
  70
    32
  0
VERTEX
  8
0
  5
1BC9
 10
237.929
 20
37.4612
 30
0.000000
  70
    32
  0
VERTEX
  8
0
  5
1BCA
 10
238.081
 20
37.4623
 30
0.000000
  70
    32
  0
VERTEX
  8
0
  5
1BCB
 10
238.233
 20
37.4653
 30
0.000000
  70
    32
  0
VERTEX
  8
0
  5
1BCC
 10
238.384
 20
37.4704
 30
0.000000
  70
    32
  0
VERTEX
  8
0
  5
1BCD
 10
238.535
 20
37.4776
 30
0.000000
  70
    32
  0
VERTEX
  8
0
  5
1BCE
 10
238.686
 20
37.4868
 30
0.000000
  70
    32
  0
VERTEX
  8
0
  5
1BCF
 10
238.837
 20
37.4980
 30
0.000000
  70
    32
  0
VERTEX
  8
0
  5
1BD0
 10
238.987
 20
37.5112
 30
0.000000
  70
    32
  0
VERTEX
  8
0
  5
1BD1
 10
239.136
 20
37.5265
 30
0.000000
  70
    32
  0
VERTEX
  8
0
  5
1BD2
 10
239.285
 20
37.5437
 30
0.000000
  70
    32
  0
VERTEX
  8
0
  5
1BD3
 10
239.433
 20
37.5630
 30
0.000000
  70
    32
  0
VERTEX
  8
0
  5
1BD4
 10
239.580
 20
37.5842
 30
0.000000
  70
    32
  0
VERTEX
  8
0
  5
1BD5
 10
239.726
 20
37.6074
 30
0.000000
  70
    32
  0
VERTEX
  8
0
  5
1BD6
 10
239.871
 20
37.6326
 30
0.000000
  70
    32
  0
VERTEX
  8
0
  5
1BD7
 10
240.016
 20
37.6598
 30
0.000000
  70
    32
  0
VERTEX
  8
0
  5
1BD8
 10
240.159
 20
37.6888
 30
0.000000
  70
    32
  0
VERTEX
  8
0
  5
1BD9
 10
240.301
 20
37.7198
 30
0.000000
  70
    32
  0
VERTEX
  8
0
  5
1BDA
 10
240.441
 20
37.7527
 30
0.000000
  70
    32
  0
VERTEX
  8
0
  5
1BDB
 10
240.580
 20
37.7875
 30
0.000000
  70
    32
  0
VERTEX
  8
0
  5
1BDC
 10
240.718
 20
37.8242
 30
0.000000
  70
    32
  0
VERTEX
  8
0
  5
1BDD
 10
240.854
 20
37.8627
 30
0.000000
  70
    32
  0
VERTEX
  8
0
  5
1BDE
 10
240.989
 20
37.9030
 30
0.000000
  70
    32
  0
VERTEX
  8
0
  5
1BDF
 10
241.122
 20
37.9451
 30
0.000000
  70
    32
  0
VERTEX
  8
0
  5
1BE0
 10
241.253
 20
37.9890
 30
0.000000
  70
    32
  0
VERTEX
  8
0
  5
1BE1
 10
241.383
 20
38.0347
 30
0.000000
  70
    32
  0
VERTEX
  8
0
  5
1BE2
 10
241.510
 20
38.0821
 30
0.000000
  70
    32
  0
VERTEX
  8
0
  5
1BE3
 10
241.636
 20
38.1312
 30
0.000000
  70
    32
  0
VERTEX
  8
0
  5
1BE4
 10
241.760
 20
38.1820
 30
0.000000
  70
    32
  0
VERTEX
  8
0
  5
1BE5
 10
241.881
 20
38.2344
 30
0.000000
  70
    32
  0
VERTEX
  8
0
  5
1BE6
 10
242.000
 20
38.2884
 30
0.000000
  70
    32
  0
VERTEX
  8
0
  5
1BE7
 10
242.118
 20
38.3441
 30
0.000000
  70
    32
  0
VERTEX
  8
0
  5
1BE8
 10
242.232
 20
38.4013
 30
0.000000
  70
    32
  0
VERTEX
  8
0
  5
1BE9
 10
242.345
 20
38.4600
 30
0.000000
  70
    32
  0
VERTEX
  8
0
  5
1BEA
 10
242.455
 20
38.5203
 30
0.000000
  70
    32
  0
VERTEX
  8
0
  5
1BEB
 10
242.563
 20
38.5820
 30
0.000000
  70
    32
  0
VERTEX
  8
0
  5
1BEC
 10
242.668
 20
38.6451
 30
0.000000
  70
    32
  0
VERTEX
  8
0
  5
1BED
 10
242.770
 20
38.7097
 30
0.000000
  70
    32
  0
VERTEX
  8
0
  5
1BEE
 10
242.870
 20
38.7756
 30
0.000000
  70
    32
  0
VERTEX
  8
0
  5
1BEF
 10
242.967
 20
38.8428
 30
0.000000
  70
    32
  0
VERTEX
  8
0
  5
1BF0
 10
243.062
 20
38.9113
 30
0.000000
  70
    32
  0
VERTEX
  8
0
  5
1BF1
 10
243.154
 20
38.9811
 30
0.000000
  70
    32
  0
VERTEX
  8
0
  5
1BF2
 10
243.242
 20
39.0521
 30
0.000000
  70
    32
  0
VERTEX
  8
0
  5
1BF3
 10
243.328
 20
39.1243
 30
0.000000
  70
    32
  0
VERTEX
  8
0
  5
1BF4
 10
243.411
 20
39.1976
 30
0.000000
  70
    32
  0
VERTEX
  8
0
  5
1BF5
 10
243.491
 20
39.2720
 30
0.000000
  70
    32
  0
VERTEX
  8
0
  5
1BF6
 10
243.568
 20
39.3475
 30
0.000000
  70
    32
  0
VERTEX
  8
0
  5
1BF7
 10
243.642
 20
39.4239
 30
0.000000
  70
    32
  0
VERTEX
  8
0
  5
1BF8
 10
243.713
 20
39.5014
 30
0.000000
  70
    32
  0
VERTEX
  8
0
  5
1BF9
 10
243.781
 20
39.5798
 30
0.000000
  70
    32
  0
VERTEX
  8
0
  5
1BFA
 10
243.845
 20
39.6591
 30
0.000000
  70
    32
  0
VERTEX
  8
0
  5
1BFB
 10
243.906
 20
39.7392
 30
0.000000
  70
    32
  0
VERTEX
  8
0
  5
1BFC
 10
243.964
 20
39.8201
 30
0.000000
  70
    32
  0
VERTEX
  8
0
  5
1BFD
 10
244.019
 20
39.9018
 30
0.000000
  70
    32
  0
VERTEX
  8
0
  5
1BFE
 10
244.070
 20
39.9842
 30
0.000000
  70
    32
  0
VERTEX
  8
0
  5
1BFF
 10
244.119
 20
40.0673
 30
0.000000
  70
    32
  0
VERTEX
  8
0
  5
1C00
 10
244.163
 20
40.1510
 30
0.000000
  70
    32
  0
VERTEX
  8
0
  5
1C01
 10
244.204
 20
40.2353
 30
0.000000
  70
    32
  0
VERTEX
  8
0
  5
1C02
 10
244.242
 20
40.3201
 30
0.000000
  70
    32
  0
VERTEX
  8
0
  5
1C03
 10
244.277
 20
40.4054
 30
0.000000
  70
    32
  0
VERTEX
  8
0
  5
1C04
 10
244.308
 20
40.4911
 30
0.000000
  70
    32
  0
VERTEX
  8
0
  5
1C05
 10
244.335
 20
40.5773
 30
0.000000
  70
    32
  0
VERTEX
  8
0
  5
1C06
 10
244.359
 20
40.6637
 30
0.000000
  70
    32
  0
VERTEX
  8
0
  5
1C07
 10
244.380
 20
40.7505
 30
0.000000
  70
    32
  0
VERTEX
  8
0
  5
1C08
 10
244.397
 20
40.8375
 30
0.000000
  70
    32
  0
VERTEX
  8
0
  5
1C09
 10
244.410
 20
40.9248
 30
0.000000
  70
    32
  0
SEQEND
  8
0
  5
1C0A
  0
POLYLINE
  5
11B
  8
0
 10
230.31671117778174
 20
42.63376902976249
 30
0.0
 66
     1
 70
     8
  0
VERTEX
  8
0
  5
1C0B
 10
230.317
 20
42.6338
 30
0.000000
  70
    32
  0
VERTEX
  8
0
  5
1C0C
 10
230.248
 20
42.5038
 30
0.000000
  70
    32
  0
VERTEX
  8
0
  5
1C0D
 10
230.185
 20
42.3728
 30
0.000000
  70
    32
  0
VERTEX
  8
0
  5
1C0E
 10
230.130
 20
42.2408
 30
0.000000
  70
    32
  0
VERTEX
  8
0
  5
1C0F
 10
230.081
 20
42.1078
 30
0.000000
  70
    32
  0
VERTEX
  8
0
  5
1C10
 10
230.038
 20
41.9741
 30
0.000000
  70
    32
  0
VERTEX
  8
0
  5
1C11
 10
230.003
 20
41.8397
 30
0.000000
  70
    32
  0
VERTEX
  8
0
  5
1C12
 10
229.975
 20
41.7048
 30
0.000000
  70
    32
  0
VERTEX
  8
0
  5
1C13
 10
229.953
 20
41.5695
 30
0.000000
  70
    32
  0
VERTEX
  8
0
  5
1C14
 10
229.938
 20
41.4339
 30
0.000000
  70
    32
  0
VERTEX
  8
0
  5
1C15
 10
229.931
 20
41.2980
 30
0.000000
  70
    32
  0
VERTEX
  8
0
  5
1C16
 10
229.930
 20
41.1621
 30
0.000000
  70
    32
  0
VERTEX
  8
0
  5
1C17
 10
229.936
 20
41.0263
 30
0.000000
  70
    32
  0
VERTEX
  8
0
  5
1C18
 10
229.949
 20
40.8906
 30
0.000000
  70
    32
  0
VERTEX
  8
0
  5
1C19
 10
229.969
 20
40.7551
 30
0.000000
  70
    32
  0
VERTEX
  8
0
  5
1C1A
 10
229.996
 20
40.6201
 30
0.000000
  70
    32
  0
VERTEX
  8
0
  5
1C1B
 10
230.029
 20
40.4856
 30
0.000000
  70
    32
  0
VERTEX
  8
0
  5
1C1C
 10
230.070
 20
40.3517
 30
0.000000
  70
    32
  0
VERTEX
  8
0
  5
1C1D
 10
230.117
 20
40.2186
 30
0.000000
  70
    32
  0
VERTEX
  8
0
  5
1C1E
 10
230.171
 20
40.0863
 30
0.000000
  70
    32
  0
VERTEX
  8
0
  5
1C1F
 10
230.232
 20
39.9550
 30
0.000000
  70
    32
  0
VERTEX
  8
0
  5
1C20
 10
230.300
 20
39.8248
 30
0.000000
  70
    32
  0
VERTEX
  8
0
  5
1C21
 10
230.374
 20
39.6958
 30
0.000000
  70
    32
  0
VERTEX
  8
0
  5
1C22
 10
230.455
 20
39.5682
 30
0.000000
  70
    32
  0
VERTEX
  8
0
  5
1C23
 10
230.542
 20
39.4419
 30
0.000000
  70
    32
  0
VERTEX
  8
0
  5
1C24
 10
230.635
 20
39.3172
 30
0.000000
  70
    32
  0
VERTEX
  8
0
  5
1C25
 10
230.735
 20
39.1941
 30
0.000000
  70
    32
  0
VERTEX
  8
0
  5
1C26
 10
230.841
 20
39.0728
 30
0.000000
  70
    32
  0
VERTEX
  8
0
  5
1C27
 10
230.953
 20
38.9533
 30
0.000000
  70
    32
  0
VERTEX
  8
0
  5
1C28
 10
231.071
 20
38.8358
 30
0.000000
  70
    32
  0
VERTEX
  8
0
  5
1C29
 10
231.196
 20
38.7203
 30
0.000000
  70
    32
  0
VERTEX
  8
0
  5
1C2A
 10
231.326
 20
38.6070
 30
0.000000
  70
    32
  0
VERTEX
  8
0
  5
1C2B
 10
231.461
 20
38.4959
 30
0.000000
  70
    32
  0
VERTEX
  8
0
  5
1C2C
 10
231.603
 20
38.3873
 30
0.000000
  70
    32
  0
VERTEX
  8
0
  5
1C2D
 10
231.749
 20
38.2810
 30
0.000000
  70
    32
  0
VERTEX
  8
0
  5
1C2E
 10
231.902
 20
38.1773
 30
0.000000
  70
    32
  0
VERTEX
  8
0
  5
1C2F
 10
232.059
 20
38.0762
 30
0.000000
  70
    32
  0
VERTEX
  8
0
  5
1C30
 10
232.221
 20
37.9779
 30
0.000000
  70
    32
  0
VERTEX
  8
0
  5
1C31
 10
232.389
 20
37.8823
 30
0.000000
  70
    32
  0
VERTEX
  8
0
  5
1C32
 10
232.561
 20
37.7896
 30
0.000000
  70
    32
  0
VERTEX
  8
0
  5
1C33
 10
232.738
 20
37.6999
 30
0.000000
  70
    32
  0
VERTEX
  8
0
  5
1C34
 10
232.919
 20
37.6133
 30
0.000000
  70
    32
  0
VERTEX
  8
0
  5
1C35
 10
233.105
 20
37.5297
 30
0.000000
  70
    32
  0
VERTEX
  8
0
  5
1C36
 10
233.295
 20
37.4493
 30
0.000000
  70
    32
  0
VERTEX
  8
0
  5
1C37
 10
233.488
 20
37.3722
 30
0.000000
  70
    32
  0
VERTEX
  8
0
  5
1C38
 10
233.686
 20
37.2985
 30
0.000000
  70
    32
  0
VERTEX
  8
0
  5
1C39
 10
233.887
 20
37.2281
 30
0.000000
  70
    32
  0
VERTEX
  8
0
  5
1C3A
 10
234.092
 20
37.1612
 30
0.000000
  70
    32
  0
VERTEX
  8
0
  5
1C3B
 10
234.301
 20
37.0977
 30
0.000000
  70
    32
  0
VERTEX
  8
0
  5
1C3C
 10
234.512
 20
37.0379
 30
0.000000
  70
    32
  0
VERTEX
  8
0
  5
1C3D
 10
234.726
 20
36.9816
 30
0.000000
  70
    32
  0
VERTEX
  8
0
  5
1C3E
 10
234.943
 20
36.9290
 30
0.000000
  70
    32
  0
VERTEX
  8
0
  5
1C3F
 10
235.163
 20
36.8802
 30
0.000000
  70
    32
  0
VERTEX
  8
0
  5
1C40
 10
235.385
 20
36.8351
 30
0.000000
  70
    32
  0
VERTEX
  8
0
  5
1C41
 10
235.609
 20
36.7937
 30
0.000000
  70
    32
  0
VERTEX
  8
0
  5
1C42
 10
235.835
 20
36.7562
 30
0.000000
  70
    32
  0
VERTEX
  8
0
  5
1C43
 10
236.063
 20
36.7226
 30
0.000000
  70
    32
  0
VERTEX
  8
0
  5
1C44
 10
236.293
 20
36.6928
 30
0.000000
  70
    32
  0
VERTEX
  8
0
  5
1C45
 10
236.524
 20
36.6670
 30
0.000000
  70
    32
  0
VERTEX
  8
0
  5
1C46
 10
236.757
 20
36.6451
 30
0.000000
  70
    32
  0
VERTEX
  8
0
  5
1C47
 10
236.990
 20
36.6272
 30
0.000000
  70
    32
  0
VERTEX
  8
0
  5
1C48
 10
237.224
 20
36.6132
 30
0.000000
  70
    32
  0
VERTEX
  8
0
  5
1C49
 10
237.459
 20
36.6032
 30
0.000000
  70
    32
  0
VERTEX
  8
0
  5
1C4A
 10
237.694
 20
36.5972
 30
0.000000
  70
    32
  0
VERTEX
  8
0
  5
1C4B
 10
237.929
 20
36.5952
 30
0.000000
  70
    32
  0
VERTEX
  8
0
  5
1C4C
 10
238.165
 20
36.5972
 30
0.000000
  70
    32
  0
VERTEX
  8
0
  5
1C4D
 10
238.400
 20
36.6032
 30
0.000000
  70
    32
  0
VERTEX
  8
0
  5
1C4E
 10
238.635
 20
36.6132
 30
0.000000
  70
    32
  0
VERTEX
  8
0
  5
1C4F
 10
238.869
 20
36.6272
 30
0.000000
  70
    32
  0
VERTEX
  8
0
  5
1C50
 10
239.102
 20
36.6451
 30
0.000000
  70
    32
  0
VERTEX
  8
0
  5
1C51
 10
239.334
 20
36.6670
 30
0.000000
  70
    32
  0
VERTEX
  8
0
  5
1C52
 10
239.566
 20
36.6928
 30
0.000000
  70
    32
  0
VERTEX
  8
0
  5
1C53
 10
239.795
 20
36.7226
 30
0.000000
  70
    32
  0
VERTEX
  8
0
  5
1C54
 10
240.023
 20
36.7562
 30
0.000000
  70
    32
  0
VERTEX
  8
0
  5
1C55
 10
240.250
 20
36.7937
 30
0.000000
  70
    32
  0
VERTEX
  8
0
  5
1C56
 10
240.474
 20
36.8351
 30
0.000000
  70
    32
  0
VERTEX
  8
0
  5
1C57
 10
240.696
 20
36.8802
 30
0.000000
  70
    32
  0
VERTEX
  8
0
  5
1C58
 10
240.916
 20
36.9290
 30
0.000000
  70
    32
  0
VERTEX
  8
0
  5
1C59
 10
241.133
 20
36.9816
 30
0.000000
  70
    32
  0
VERTEX
  8
0
  5
1C5A
 10
241.347
 20
37.0379
 30
0.000000
  70
    32
  0
VERTEX
  8
0
  5
1C5B
 10
241.558
 20
37.0977
 30
0.000000
  70
    32
  0
VERTEX
  8
0
  5
1C5C
 10
241.766
 20
37.1612
 30
0.000000
  70
    32
  0
VERTEX
  8
0
  5
1C5D
 10
241.971
 20
37.2281
 30
0.000000
  70
    32
  0
VERTEX
  8
0
  5
1C5E
 10
242.173
 20
37.2985
 30
0.000000
  70
    32
  0
VERTEX
  8
0
  5
1C5F
 10
242.370
 20
37.3722
 30
0.000000
  70
    32
  0
VERTEX
  8
0
  5
1C60
 10
242.564
 20
37.4493
 30
0.000000
  70
    32
  0
VERTEX
  8
0
  5
1C61
 10
242.754
 20
37.5297
 30
0.000000
  70
    32
  0
VERTEX
  8
0
  5
1C62
 10
242.940
 20
37.6133
 30
0.000000
  70
    32
  0
VERTEX
  8
0
  5
1C63
 10
243.121
 20
37.6999
 30
0.000000
  70
    32
  0
VERTEX
  8
0
  5
1C64
 10
243.298
 20
37.7896
 30
0.000000
  70
    32
  0
VERTEX
  8
0
  5
1C65
 10
243.470
 20
37.8823
 30
0.000000
  70
    32
  0
VERTEX
  8
0
  5
1C66
 10
243.637
 20
37.9779
 30
0.000000
  70
    32
  0
VERTEX
  8
0
  5
1C67
 10
243.800
 20
38.0762
 30
0.000000
  70
    32
  0
VERTEX
  8
0
  5
1C68
 10
243.957
 20
38.1773
 30
0.000000
  70
    32
  0
VERTEX
  8
0
  5
1C69
 10
244.109
 20
38.2810
 30
0.000000
  70
    32
  0
VERTEX
  8
0
  5
1C6A
 10
244.256
 20
38.3873
 30
0.000000
  70
    32
  0
VERTEX
  8
0
  5
1C6B
 10
244.397
 20
38.4959
 30
0.000000
  70
    32
  0
VERTEX
  8
0
  5
1C6C
 10
244.533
 20
38.6070
 30
0.000000
  70
    32
  0
VERTEX
  8
0
  5
1C6D
 10
244.663
 20
38.7203
 30
0.000000
  70
    32
  0
VERTEX
  8
0
  5
1C6E
 10
244.787
 20
38.8358
 30
0.000000
  70
    32
  0
VERTEX
  8
0
  5
1C6F
 10
244.906
 20
38.9533
 30
0.000000
  70
    32
  0
VERTEX
  8
0
  5
1C70
 10
245.018
 20
39.0728
 30
0.000000
  70
    32
  0
VERTEX
  8
0
  5
1C71
 10
245.124
 20
39.1941
 30
0.000000
  70
    32
  0
VERTEX
  8
0
  5
1C72
 10
245.224
 20
39.3172
 30
0.000000
  70
    32
  0
VERTEX
  8
0
  5
1C73
 10
245.317
 20
39.4419
 30
0.000000
  70
    32
  0
VERTEX
  8
0
  5
1C74
 10
245.404
 20
39.5682
 30
0.000000
  70
    32
  0
VERTEX
  8
0
  5
1C75
 10
245.485
 20
39.6958
 30
0.000000
  70
    32
  0
VERTEX
  8
0
  5
1C76
 10
245.559
 20
39.8248
 30
0.000000
  70
    32
  0
VERTEX
  8
0
  5
1C77
 10
245.626
 20
39.9550
 30
0.000000
  70
    32
  0
VERTEX
  8
0
  5
1C78
 10
245.687
 20
40.0863
 30
0.000000
  70
    32
  0
VERTEX
  8
0
  5
1C79
 10
245.741
 20
40.2186
 30
0.000000
  70
    32
  0
VERTEX
  8
0
  5
1C7A
 10
245.789
 20
40.3517
 30
0.000000
  70
    32
  0
VERTEX
  8
0
  5
1C7B
 10
245.829
 20
40.4856
 30
0.000000
  70
    32
  0
VERTEX
  8
0
  5
1C7C
 10
245.863
 20
40.6201
 30
0.000000
  70
    32
  0
VERTEX
  8
0
  5
1C7D
 10
245.890
 20
40.7551
 30
0.000000
  70
    32
  0
VERTEX
  8
0
  5
1C7E
 10
245.910
 20
40.8906
 30
0.000000
  70
    32
  0
VERTEX
  8
0
  5
1C7F
 10
245.923
 20
41.0263
 30
0.000000
  70
    32
  0
VERTEX
  8
0
  5
1C80
 10
245.929
 20
41.1621
 30
0.000000
  70
    32
  0
VERTEX
  8
0
  5
1C81
 10
245.928
 20
41.2980
 30
0.000000
  70
    32
  0
VERTEX
  8
0
  5
1C82
 10
245.920
 20
41.4339
 30
0.000000
  70
    32
  0
VERTEX
  8
0
  5
1C83
 10
245.906
 20
41.5695
 30
0.000000
  70
    32
  0
VERTEX
  8
0
  5
1C84
 10
245.884
 20
41.7048
 30
0.000000
  70
    32
  0
VERTEX
  8
0
  5
1C85
 10
245.856
 20
41.8397
 30
0.000000
  70
    32
  0
VERTEX
  8
0
  5
1C86
 10
245.820
 20
41.9741
 30
0.000000
  70
    32
  0
VERTEX
  8
0
  5
1C87
 10
245.778
 20
42.1078
 30
0.000000
  70
    32
  0
VERTEX
  8
0
  5
1C88
 10
245.729
 20
42.2408
 30
0.000000
  70
    32
  0
VERTEX
  8
0
  5
1C89
 10
245.674
 20
42.3728
 30
0.000000
  70
    32
  0
VERTEX
  8
0
  5
1C8A
 10
245.611
 20
42.5038
 30
0.000000
  70
    32
  0
VERTEX
  8
0
  5
1C8B
 10
245.542
 20
42.6338
 30
0.000000
  70
    32
  0
SEQEND
  8
0
  5
1C8C
  0
POLYLINE
  8
0
  5
1C8D
  66
     1
 10
0.000000
 20
0.000000
 30
0.000000
  70
     8
  0
VERTEX
  8
0
  5
1C8E
 10
244.372
 20
59.2667
 30
0.000000
  70
    32
  0
VERTEX
  8
0
  5
1C8F
 10
244.383
 20
59.2208
 30
0.000000
  70
    32
  0
VERTEX
  8
0
  5
1C90
 10
244.393
 20
59.1750
 30
0.000000
  70
    32
  0
VERTEX
  8
0
  5
1C91
 10
244.404
 20
59.1290
 30
0.000000
  70
    32
  0
VERTEX
  8
0
  5
1C92
 10
244.414
 20
59.0831
 30
0.000000
  70
    32
  0
VERTEX
  8
0
  5
1C93
 10
244.424
 20
59.0371
 30
0.000000
  70
    32
  0
VERTEX
  8
0
  5
1C94
 10
244.435
 20
58.9910
 30
0.000000
  70
    32
  0
VERTEX
  8
0
  5
1C95
 10
244.445
 20
58.9450
 30
0.000000
  70
    32
  0
VERTEX
  8
0
  5
1C96
 10
244.455
 20
58.8989
 30
0.000000
  70
    32
  0
VERTEX
  8
0
  5
1C97
 10
244.466
 20
58.8527
 30
0.000000
  70
    32
  0
VERTEX
  8
0
  5
1C98
 10
244.476
 20
58.8065
 30
0.000000
  70
    32
  0
VERTEX
  8
0
  5
1C99
 10
244.486
 20
58.7603
 30
0.000000
  70
    32
  0
VERTEX
  8
0
  5
1C9A
 10
244.496
 20
58.7140
 30
0.000000
  70
    32
  0
VERTEX
  8
0
  5
1C9B
 10
244.506
 20
58.6677
 30
0.000000
  70
    32
  0
VERTEX
  8
0
  5
1C9C
 10
244.516
 20
58.6214
 30
0.000000
  70
    32
  0
VERTEX
  8
0
  5
1C9D
 10
244.526
 20
58.5750
 30
0.000000
  70
    32
  0
VERTEX
  8
0
  5
1C9E
 10
244.536
 20
58.5286
 30
0.000000
  70
    32
  0
VERTEX
  8
0
  5
1C9F
 10
244.546
 20
58.4821
 30
0.000000
  70
    32
  0
VERTEX
  8
0
  5
1CA0
 10
244.555
 20
58.4356
 30
0.000000
  70
    32
  0
VERTEX
  8
0
  5
1CA1
 10
244.565
 20
58.3891
 30
0.000000
  70
    32
  0
VERTEX
  8
0
  5
1CA2
 10
244.575
 20
58.3426
 30
0.000000
  70
    32
  0
VERTEX
  8
0
  5
1CA3
 10
244.584
 20
58.2960
 30
0.000000
  70
    32
  0
VERTEX
  8
0
  5
1CA4
 10
244.594
 20
58.2493
 30
0.000000
  70
    32
  0
VERTEX
  8
0
  5
1CA5
 10
244.604
 20
58.2027
 30
0.000000
  70
    32
  0
VERTEX
  8
0
  5
1CA6
 10
244.613
 20
58.1560
 30
0.000000
  70
    32
  0
VERTEX
  8
0
  5
1CA7
 10
244.623
 20
58.1092
 30
0.000000
  70
    32
  0
VERTEX
  8
0
  5
1CA8
 10
244.632
 20
58.0625
 30
0.000000
  70
    32
  0
VERTEX
  8
0
  5
1CA9
 10
244.641
 20
58.0157
 30
0.000000
  70
    32
  0
VERTEX
  8
0
  5
1CAA
 10
244.651
 20
57.9688
 30
0.000000
  70
    32
  0
VERTEX
  8
0
  5
1CAB
 10
244.660
 20
57.9219
 30
0.000000
  70
    32
  0
VERTEX
  8
0
  5
1CAC
 10
244.669
 20
57.8750
 30
0.000000
  70
    32
  0
VERTEX
  8
0
  5
1CAD
 10
244.678
 20
57.8281
 30
0.000000
  70
    32
  0
VERTEX
  8
0
  5
1CAE
 10
244.687
 20
57.7811
 30
0.000000
  70
    32
  0
VERTEX
  8
0
  5
1CAF
 10
244.696
 20
57.7341
 30
0.000000
  70
    32
  0
VERTEX
  8
0
  5
1CB0
 10
244.705
 20
57.6871
 30
0.000000
  70
    32
  0
VERTEX
  8
0
  5
1CB1
 10
244.714
 20
57.6400
 30
0.000000
  70
    32
  0
VERTEX
  8
0
  5
1CB2
 10
244.723
 20
57.5929
 30
0.000000
  70
    32
  0
VERTEX
  8
0
  5
1CB3
 10
244.732
 20
57.5457
 30
0.000000
  70
    32
  0
VERTEX
  8
0
  5
1CB4
 10
244.741
 20
57.4986
 30
0.000000
  70
    32
  0
VERTEX
  8
0
  5
1CB5
 10
244.749
 20
57.4513
 30
0.000000
  70
    32
  0
VERTEX
  8
0
  5
1CB6
 10
244.758
 20
57.4041
 30
0.000000
  70
    32
  0
VERTEX
  8
0
  5
1CB7
 10
244.767
 20
57.3568
 30
0.000000
  70
    32
  0
VERTEX
  8
0
  5
1CB8
 10
244.775
 20
57.3095
 30
0.000000
  70
    32
  0
VERTEX
  8
0
  5
1CB9
 10
244.784
 20
57.2622
 30
0.000000
  70
    32
  0
VERTEX
  8
0
  5
1CBA
 10
244.792
 20
57.2148
 30
0.000000
  70
    32
  0
VERTEX
  8
0
  5
1CBB
 10
244.801
 20
57.1674
 30
0.000000
  70
    32
  0
VERTEX
  8
0
  5
1CBC
 10
244.809
 20
57.1200
 30
0.000000
  70
    32
  0
VERTEX
  8
0
  5
1CBD
 10
244.817
 20
57.0725
 30
0.000000
  70
    32
  0
VERTEX
  8
0
  5
1CBE
 10
244.826
 20
57.0250
 30
0.000000
  70
    32
  0
VERTEX
  8
0
  5
1CBF
 10
244.834
 20
56.9775
 30
0.000000
  70
    32
  0
VERTEX
  8
0
  5
1CC0
 10
244.842
 20
56.9300
 30
0.000000
  70
    32
  0
VERTEX
  8
0
  5
1CC1
 10
244.850
 20
56.8824
 30
0.000000
  70
    32
  0
VERTEX
  8
0
  5
1CC2
 10
244.858
 20
56.8348
 30
0.000000
  70
    32
  0
VERTEX
  8
0
  5
1CC3
 10
244.866
 20
56.7871
 30
0.000000
  70
    32
  0
VERTEX
  8
0
  5
1CC4
 10
244.874
 20
56.7394
 30
0.000000
  70
    32
  0
VERTEX
  8
0
  5
1CC5
 10
244.882
 20
56.6917
 30
0.000000
  70
    32
  0
VERTEX
  8
0
  5
1CC6
 10
244.890
 20
56.6440
 30
0.000000
  70
    32
  0
VERTEX
  8
0
  5
1CC7
 10
244.898
 20
56.5963
 30
0.000000
  70
    32
  0
VERTEX
  8
0
  5
1CC8
 10
244.905
 20
56.5485
 30
0.000000
  70
    32
  0
VERTEX
  8
0
  5
1CC9
 10
244.913
 20
56.5006
 30
0.000000
  70
    32
  0
VERTEX
  8
0
  5
1CCA
 10
244.921
 20
56.4528
 30
0.000000
  70
    32
  0
VERTEX
  8
0
  5
1CCB
 10
244.928
 20
56.4049
 30
0.000000
  70
    32
  0
VERTEX
  8
0
  5
1CCC
 10
244.936
 20
56.3570
 30
0.000000
  70
    32
  0
VERTEX
  8
0
  5
1CCD
 10
244.943
 20
56.3091
 30
0.000000
  70
    32
  0
VERTEX
  8
0
  5
1CCE
 10
244.951
 20
56.2611
 30
0.000000
  70
    32
  0
VERTEX
  8
0
  5
1CCF
 10
244.958
 20
56.2131
 30
0.000000
  70
    32
  0
VERTEX
  8
0
  5
1CD0
 10
244.965
 20
56.1651
 30
0.000000
  70
    32
  0
VERTEX
  8
0
  5
1CD1
 10
244.972
 20
56.1171
 30
0.000000
  70
    32
  0
VERTEX
  8
0
  5
1CD2
 10
244.980
 20
56.0690
 30
0.000000
  70
    32
  0
VERTEX
  8
0
  5
1CD3
 10
244.987
 20
56.0209
 30
0.000000
  70
    32
  0
VERTEX
  8
0
  5
1CD4
 10
244.994
 20
55.9728
 30
0.000000
  70
    32
  0
VERTEX
  8
0
  5
1CD5
 10
245.001
 20
55.9246
 30
0.000000
  70
    32
  0
VERTEX
  8
0
  5
1CD6
 10
245.008
 20
55.8764
 30
0.000000
  70
    32
  0
VERTEX
  8
0
  5
1CD7
 10
245.015
 20
55.8282
 30
0.000000
  70
    32
  0
VERTEX
  8
0
  5
1CD8
 10
245.022
 20
55.7800
 30
0.000000
  70
    32
  0
VERTEX
  8
0
  5
1CD9
 10
245.028
 20
55.7318
 30
0.000000
  70
    32
  0
VERTEX
  8
0
  5
1CDA
 10
245.035
 20
55.6835
 30
0.000000
  70
    32
  0
VERTEX
  8
0
  5
1CDB
 10
245.042
 20
55.6352
 30
0.000000
  70
    32
  0
VERTEX
  8
0
  5
1CDC
 10
245.049
 20
55.5868
 30
0.000000
  70
    32
  0
VERTEX
  8
0
  5
1CDD
 10
245.055
 20
55.5385
 30
0.000000
  70
    32
  0
VERTEX
  8
0
  5
1CDE
 10
245.062
 20
55.4901
 30
0.000000
  70
    32
  0
VERTEX
  8
0
  5
1CDF
 10
245.068
 20
55.4417
 30
0.000000
  70
    32
  0
VERTEX
  8
0
  5
1CE0
 10
245.075
 20
55.3933
 30
0.000000
  70
    32
  0
VERTEX
  8
0
  5
1CE1
 10
245.081
 20
55.3448
 30
0.000000
  70
    32
  0
VERTEX
  8
0
  5
1CE2
 10
245.087
 20
55.2963
 30
0.000000
  70
    32
  0
VERTEX
  8
0
  5
1CE3
 10
245.094
 20
55.2478
 30
0.000000
  70
    32
  0
VERTEX
  8
0
  5
1CE4
 10
245.100
 20
55.1993
 30
0.000000
  70
    32
  0
VERTEX
  8
0
  5
1CE5
 10
245.106
 20
55.1507
 30
0.000000
  70
    32
  0
VERTEX
  8
0
  5
1CE6
 10
245.112
 20
55.1022
 30
0.000000
  70
    32
  0
VERTEX
  8
0
  5
1CE7
 10
245.118
 20
55.0536
 30
0.000000
  70
    32
  0
VERTEX
  8
0
  5
1CE8
 10
245.124
 20
55.0050
 30
0.000000
  70
    32
  0
VERTEX
  8
0
  5
1CE9
 10
245.130
 20
54.9563
 30
0.000000
  70
    32
  0
VERTEX
  8
0
  5
1CEA
 10
245.136
 20
54.9077
 30
0.000000
  70
    32
  0
VERTEX
  8
0
  5
1CEB
 10
245.142
 20
54.8590
 30
0.000000
  70
    32
  0
VERTEX
  8
0
  5
1CEC
 10
245.147
 20
54.8103
 30
0.000000
  70
    32
  0
VERTEX
  8
0
  5
1CED
 10
245.153
 20
54.7615
 30
0.000000
  70
    32
  0
VERTEX
  8
0
  5
1CEE
 10
245.159
 20
54.7128
 30
0.000000
  70
    32
  0
VERTEX
  8
0
  5
1CEF
 10
245.164
 20
54.6640
 30
0.000000
  70
    32
  0
VERTEX
  8
0
  5
1CF0
 10
245.170
 20
54.6152
 30
0.000000
  70
    32
  0
VERTEX
  8
0
  5
1CF1
 10
245.175
 20
54.5664
 30
0.000000
  70
    32
  0
VERTEX
  8
0
  5
1CF2
 10
245.181
 20
54.5176
 30
0.000000
  70
    32
  0
VERTEX
  8
0
  5
1CF3
 10
245.186
 20
54.4687
 30
0.000000
  70
    32
  0
VERTEX
  8
0
  5
1CF4
 10
245.191
 20
54.4199
 30
0.000000
  70
    32
  0
VERTEX
  8
0
  5
1CF5
 10
245.197
 20
54.3710
 30
0.000000
  70
    32
  0
VERTEX
  8
0
  5
1CF6
 10
245.202
 20
54.3221
 30
0.000000
  70
    32
  0
VERTEX
  8
0
  5
1CF7
 10
245.207
 20
54.2731
 30
0.000000
  70
    32
  0
VERTEX
  8
0
  5
1CF8
 10
245.212
 20
54.2242
 30
0.000000
  70
    32
  0
VERTEX
  8
0
  5
1CF9
 10
245.217
 20
54.1752
 30
0.000000
  70
    32
  0
VERTEX
  8
0
  5
1CFA
 10
245.222
 20
54.1262
 30
0.000000
  70
    32
  0
VERTEX
  8
0
  5
1CFB
 10
245.227
 20
54.0772
 30
0.000000
  70
    32
  0
VERTEX
  8
0
  5
1CFC
 10
245.232
 20
54.0282
 30
0.000000
  70
    32
  0
VERTEX
  8
0
  5
1CFD
 10
245.236
 20
53.9791
 30
0.000000
  70
    32
  0
VERTEX
  8
0
  5
1CFE
 10
245.241
 20
53.9301
 30
0.000000
  70
    32
  0
VERTEX
  8
0
  5
1CFF
 10
245.246
 20
53.8810
 30
0.000000
  70
    32
  0
VERTEX
  8
0
  5
1D00
 10
245.250
 20
53.8319
 30
0.000000
  70
    32
  0
VERTEX
  8
0
  5
1D01
 10
245.255
 20
53.7828
 30
0.000000
  70
    32
  0
VERTEX
  8
0
  5
1D02
 10
245.260
 20
53.7337
 30
0.000000
  70
    32
  0
VERTEX
  8
0
  5
1D03
 10
245.264
 20
53.6845
 30
0.000000
  70
    32
  0
VERTEX
  8
0
  5
1D04
 10
245.268
 20
53.6353
 30
0.000000
  70
    32
  0
VERTEX
  8
0
  5
1D05
 10
245.273
 20
53.5862
 30
0.000000
  70
    32
  0
VERTEX
  8
0
  5
1D06
 10
245.277
 20
53.5370
 30
0.000000
  70
    32
  0
VERTEX
  8
0
  5
1D07
 10
245.281
 20
53.4878
 30
0.000000
  70
    32
  0
VERTEX
  8
0
  5
1D08
 10
245.285
 20
53.4385
 30
0.000000
  70
    32
  0
VERTEX
  8
0
  5
1D09
 10
245.289
 20
53.3893
 30
0.000000
  70
    32
  0
VERTEX
  8
0
  5
1D0A
 10
245.293
 20
53.3400
 30
0.000000
  70
    32
  0
VERTEX
  8
0
  5
1D0B
 10
245.297
 20
53.2907
 30
0.000000
  70
    32
  0
VERTEX
  8
0
  5
1D0C
 10
245.301
 20
53.2415
 30
0.000000
  70
    32
  0
VERTEX
  8
0
  5
1D0D
 10
245.305
 20
53.1922
 30
0.000000
  70
    32
  0
VERTEX
  8
0
  5
1D0E
 10
245.309
 20
53.1428
 30
0.000000
  70
    32
  0
VERTEX
  8
0
  5
1D0F
 10
245.313
 20
53.0935
 30
0.000000
  70
    32
  0
VERTEX
  8
0
  5
1D10
 10
245.316
 20
53.0442
 30
0.000000
  70
    32
  0
VERTEX
  8
0
  5
1D11
 10
245.320
 20
52.9948
 30
0.000000
  70
    32
  0
VERTEX
  8
0
  5
1D12
 10
245.324
 20
52.9454
 30
0.000000
  70
    32
  0
VERTEX
  8
0
  5
1D13
 10
245.327
 20
52.8960
 30
0.000000
  70
    32
  0
VERTEX
  8
0
  5
1D14
 10
245.331
 20
52.8466
 30
0.000000
  70
    32
  0
VERTEX
  8
0
  5
1D15
 10
245.334
 20
52.7972
 30
0.000000
  70
    32
  0
VERTEX
  8
0
  5
1D16
 10
245.337
 20
52.7478
 30
0.000000
  70
    32
  0
VERTEX
  8
0
  5
1D17
 10
245.341
 20
52.6984
 30
0.000000
  70
    32
  0
VERTEX
  8
0
  5
1D18
 10
245.344
 20
52.6489
 30
0.000000
  70
    32
  0
VERTEX
  8
0
  5
1D19
 10
245.347
 20
52.5994
 30
0.000000
  70
    32
  0
VERTEX
  8
0
  5
1D1A
 10
245.350
 20
52.5500
 30
0.000000
  70
    32
  0
VERTEX
  8
0
  5
1D1B
 10
245.353
 20
52.5005
 30
0.000000
  70
    32
  0
VERTEX
  8
0
  5
1D1C
 10
245.356
 20
52.4510
 30
0.000000
  70
    32
  0
VERTEX
  8
0
  5
1D1D
 10
245.359
 20
52.4015
 30
0.000000
  70
    32
  0
VERTEX
  8
0
  5
1D1E
 10
245.362
 20
52.3519
 30
0.000000
  70
    32
  0
VERTEX
  8
0
  5
1D1F
 10
245.365
 20
52.3024
 30
0.000000
  70
    32
  0
VERTEX
  8
0
  5
1D20
 10
245.367
 20
52.2529
 30
0.000000
  70
    32
  0
VERTEX
  8
0
  5
1D21
 10
245.370
 20
52.2033
 30
0.000000
  70
    32
  0
VERTEX
  8
0
  5
1D22
 10
245.373
 20
52.1538
 30
0.000000
  70
    32
  0
VERTEX
  8
0
  5
1D23
 10
245.375
 20
52.1042
 30
0.000000
  70
    32
  0
VERTEX
  8
0
  5
1D24
 10
245.378
 20
52.0546
 30
0.000000
  70
    32
  0
VERTEX
  8
0
  5
1D25
 10
245.380
 20
52.0050
 30
0.000000
  70
    32
  0
VERTEX
  8
0
  5
1D26
 10
245.383
 20
51.9554
 30
0.000000
  70
    32
  0
VERTEX
  8
0
  5
1D27
 10
245.385
 20
51.9058
 30
0.000000
  70
    32
  0
VERTEX
  8
0
  5
1D28
 10
245.387
 20
51.8562
 30
0.000000
  70
    32
  0
VERTEX
  8
0
  5
1D29
 10
245.390
 20
51.8066
 30
0.000000
  70
    32
  0
VERTEX
  8
0
  5
1D2A
 10
245.392
 20
51.7569
 30
0.000000
  70
    32
  0
VERTEX
  8
0
  5
1D2B
 10
245.394
 20
51.7073
 30
0.000000
  70
    32
  0
VERTEX
  8
0
  5
1D2C
 10
245.396
 20
51.6576
 30
0.000000
  70
    32
  0
VERTEX
  8
0
  5
1D2D
 10
245.398
 20
51.6080
 30
0.000000
  70
    32
  0
VERTEX
  8
0
  5
1D2E
 10
245.400
 20
51.5583
 30
0.000000
  70
    32
  0
VERTEX
  8
0
  5
1D2F
 10
245.402
 20
51.5086
 30
0.000000
  70
    32
  0
VERTEX
  8
0
  5
1D30
 10
245.403
 20
51.4590
 30
0.000000
  70
    32
  0
VERTEX
  8
0
  5
1D31
 10
245.405
 20
51.4093
 30
0.000000
  70
    32
  0
VERTEX
  8
0
  5
1D32
 10
245.407
 20
51.3596
 30
0.000000
  70
    32
  0
VERTEX
  8
0
  5
1D33
 10
245.408
 20
51.3099
 30
0.000000
  70
    32
  0
VERTEX
  8
0
  5
1D34
 10
245.410
 20
51.2602
 30
0.000000
  70
    32
  0
VERTEX
  8
0
  5
1D35
 10
245.411
 20
51.2105
 30
0.000000
  70
    32
  0
VERTEX
  8
0
  5
1D36
 10
245.413
 20
51.1607
 30
0.000000
  70
    32
  0
VERTEX
  8
0
  5
1D37
 10
245.414
 20
51.1110
 30
0.000000
  70
    32
  0
VERTEX
  8
0
  5
1D38
 10
245.416
 20
51.0613
 30
0.000000
  70
    32
  0
VERTEX
  8
0
  5
1D39
 10
245.417
 20
51.0116
 30
0.000000
  70
    32
  0
VERTEX
  8
0
  5
1D3A
 10
245.418
 20
50.9618
 30
0.000000
  70
    32
  0
VERTEX
  8
0
  5
1D3B
 10
245.419
 20
50.9121
 30
0.000000
  70
    32
  0
VERTEX
  8
0
  5
1D3C
 10
245.420
 20
50.8623
 30
0.000000
  70
    32
  0
VERTEX
  8
0
  5
1D3D
 10
245.421
 20
50.8126
 30
0.000000
  70
    32
  0
VERTEX
  8
0
  5
1D3E
 10
245.422
 20
50.7628
 30
0.000000
  70
    32
  0
VERTEX
  8
0
  5
1D3F
 10
245.423
 20
50.7131
 30
0.000000
  70
    32
  0
VERTEX
  8
0
  5
1D40
 10
245.424
 20
50.6633
 30
0.000000
  70
    32
  0
VERTEX
  8
0
  5
1D41
 10
245.425
 20
50.6136
 30
0.000000
  70
    32
  0
VERTEX
  8
0
  5
1D42
 10
245.425
 20
50.5638
 30
0.000000
  70
    32
  0
VERTEX
  8
0
  5
1D43
 10
245.426
 20
50.5140
 30
0.000000
  70
    32
  0
VERTEX
  8
0
  5
1D44
 10
245.427
 20
50.4642
 30
0.000000
  70
    32
  0
VERTEX
  8
0
  5
1D45
 10
245.427
 20
50.4145
 30
0.000000
  70
    32
  0
VERTEX
  8
0
  5
1D46
 10
245.428
 20
50.3647
 30
0.000000
  70
    32
  0
VERTEX
  8
0
  5
1D47
 10
245.428
 20
50.3149
 30
0.000000
  70
    32
  0
VERTEX
  8
0
  5
1D48
 10
245.428
 20
50.2651
 30
0.000000
  70
    32
  0
VERTEX
  8
0
  5
1D49
 10
245.429
 20
50.2154
 30
0.000000
  70
    32
  0
VERTEX
  8
0
  5
1D4A
 10
245.429
 20
50.1656
 30
0.000000
  70
    32
  0
VERTEX
  8
0
  5
1D4B
 10
245.429
 20
50.1158
 30
0.000000
  70
    32
  0
VERTEX
  8
0
  5
1D4C
 10
245.429
 20
50.0660
 30
0.000000
  70
    32
  0
VERTEX
  8
0
  5
1D4D
 10
245.429
 20
50.0162
 30
0.000000
  70
    32
  0
VERTEX
  8
0
  5
1D4E
 10
245.429
 20
49.9665
 30
0.000000
  70
    32
  0
VERTEX
  8
0
  5
1D4F
 10
245.429
 20
49.9167
 30
0.000000
  70
    32
  0
VERTEX
  8
0
  5
1D50
 10
245.429
 20
49.8669
 30
0.000000
  70
    32
  0
VERTEX
  8
0
  5
1D51
 10
245.429
 20
49.8171
 30
0.000000
  70
    32
  0
VERTEX
  8
0
  5
1D52
 10
245.429
 20
49.7673
 30
0.000000
  70
    32
  0
VERTEX
  8
0
  5
1D53
 10
245.428
 20
49.7176
 30
0.000000
  70
    32
  0
VERTEX
  8
0
  5
1D54
 10
245.428
 20
49.6678
 30
0.000000
  70
    32
  0
VERTEX
  8
0
  5
1D55
 10
245.428
 20
49.6180
 30
0.000000
  70
    32
  0
VERTEX
  8
0
  5
1D56
 10
245.427
 20
49.5682
 30
0.000000
  70
    32
  0
VERTEX
  8
0
  5
1D57
 10
245.427
 20
49.5184
 30
0.000000
  70
    32
  0
VERTEX
  8
0
  5
1D58
 10
245.426
 20
49.4687
 30
0.000000
  70
    32
  0
VERTEX
  8
0
  5
1D59
 10
245.425
 20
49.4189
 30
0.000000
  70
    32
  0
VERTEX
  8
0
  5
1D5A
 10
245.425
 20
49.3691
 30
0.000000
  70
    32
  0
VERTEX
  8
0
  5
1D5B
 10
245.424
 20
49.3194
 30
0.000000
  70
    32
  0
VERTEX
  8
0
  5
1D5C
 10
245.423
 20
49.2696
 30
0.000000
  70
    32
  0
VERTEX
  8
0
  5
1D5D
 10
245.422
 20
49.2199
 30
0.000000
  70
    32
  0
VERTEX
  8
0
  5
1D5E
 10
245.421
 20
49.1701
 30
0.000000
  70
    32
  0
VERTEX
  8
0
  5
1D5F
 10
245.420
 20
49.1204
 30
0.000000
  70
    32
  0
VERTEX
  8
0
  5
1D60
 10
245.419
 20
49.0706
 30
0.000000
  70
    32
  0
VERTEX
  8
0
  5
1D61
 10
245.418
 20
49.0209
 30
0.000000
  70
    32
  0
VERTEX
  8
0
  5
1D62
 10
245.417
 20
48.9711
 30
0.000000
  70
    32
  0
VERTEX
  8
0
  5
1D63
 10
245.416
 20
48.9214
 30
0.000000
  70
    32
  0
VERTEX
  8
0
  5
1D64
 10
245.414
 20
48.8717
 30
0.000000
  70
    32
  0
VERTEX
  8
0
  5
1D65
 10
245.413
 20
48.8220
 30
0.000000
  70
    32
  0
VERTEX
  8
0
  5
1D66
 10
245.411
 20
48.7722
 30
0.000000
  70
    32
  0
VERTEX
  8
0
  5
1D67
 10
245.410
 20
48.7225
 30
0.000000
  70
    32
  0
VERTEX
  8
0
  5
1D68
 10
245.408
 20
48.6728
 30
0.000000
  70
    32
  0
VERTEX
  8
0
  5
1D69
 10
245.407
 20
48.6231
 30
0.000000
  70
    32
  0
VERTEX
  8
0
  5
1D6A
 10
245.405
 20
48.5734
 30
0.000000
  70
    32
  0
VERTEX
  8
0
  5
1D6B
 10
245.403
 20
48.5237
 30
0.000000
  70
    32
  0
VERTEX
  8
0
  5
1D6C
 10
245.402
 20
48.4741
 30
0.000000
  70
    32
  0
VERTEX
  8
0
  5
1D6D
 10
245.400
 20
48.4244
 30
0.000000
  70
    32
  0
VERTEX
  8
0
  5
1D6E
 10
245.398
 20
48.3747
 30
0.000000
  70
    32
  0
VERTEX
  8
0
  5
1D6F
 10
245.396
 20
48.3251
 30
0.000000
  70
    32
  0
VERTEX
  8
0
  5
1D70
 10
245.394
 20
48.2754
 30
0.000000
  70
    32
  0
VERTEX
  8
0
  5
1D71
 10
245.392
 20
48.2258
 30
0.000000
  70
    32
  0
VERTEX
  8
0
  5
1D72
 10
245.390
 20
48.1761
 30
0.000000
  70
    32
  0
VERTEX
  8
0
  5
1D73
 10
245.387
 20
48.1265
 30
0.000000
  70
    32
  0
VERTEX
  8
0
  5
1D74
 10
245.385
 20
48.0769
 30
0.000000
  70
    32
  0
VERTEX
  8
0
  5
1D75
 10
245.383
 20
48.0273
 30
0.000000
  70
    32
  0
VERTEX
  8
0
  5
1D76
 10
245.380
 20
47.9777
 30
0.000000
  70
    32
  0
VERTEX
  8
0
  5
1D77
 10
245.378
 20
47.9281
 30
0.000000
  70
    32
  0
VERTEX
  8
0
  5
1D78
 10
245.375
 20
47.8785
 30
0.000000
  70
    32
  0
VERTEX
  8
0
  5
1D79
 10
245.373
 20
47.8289
 30
0.000000
  70
    32
  0
VERTEX
  8
0
  5
1D7A
 10
245.370
 20
47.7794
 30
0.000000
  70
    32
  0
VERTEX
  8
0
  5
1D7B
 10
245.367
 20
47.7298
 30
0.000000
  70
    32
  0
VERTEX
  8
0
  5
1D7C
 10
245.365
 20
47.6803
 30
0.000000
  70
    32
  0
VERTEX
  8
0
  5
1D7D
 10
245.362
 20
47.6307
 30
0.000000
  70
    32
  0
VERTEX
  8
0
  5
1D7E
 10
245.359
 20
47.5812
 30
0.000000
  70
    32
  0
VERTEX
  8
0
  5
1D7F
 10
245.356
 20
47.5317
 30
0.000000
  70
    32
  0
VERTEX
  8
0
  5
1D80
 10
245.353
 20
47.4822
 30
0.000000
  70
    32
  0
VERTEX
  8
0
  5
1D81
 10
245.350
 20
47.4327
 30
0.000000
  70
    32
  0
VERTEX
  8
0
  5
1D82
 10
245.347
 20
47.3833
 30
0.000000
  70
    32
  0
VERTEX
  8
0
  5
1D83
 10
245.344
 20
47.3338
 30
0.000000
  70
    32
  0
VERTEX
  8
0
  5
1D84
 10
245.341
 20
47.2843
 30
0.000000
  70
    32
  0
VERTEX
  8
0
  5
1D85
 10
245.337
 20
47.2349
 30
0.000000
  70
    32
  0
VERTEX
  8
0
  5
1D86
 10
245.334
 20
47.1855
 30
0.000000
  70
    32
  0
VERTEX
  8
0
  5
1D87
 10
245.331
 20
47.1361
 30
0.000000
  70
    32
  0
VERTEX
  8
0
  5
1D88
 10
245.327
 20
47.0867
 30
0.000000
  70
    32
  0
VERTEX
  8
0
  5
1D89
 10
245.324
 20
47.0373
 30
0.000000
  70
    32
  0
VERTEX
  8
0
  5
1D8A
 10
245.320
 20
46.9879
 30
0.000000
  70
    32
  0
VERTEX
  8
0
  5
1D8B
 10
245.316
 20
46.9385
 30
0.000000
  70
    32
  0
VERTEX
  8
0
  5
1D8C
 10
245.313
 20
46.8892
 30
0.000000
  70
    32
  0
VERTEX
  8
0
  5
1D8D
 10
245.309
 20
46.8399
 30
0.000000
  70
    32
  0
VERTEX
  8
0
  5
1D8E
 10
245.305
 20
46.7905
 30
0.000000
  70
    32
  0
VERTEX
  8
0
  5
1D8F
 10
245.301
 20
46.7412
 30
0.000000
  70
    32
  0
VERTEX
  8
0
  5
1D90
 10
245.297
 20
46.6919
 30
0.000000
  70
    32
  0
VERTEX
  8
0
  5
1D91
 10
245.293
 20
46.6427
 30
0.000000
  70
    32
  0
VERTEX
  8
0
  5
1D92
 10
245.289
 20
46.5934
 30
0.000000
  70
    32
  0
VERTEX
  8
0
  5
1D93
 10
245.285
 20
46.5442
 30
0.000000
  70
    32
  0
VERTEX
  8
0
  5
1D94
 10
245.281
 20
46.4949
 30
0.000000
  70
    32
  0
VERTEX
  8
0
  5
1D95
 10
245.277
 20
46.4457
 30
0.000000
  70
    32
  0
VERTEX
  8
0
  5
1D96
 10
245.273
 20
46.3965
 30
0.000000
  70
    32
  0
VERTEX
  8
0
  5
1D97
 10
245.268
 20
46.3473
 30
0.000000
  70
    32
  0
VERTEX
  8
0
  5
1D98
 10
245.264
 20
46.2982
 30
0.000000
  70
    32
  0
VERTEX
  8
0
  5
1D99
 10
245.260
 20
46.2490
 30
0.000000
  70
    32
  0
VERTEX
  8
0
  5
1D9A
 10
245.255
 20
46.1999
 30
0.000000
  70
    32
  0
VERTEX
  8
0
  5
1D9B
 10
245.250
 20
46.1508
 30
0.000000
  70
    32
  0
VERTEX
  8
0
  5
1D9C
 10
245.246
 20
46.1017
 30
0.000000
  70
    32
  0
VERTEX
  8
0
  5
1D9D
 10
245.241
 20
46.0526
 30
0.000000
  70
    32
  0
VERTEX
  8
0
  5
1D9E
 10
245.236
 20
46.0036
 30
0.000000
  70
    32
  0
VERTEX
  8
0
  5
1D9F
 10
245.232
 20
45.9545
 30
0.000000
  70
    32
  0
VERTEX
  8
0
  5
1DA0
 10
245.227
 20
45.9055
 30
0.000000
  70
    32
  0
VERTEX
  8
0
  5
1DA1
 10
245.222
 20
45.8565
 30
0.000000
  70
    32
  0
VERTEX
  8
0
  5
1DA2
 10
245.217
 20
45.8075
 30
0.000000
  70
    32
  0
VERTEX
  8
0
  5
1DA3
 10
245.212
 20
45.7585
 30
0.000000
  70
    32
  0
VERTEX
  8
0
  5
1DA4
 10
245.207
 20
45.7096
 30
0.000000
  70
    32
  0
VERTEX
  8
0
  5
1DA5
 10
245.202
 20
45.6606
 30
0.000000
  70
    32
  0
VERTEX
  8
0
  5
1DA6
 10
245.197
 20
45.6117
 30
0.000000
  70
    32
  0
VERTEX
  8
0
  5
1DA7
 10
245.191
 20
45.5628
 30
0.000000
  70
    32
  0
VERTEX
  8
0
  5
1DA8
 10
245.186
 20
45.5140
 30
0.000000
  70
    32
  0
VERTEX
  8
0
  5
1DA9
 10
245.181
 20
45.4651
 30
0.000000
  70
    32
  0
VERTEX
  8
0
  5
1DAA
 10
245.175
 20
45.4163
 30
0.000000
  70
    32
  0
VERTEX
  8
0
  5
1DAB
 10
245.170
 20
45.3675
 30
0.000000
  70
    32
  0
VERTEX
  8
0
  5
1DAC
 10
245.164
 20
45.3187
 30
0.000000
  70
    32
  0
VERTEX
  8
0
  5
1DAD
 10
245.159
 20
45.2699
 30
0.000000
  70
    32
  0
VERTEX
  8
0
  5
1DAE
 10
245.153
 20
45.2212
 30
0.000000
  70
    32
  0
VERTEX
  8
0
  5
1DAF
 10
245.147
 20
45.1724
 30
0.000000
  70
    32
  0
VERTEX
  8
0
  5
1DB0
 10
245.142
 20
45.1237
 30
0.000000
  70
    32
  0
VERTEX
  8
0
  5
1DB1
 10
245.136
 20
45.0750
 30
0.000000
  70
    32
  0
VERTEX
  8
0
  5
1DB2
 10
245.130
 20
45.0264
 30
0.000000
  70
    32
  0
VERTEX
  8
0
  5
1DB3
 10
245.124
 20
44.9777
 30
0.000000
  70
    32
  0
VERTEX
  8
0
  5
1DB4
 10
245.118
 20
44.9291
 30
0.000000
  70
    32
  0
VERTEX
  8
0
  5
1DB5
 10
245.112
 20
44.8805
 30
0.000000
  70
    32
  0
VERTEX
  8
0
  5
1DB6
 10
245.106
 20
44.8319
 30
0.000000
  70
    32
  0
VERTEX
  8
0
  5
1DB7
 10
245.100
 20
44.7834
 30
0.000000
  70
    32
  0
VERTEX
  8
0
  5
1DB8
 10
245.094
 20
44.7349
 30
0.000000
  70
    32
  0
VERTEX
  8
0
  5
1DB9
 10
245.087
 20
44.6864
 30
0.000000
  70
    32
  0
VERTEX
  8
0
  5
1DBA
 10
245.081
 20
44.6379
 30
0.000000
  70
    32
  0
VERTEX
  8
0
  5
1DBB
 10
245.075
 20
44.5894
 30
0.000000
  70
    32
  0
VERTEX
  8
0
  5
1DBC
 10
245.068
 20
44.5410
 30
0.000000
  70
    32
  0
VERTEX
  8
0
  5
1DBD
 10
245.062
 20
44.4926
 30
0.000000
  70
    32
  0
VERTEX
  8
0
  5
1DBE
 10
245.055
 20
44.4442
 30
0.000000
  70
    32
  0
VERTEX
  8
0
  5
1DBF
 10
245.049
 20
44.3959
 30
0.000000
  70
    32
  0
VERTEX
  8
0
  5
1DC0
 10
245.042
 20
44.3475
 30
0.000000
  70
    32
  0
VERTEX
  8
0
  5
1DC1
 10
245.035
 20
44.2992
 30
0.000000
  70
    32
  0
VERTEX
  8
0
  5
1DC2
 10
245.028
 20
44.2509
 30
0.000000
  70
    32
  0
VERTEX
  8
0
  5
1DC3
 10
245.022
 20
44.2027
 30
0.000000
  70
    32
  0
VERTEX
  8
0
  5
1DC4
 10
245.015
 20
44.1544
 30
0.000000
  70
    32
  0
VERTEX
  8
0
  5
1DC5
 10
245.008
 20
44.1062
 30
0.000000
  70
    32
  0
VERTEX
  8
0
  5
1DC6
 10
245.001
 20
44.0581
 30
0.000000
  70
    32
  0
VERTEX
  8
0
  5
1DC7
 10
244.994
 20
44.0099
 30
0.000000
  70
    32
  0
VERTEX
  8
0
  5
1DC8
 10
244.987
 20
43.9618
 30
0.000000
  70
    32
  0
VERTEX
  8
0
  5
1DC9
 10
244.980
 20
43.9137
 30
0.000000
  70
    32
  0
VERTEX
  8
0
  5
1DCA
 10
244.972
 20
43.8656
 30
0.000000
  70
    32
  0
VERTEX
  8
0
  5
1DCB
 10
244.965
 20
43.8176
 30
0.000000
  70
    32
  0
VERTEX
  8
0
  5
1DCC
 10
244.958
 20
43.7696
 30
0.000000
  70
    32
  0
VERTEX
  8
0
  5
1DCD
 10
244.951
 20
43.7216
 30
0.000000
  70
    32
  0
VERTEX
  8
0
  5
1DCE
 10
244.943
 20
43.6736
 30
0.000000
  70
    32
  0
VERTEX
  8
0
  5
1DCF
 10
244.936
 20
43.6257
 30
0.000000
  70
    32
  0
VERTEX
  8
0
  5
1DD0
 10
244.928
 20
43.5778
 30
0.000000
  70
    32
  0
VERTEX
  8
0
  5
1DD1
 10
244.921
 20
43.5299
 30
0.000000
  70
    32
  0
VERTEX
  8
0
  5
1DD2
 10
244.913
 20
43.4821
 30
0.000000
  70
    32
  0
VERTEX
  8
0
  5
1DD3
 10
244.905
 20
43.4342
 30
0.000000
  70
    32
  0
VERTEX
  8
0
  5
1DD4
 10
244.898
 20
43.3864
 30
0.000000
  70
    32
  0
VERTEX
  8
0
  5
1DD5
 10
244.890
 20
43.3387
 30
0.000000
  70
    32
  0
VERTEX
  8
0
  5
1DD6
 10
244.882
 20
43.2909
 30
0.000000
  70
    32
  0
VERTEX
  8
0
  5
1DD7
 10
244.874
 20
43.2432
 30
0.000000
  70
    32
  0
VERTEX
  8
0
  5
1DD8
 10
244.866
 20
43.1956
 30
0.000000
  70
    32
  0
VERTEX
  8
0
  5
1DD9
 10
244.858
 20
43.1479
 30
0.000000
  70
    32
  0
VERTEX
  8
0
  5
1DDA
 10
244.850
 20
43.1003
 30
0.000000
  70
    32
  0
VERTEX
  8
0
  5
1DDB
 10
244.842
 20
43.0527
 30
0.000000
  70
    32
  0
VERTEX
  8
0
  5
1DDC
 10
244.834
 20
43.0052
 30
0.000000
  70
    32
  0
VERTEX
  8
0
  5
1DDD
 10
244.826
 20
42.9577
 30
0.000000
  70
    32
  0
VERTEX
  8
0
  5
1DDE
 10
244.817
 20
42.9102
 30
0.000000
  70
    32
  0
VERTEX
  8
0
  5
1DDF
 10
244.809
 20
42.8627
 30
0.000000
  70
    32
  0
VERTEX
  8
0
  5
1DE0
 10
244.801
 20
42.8153
 30
0.000000
  70
    32
  0
VERTEX
  8
0
  5
1DE1
 10
244.792
 20
42.7679
 30
0.000000
  70
    32
  0
VERTEX
  8
0
  5
1DE2
 10
244.784
 20
42.7205
 30
0.000000
  70
    32
  0
VERTEX
  8
0
  5
1DE3
 10
244.775
 20
42.6732
 30
0.000000
  70
    32
  0
VERTEX
  8
0
  5
1DE4
 10
244.767
 20
42.6259
 30
0.000000
  70
    32
  0
VERTEX
  8
0
  5
1DE5
 10
244.758
 20
42.5786
 30
0.000000
  70
    32
  0
VERTEX
  8
0
  5
1DE6
 10
244.749
 20
42.5313
 30
0.000000
  70
    32
  0
VERTEX
  8
0
  5
1DE7
 10
244.741
 20
42.4841
 30
0.000000
  70
    32
  0
VERTEX
  8
0
  5
1DE8
 10
244.732
 20
42.4370
 30
0.000000
  70
    32
  0
VERTEX
  8
0
  5
1DE9
 10
244.723
 20
42.3898
 30
0.000000
  70
    32
  0
VERTEX
  8
0
  5
1DEA
 10
244.714
 20
42.3427
 30
0.000000
  70
    32
  0
VERTEX
  8
0
  5
1DEB
 10
244.705
 20
42.2956
 30
0.000000
  70
    32
  0
VERTEX
  8
0
  5
1DEC
 10
244.696
 20
42.2486
 30
0.000000
  70
    32
  0
VERTEX
  8
0
  5
1DED
 10
244.687
 20
42.2016
 30
0.000000
  70
    32
  0
VERTEX
  8
0
  5
1DEE
 10
244.678
 20
42.1546
 30
0.000000
  70
    32
  0
VERTEX
  8
0
  5
1DEF
 10
244.669
 20
42.1077
 30
0.000000
  70
    32
  0
VERTEX
  8
0
  5
1DF0
 10
244.660
 20
42.0608
 30
0.000000
  70
    32
  0
VERTEX
  8
0
  5
1DF1
 10
244.651
 20
42.0139
 30
0.000000
  70
    32
  0
VERTEX
  8
0
  5
1DF2
 10
244.641
 20
41.9670
 30
0.000000
  70
    32
  0
VERTEX
  8
0
  5
1DF3
 10
244.632
 20
41.9202
 30
0.000000
  70
    32
  0
VERTEX
  8
0
  5
1DF4
 10
244.623
 20
41.8735
 30
0.000000
  70
    32
  0
VERTEX
  8
0
  5
1DF5
 10
244.613
 20
41.8267
 30
0.000000
  70
    32
  0
VERTEX
  8
0
  5
1DF6
 10
244.604
 20
41.7800
 30
0.000000
  70
    32
  0
VERTEX
  8
0
  5
1DF7
 10
244.594
 20
41.7334
 30
0.000000
  70
    32
  0
VERTEX
  8
0
  5
1DF8
 10
244.584
 20
41.6867
 30
0.000000
  70
    32
  0
VERTEX
  8
0
  5
1DF9
 10
244.575
 20
41.6401
 30
0.000000
  70
    32
  0
VERTEX
  8
0
  5
1DFA
 10
244.565
 20
41.5936
 30
0.000000
  70
    32
  0
VERTEX
  8
0
  5
1DFB
 10
244.555
 20
41.5470
 30
0.000000
  70
    32
  0
VERTEX
  8
0
  5
1DFC
 10
244.546
 20
41.5006
 30
0.000000
  70
    32
  0
VERTEX
  8
0
  5
1DFD
 10
244.536
 20
41.4541
 30
0.000000
  70
    32
  0
VERTEX
  8
0
  5
1DFE
 10
244.526
 20
41.4077
 30
0.000000
  70
    32
  0
VERTEX
  8
0
  5
1DFF
 10
244.516
 20
41.3613
 30
0.000000
  70
    32
  0
VERTEX
  8
0
  5
1E00
 10
244.506
 20
41.3150
 30
0.000000
  70
    32
  0
VERTEX
  8
0
  5
1E01
 10
244.496
 20
41.2687
 30
0.000000
  70
    32
  0
VERTEX
  8
0
  5
1E02
 10
244.486
 20
41.2224
 30
0.000000
  70
    32
  0
VERTEX
  8
0
  5
1E03
 10
244.476
 20
41.1762
 30
0.000000
  70
    32
  0
VERTEX
  8
0
  5
1E04
 10
244.466
 20
41.1300
 30
0.000000
  70
    32
  0
VERTEX
  8
0
  5
1E05
 10
244.455
 20
41.0838
 30
0.000000
  70
    32
  0
VERTEX
  8
0
  5
1E06
 10
244.445
 20
41.0377
 30
0.000000
  70
    32
  0
VERTEX
  8
0
  5
1E07
 10
244.435
 20
40.9916
 30
0.000000
  70
    32
  0
VERTEX
  8
0
  5
1E08
 10
244.424
 20
40.9456
 30
0.000000
  70
    32
  0
VERTEX
  8
0
  5
1E09
 10
244.414
 20
40.8996
 30
0.000000
  70
    32
  0
VERTEX
  8
0
  5
1E0A
 10
244.404
 20
40.8537
 30
0.000000
  70
    32
  0
VERTEX
  8
0
  5
1E0B
 10
244.393
 20
40.8077
 30
0.000000
  70
    32
  0
VERTEX
  8
0
  5
1E0C
 10
244.383
 20
40.7618
 30
0.000000
  70
    32
  0
VERTEX
  8
0
  5
1E0D
 10
244.372
 20
40.7160
 30
0.000000
  70
    32
  0
SEQEND
  8
0
  5
1E0E
  0
POLYLINE
  8
0
  5
1E0F
  66
     1
 10
0.000000
 20
0.000000
 30
0.000000
  70
     8
  0
VERTEX
  8
0
  5
1E10
 10
231.487
 20
40.7160
 30
0.000000
  70
    32
  0
VERTEX
  8
0
  5
1E11
 10
231.476
 20
40.7618
 30
0.000000
  70
    32
  0
VERTEX
  8
0
  5
1E12
 10
231.466
 20
40.8077
 30
0.000000
  70
    32
  0
VERTEX
  8
0
  5
1E13
 10
231.455
 20
40.8537
 30
0.000000
  70
    32
  0
VERTEX
  8
0
  5
1E14
 10
231.445
 20
40.8996
 30
0.000000
  70
    32
  0
VERTEX
  8
0
  5
1E15
 10
231.434
 20
40.9456
 30
0.000000
  70
    32
  0
VERTEX
  8
0
  5
1E16
 10
231.424
 20
40.9916
 30
0.000000
  70
    32
  0
VERTEX
  8
0
  5
1E17
 10
231.414
 20
41.0377
 30
0.000000
  70
    32
  0
VERTEX
  8
0
  5
1E18
 10
231.403
 20
41.0838
 30
0.000000
  70
    32
  0
VERTEX
  8
0
  5
1E19
 10
231.393
 20
41.1300
 30
0.000000
  70
    32
  0
VERTEX
  8
0
  5
1E1A
 10
231.383
 20
41.1762
 30
0.000000
  70
    32
  0
VERTEX
  8
0
  5
1E1B
 10
231.373
 20
41.2224
 30
0.000000
  70
    32
  0
VERTEX
  8
0
  5
1E1C
 10
231.363
 20
41.2687
 30
0.000000
  70
    32
  0
VERTEX
  8
0
  5
1E1D
 10
231.353
 20
41.3150
 30
0.000000
  70
    32
  0
VERTEX
  8
0
  5
1E1E
 10
231.343
 20
41.3613
 30
0.000000
  70
    32
  0
VERTEX
  8
0
  5
1E1F
 10
231.333
 20
41.4077
 30
0.000000
  70
    32
  0
VERTEX
  8
0
  5
1E20
 10
231.323
 20
41.4541
 30
0.000000
  70
    32
  0
VERTEX
  8
0
  5
1E21
 10
231.313
 20
41.5006
 30
0.000000
  70
    32
  0
VERTEX
  8
0
  5
1E22
 10
231.303
 20
41.5470
 30
0.000000
  70
    32
  0
VERTEX
  8
0
  5
1E23
 10
231.294
 20
41.5936
 30
0.000000
  70
    32
  0
VERTEX
  8
0
  5
1E24
 10
231.284
 20
41.6401
 30
0.000000
  70
    32
  0
VERTEX
  8
0
  5
1E25
 10
231.274
 20
41.6867
 30
0.000000
  70
    32
  0
VERTEX
  8
0
  5
1E26
 10
231.265
 20
41.7334
 30
0.000000
  70
    32
  0
VERTEX
  8
0
  5
1E27
 10
231.255
 20
41.7800
 30
0.000000
  70
    32
  0
VERTEX
  8
0
  5
1E28
 10
231.246
 20
41.8267
 30
0.000000
  70
    32
  0
VERTEX
  8
0
  5
1E29
 10
231.236
 20
41.8735
 30
0.000000
  70
    32
  0
VERTEX
  8
0
  5
1E2A
 10
231.227
 20
41.9202
 30
0.000000
  70
    32
  0
VERTEX
  8
0
  5
1E2B
 10
231.218
 20
41.9670
 30
0.000000
  70
    32
  0
VERTEX
  8
0
  5
1E2C
 10
231.208
 20
42.0139
 30
0.000000
  70
    32
  0
VERTEX
  8
0
  5
1E2D
 10
231.199
 20
42.0608
 30
0.000000
  70
    32
  0
VERTEX
  8
0
  5
1E2E
 10
231.190
 20
42.1077
 30
0.000000
  70
    32
  0
VERTEX
  8
0
  5
1E2F
 10
231.181
 20
42.1546
 30
0.000000
  70
    32
  0
VERTEX
  8
0
  5
1E30
 10
231.172
 20
42.2016
 30
0.000000
  70
    32
  0
VERTEX
  8
0
  5
1E31
 10
231.163
 20
42.2486
 30
0.000000
  70
    32
  0
VERTEX
  8
0
  5
1E32
 10
231.154
 20
42.2956
 30
0.000000
  70
    32
  0
VERTEX
  8
0
  5
1E33
 10
231.145
 20
42.3427
 30
0.000000
  70
    32
  0
VERTEX
  8
0
  5
1E34
 10
231.136
 20
42.3898
 30
0.000000
  70
    32
  0
VERTEX
  8
0
  5
1E35
 10
231.127
 20
42.4370
 30
0.000000
  70
    32
  0
VERTEX
  8
0
  5
1E36
 10
231.118
 20
42.4841
 30
0.000000
  70
    32
  0
VERTEX
  8
0
  5
1E37
 10
231.109
 20
42.5313
 30
0.000000
  70
    32
  0
VERTEX
  8
0
  5
1E38
 10
231.101
 20
42.5786
 30
0.000000
  70
    32
  0
VERTEX
  8
0
  5
1E39
 10
231.092
 20
42.6259
 30
0.000000
  70
    32
  0
VERTEX
  8
0
  5
1E3A
 10
231.084
 20
42.6732
 30
0.000000
  70
    32
  0
VERTEX
  8
0
  5
1E3B
 10
231.075
 20
42.7205
 30
0.000000
  70
    32
  0
VERTEX
  8
0
  5
1E3C
 10
231.067
 20
42.7679
 30
0.000000
  70
    32
  0
VERTEX
  8
0
  5
1E3D
 10
231.058
 20
42.8153
 30
0.000000
  70
    32
  0
VERTEX
  8
0
  5
1E3E
 10
231.050
 20
42.8627
 30
0.000000
  70
    32
  0
VERTEX
  8
0
  5
1E3F
 10
231.041
 20
42.9102
 30
0.000000
  70
    32
  0
VERTEX
  8
0
  5
1E40
 10
231.033
 20
42.9577
 30
0.000000
  70
    32
  0
VERTEX
  8
0
  5
1E41
 10
231.025
 20
43.0052
 30
0.000000
  70
    32
  0
VERTEX
  8
0
  5
1E42
 10
231.017
 20
43.0527
 30
0.000000
  70
    32
  0
VERTEX
  8
0
  5
1E43
 10
231.009
 20
43.1003
 30
0.000000
  70
    32
  0
VERTEX
  8
0
  5
1E44
 10
231.001
 20
43.1479
 30
0.000000
  70
    32
  0
VERTEX
  8
0
  5
1E45
 10
230.993
 20
43.1956
 30
0.000000
  70
    32
  0
VERTEX
  8
0
  5
1E46
 10
230.985
 20
43.2432
 30
0.000000
  70
    32
  0
VERTEX
  8
0
  5
1E47
 10
230.977
 20
43.2909
 30
0.000000
  70
    32
  0
VERTEX
  8
0
  5
1E48
 10
230.969
 20
43.3387
 30
0.000000
  70
    32
  0
VERTEX
  8
0
  5
1E49
 10
230.961
 20
43.3864
 30
0.000000
  70
    32
  0
VERTEX
  8
0
  5
1E4A
 10
230.954
 20
43.4342
 30
0.000000
  70
    32
  0
VERTEX
  8
0
  5
1E4B
 10
230.946
 20
43.4821
 30
0.000000
  70
    32
  0
VERTEX
  8
0
  5
1E4C
 10
230.938
 20
43.5299
 30
0.000000
  70
    32
  0
VERTEX
  8
0
  5
1E4D
 10
230.931
 20
43.5778
 30
0.000000
  70
    32
  0
VERTEX
  8
0
  5
1E4E
 10
230.923
 20
43.6257
 30
0.000000
  70
    32
  0
VERTEX
  8
0
  5
1E4F
 10
230.916
 20
43.6736
 30
0.000000
  70
    32
  0
VERTEX
  8
0
  5
1E50
 10
230.908
 20
43.7216
 30
0.000000
  70
    32
  0
VERTEX
  8
0
  5
1E51
 10
230.901
 20
43.7696
 30
0.000000
  70
    32
  0
VERTEX
  8
0
  5
1E52
 10
230.894
 20
43.8176
 30
0.000000
  70
    32
  0
VERTEX
  8
0
  5
1E53
 10
230.886
 20
43.8656
 30
0.000000
  70
    32
  0
VERTEX
  8
0
  5
1E54
 10
230.879
 20
43.9137
 30
0.000000
  70
    32
  0
VERTEX
  8
0
  5
1E55
 10
230.872
 20
43.9618
 30
0.000000
  70
    32
  0
VERTEX
  8
0
  5
1E56
 10
230.865
 20
44.0099
 30
0.000000
  70
    32
  0
VERTEX
  8
0
  5
1E57
 10
230.858
 20
44.0581
 30
0.000000
  70
    32
  0
VERTEX
  8
0
  5
1E58
 10
230.851
 20
44.1062
 30
0.000000
  70
    32
  0
VERTEX
  8
0
  5
1E59
 10
230.844
 20
44.1544
 30
0.000000
  70
    32
  0
VERTEX
  8
0
  5
1E5A
 10
230.837
 20
44.2027
 30
0.000000
  70
    32
  0
VERTEX
  8
0
  5
1E5B
 10
230.830
 20
44.2509
 30
0.000000
  70
    32
  0
VERTEX
  8
0
  5
1E5C
 10
230.824
 20
44.2992
 30
0.000000
  70
    32
  0
VERTEX
  8
0
  5
1E5D
 10
230.817
 20
44.3475
 30
0.000000
  70
    32
  0
VERTEX
  8
0
  5
1E5E
 10
230.810
 20
44.3959
 30
0.000000
  70
    32
  0
VERTEX
  8
0
  5
1E5F
 10
230.804
 20
44.4442
 30
0.000000
  70
    32
  0
VERTEX
  8
0
  5
1E60
 10
230.797
 20
44.4926
 30
0.000000
  70
    32
  0
VERTEX
  8
0
  5
1E61
 10
230.791
 20
44.5410
 30
0.000000
  70
    32
  0
VERTEX
  8
0
  5
1E62
 10
230.784
 20
44.5894
 30
0.000000
  70
    32
  0
VERTEX
  8
0
  5
1E63
 10
230.778
 20
44.6379
 30
0.000000
  70
    32
  0
VERTEX
  8
0
  5
1E64
 10
230.771
 20
44.6864
 30
0.000000
  70
    32
  0
VERTEX
  8
0
  5
1E65
 10
230.765
 20
44.7349
 30
0.000000
  70
    32
  0
VERTEX
  8
0
  5
1E66
 10
230.759
 20
44.7834
 30
0.000000
  70
    32
  0
VERTEX
  8
0
  5
1E67
 10
230.753
 20
44.8319
 30
0.000000
  70
    32
  0
VERTEX
  8
0
  5
1E68
 10
230.747
 20
44.8805
 30
0.000000
  70
    32
  0
VERTEX
  8
0
  5
1E69
 10
230.741
 20
44.9291
 30
0.000000
  70
    32
  0
VERTEX
  8
0
  5
1E6A
 10
230.735
 20
44.9777
 30
0.000000
  70
    32
  0
VERTEX
  8
0
  5
1E6B
 10
230.729
 20
45.0264
 30
0.000000
  70
    32
  0
VERTEX
  8
0
  5
1E6C
 10
230.723
 20
45.0750
 30
0.000000
  70
    32
  0
VERTEX
  8
0
  5
1E6D
 10
230.717
 20
45.1237
 30
0.000000
  70
    32
  0
VERTEX
  8
0
  5
1E6E
 10
230.711
 20
45.1724
 30
0.000000
  70
    32
  0
VERTEX
  8
0
  5
1E6F
 10
230.706
 20
45.2212
 30
0.000000
  70
    32
  0
VERTEX
  8
0
  5
1E70
 10
230.700
 20
45.2699
 30
0.000000
  70
    32
  0
VERTEX
  8
0
  5
1E71
 10
230.694
 20
45.3187
 30
0.000000
  70
    32
  0
VERTEX
  8
0
  5
1E72
 10
230.689
 20
45.3675
 30
0.000000
  70
    32
  0
VERTEX
  8
0
  5
1E73
 10
230.684
 20
45.4163
 30
0.000000
  70
    32
  0
VERTEX
  8
0
  5
1E74
 10
230.678
 20
45.4651
 30
0.000000
  70
    32
  0
VERTEX
  8
0
  5
1E75
 10
230.673
 20
45.5140
 30
0.000000
  70
    32
  0
VERTEX
  8
0
  5
1E76
 10
230.667
 20
45.5628
 30
0.000000
  70
    32
  0
VERTEX
  8
0
  5
1E77
 10
230.662
 20
45.6117
 30
0.000000
  70
    32
  0
VERTEX
  8
0
  5
1E78
 10
230.657
 20
45.6606
 30
0.000000
  70
    32
  0
VERTEX
  8
0
  5
1E79
 10
230.652
 20
45.7096
 30
0.000000
  70
    32
  0
VERTEX
  8
0
  5
1E7A
 10
230.647
 20
45.7585
 30
0.000000
  70
    32
  0
VERTEX
  8
0
  5
1E7B
 10
230.642
 20
45.8075
 30
0.000000
  70
    32
  0
VERTEX
  8
0
  5
1E7C
 10
230.637
 20
45.8565
 30
0.000000
  70
    32
  0
VERTEX
  8
0
  5
1E7D
 10
230.632
 20
45.9055
 30
0.000000
  70
    32
  0
VERTEX
  8
0
  5
1E7E
 10
230.627
 20
45.9545
 30
0.000000
  70
    32
  0
VERTEX
  8
0
  5
1E7F
 10
230.622
 20
46.0036
 30
0.000000
  70
    32
  0
VERTEX
  8
0
  5
1E80
 10
230.618
 20
46.0526
 30
0.000000
  70
    32
  0
VERTEX
  8
0
  5
1E81
 10
230.613
 20
46.1017
 30
0.000000
  70
    32
  0
VERTEX
  8
0
  5
1E82
 10
230.608
 20
46.1508
 30
0.000000
  70
    32
  0
VERTEX
  8
0
  5
1E83
 10
230.604
 20
46.1999
 30
0.000000
  70
    32
  0
VERTEX
  8
0
  5
1E84
 10
230.599
 20
46.2490
 30
0.000000
  70
    32
  0
VERTEX
  8
0
  5
1E85
 10
230.595
 20
46.2982
 30
0.000000
  70
    32
  0
VERTEX
  8
0
  5
1E86
 10
230.590
 20
46.3473
 30
0.000000
  70
    32
  0
VERTEX
  8
0
  5
1E87
 10
230.586
 20
46.3965
 30
0.000000
  70
    32
  0
VERTEX
  8
0
  5
1E88
 10
230.582
 20
46.4457
 30
0.000000
  70
    32
  0
VERTEX
  8
0
  5
1E89
 10
230.578
 20
46.4949
 30
0.000000
  70
    32
  0
VERTEX
  8
0
  5
1E8A
 10
230.573
 20
46.5442
 30
0.000000
  70
    32
  0
VERTEX
  8
0
  5
1E8B
 10
230.569
 20
46.5934
 30
0.000000
  70
    32
  0
VERTEX
  8
0
  5
1E8C
 10
230.565
 20
46.6427
 30
0.000000
  70
    32
  0
VERTEX
  8
0
  5
1E8D
 10
230.561
 20
46.6919
 30
0.000000
  70
    32
  0
VERTEX
  8
0
  5
1E8E
 10
230.557
 20
46.7412
 30
0.000000
  70
    32
  0
VERTEX
  8
0
  5
1E8F
 10
230.554
 20
46.7905
 30
0.000000
  70
    32
  0
VERTEX
  8
0
  5
1E90
 10
230.550
 20
46.8399
 30
0.000000
  70
    32
  0
VERTEX
  8
0
  5
1E91
 10
230.546
 20
46.8892
 30
0.000000
  70
    32
  0
VERTEX
  8
0
  5
1E92
 10
230.542
 20
46.9385
 30
0.000000
  70
    32
  0
VERTEX
  8
0
  5
1E93
 10
230.539
 20
46.9879
 30
0.000000
  70
    32
  0
VERTEX
  8
0
  5
1E94
 10
230.535
 20
47.0373
 30
0.000000
  70
    32
  0
VERTEX
  8
0
  5
1E95
 10
230.532
 20
47.0867
 30
0.000000
  70
    32
  0
VERTEX
  8
0
  5
1E96
 10
230.528
 20
47.1361
 30
0.000000
  70
    32
  0
VERTEX
  8
0
  5
1E97
 10
230.525
 20
47.1855
 30
0.000000
  70
    32
  0
VERTEX
  8
0
  5
1E98
 10
230.521
 20
47.2349
 30
0.000000
  70
    32
  0
VERTEX
  8
0
  5
1E99
 10
230.518
 20
47.2843
 30
0.000000
  70
    32
  0
VERTEX
  8
0
  5
1E9A
 10
230.515
 20
47.3338
 30
0.000000
  70
    32
  0
VERTEX
  8
0
  5
1E9B
 10
230.512
 20
47.3833
 30
0.000000
  70
    32
  0
VERTEX
  8
0
  5
1E9C
 10
230.509
 20
47.4327
 30
0.000000
  70
    32
  0
VERTEX
  8
0
  5
1E9D
 10
230.506
 20
47.4822
 30
0.000000
  70
    32
  0
VERTEX
  8
0
  5
1E9E
 10
230.503
 20
47.5317
 30
0.000000
  70
    32
  0
VERTEX
  8
0
  5
1E9F
 10
230.500
 20
47.5812
 30
0.000000
  70
    32
  0
VERTEX
  8
0
  5
1EA0
 10
230.497
 20
47.6307
 30
0.000000
  70
    32
  0
VERTEX
  8
0
  5
1EA1
 10
230.494
 20
47.6803
 30
0.000000
  70
    32
  0
VERTEX
  8
0
  5
1EA2
 10
230.491
 20
47.7298
 30
0.000000
  70
    32
  0
VERTEX
  8
0
  5
1EA3
 10
230.489
 20
47.7794
 30
0.000000
  70
    32
  0
VERTEX
  8
0
  5
1EA4
 10
230.486
 20
47.8289
 30
0.000000
  70
    32
  0
VERTEX
  8
0
  5
1EA5
 10
230.483
 20
47.8785
 30
0.000000
  70
    32
  0
VERTEX
  8
0
  5
1EA6
 10
230.481
 20
47.9281
 30
0.000000
  70
    32
  0
VERTEX
  8
0
  5
1EA7
 10
230.478
 20
47.9777
 30
0.000000
  70
    32
  0
VERTEX
  8
0
  5
1EA8
 10
230.476
 20
48.0273
 30
0.000000
  70
    32
  0
VERTEX
  8
0
  5
1EA9
 10
230.474
 20
48.0769
 30
0.000000
  70
    32
  0
VERTEX
  8
0
  5
1EAA
 10
230.471
 20
48.1265
 30
0.000000
  70
    32
  0
VERTEX
  8
0
  5
1EAB
 10
230.469
 20
48.1761
 30
0.000000
  70
    32
  0
VERTEX
  8
0
  5
1EAC
 10
230.467
 20
48.2258
 30
0.000000
  70
    32
  0
VERTEX
  8
0
  5
1EAD
 10
230.465
 20
48.2754
 30
0.000000
  70
    32
  0
VERTEX
  8
0
  5
1EAE
 10
230.463
 20
48.3251
 30
0.000000
  70
    32
  0
VERTEX
  8
0
  5
1EAF
 10
230.461
 20
48.3747
 30
0.000000
  70
    32
  0
VERTEX
  8
0
  5
1EB0
 10
230.459
 20
48.4244
 30
0.000000
  70
    32
  0
VERTEX
  8
0
  5
1EB1
 10
230.457
 20
48.4741
 30
0.000000
  70
    32
  0
VERTEX
  8
0
  5
1EB2
 10
230.455
 20
48.5237
 30
0.000000
  70
    32
  0
VERTEX
  8
0
  5
1EB3
 10
230.454
 20
48.5734
 30
0.000000
  70
    32
  0
VERTEX
  8
0
  5
1EB4
 10
230.452
 20
48.6231
 30
0.000000
  70
    32
  0
VERTEX
  8
0
  5
1EB5
 10
230.450
 20
48.6728
 30
0.000000
  70
    32
  0
VERTEX
  8
0
  5
1EB6
 10
230.449
 20
48.7225
 30
0.000000
  70
    32
  0
VERTEX
  8
0
  5
1EB7
 10
230.447
 20
48.7722
 30
0.000000
  70
    32
  0
VERTEX
  8
0
  5
1EB8
 10
230.446
 20
48.8220
 30
0.000000
  70
    32
  0
VERTEX
  8
0
  5
1EB9
 10
230.445
 20
48.8717
 30
0.000000
  70
    32
  0
VERTEX
  8
0
  5
1EBA
 10
230.443
 20
48.9214
 30
0.000000
  70
    32
  0
VERTEX
  8
0
  5
1EBB
 10
230.442
 20
48.9711
 30
0.000000
  70
    32
  0
VERTEX
  8
0
  5
1EBC
 10
230.441
 20
49.0209
 30
0.000000
  70
    32
  0
VERTEX
  8
0
  5
1EBD
 10
230.440
 20
49.0706
 30
0.000000
  70
    32
  0
VERTEX
  8
0
  5
1EBE
 10
230.439
 20
49.1204
 30
0.000000
  70
    32
  0
VERTEX
  8
0
  5
1EBF
 10
230.438
 20
49.1701
 30
0.000000
  70
    32
  0
VERTEX
  8
0
  5
1EC0
 10
230.437
 20
49.2199
 30
0.000000
  70
    32
  0
VERTEX
  8
0
  5
1EC1
 10
230.436
 20
49.2696
 30
0.000000
  70
    32
  0
VERTEX
  8
0
  5
1EC2
 10
230.435
 20
49.3194
 30
0.000000
  70
    32
  0
VERTEX
  8
0
  5
1EC3
 10
230.434
 20
49.3691
 30
0.000000
  70
    32
  0
VERTEX
  8
0
  5
1EC4
 10
230.433
 20
49.4189
 30
0.000000
  70
    32
  0
VERTEX
  8
0
  5
1EC5
 10
230.433
 20
49.4687
 30
0.000000
  70
    32
  0
VERTEX
  8
0
  5
1EC6
 10
230.432
 20
49.5184
 30
0.000000
  70
    32
  0
VERTEX
  8
0
  5
1EC7
 10
230.432
 20
49.5682
 30
0.000000
  70
    32
  0
VERTEX
  8
0
  5
1EC8
 10
230.431
 20
49.6180
 30
0.000000
  70
    32
  0
VERTEX
  8
0
  5
1EC9
 10
230.431
 20
49.6678
 30
0.000000
  70
    32
  0
VERTEX
  8
0
  5
1ECA
 10
230.430
 20
49.7176
 30
0.000000
  70
    32
  0
VERTEX
  8
0
  5
1ECB
 10
230.430
 20
49.7673
 30
0.000000
  70
    32
  0
VERTEX
  8
0
  5
1ECC
 10
230.430
 20
49.8171
 30
0.000000
  70
    32
  0
VERTEX
  8
0
  5
1ECD
 10
230.430
 20
49.8669
 30
0.000000
  70
    32
  0
VERTEX
  8
0
  5
1ECE
 10
230.430
 20
49.9167
 30
0.000000
  70
    32
  0
VERTEX
  8
0
  5
1ECF
 10
230.429
 20
49.9665
 30
0.000000
  70
    32
  0
VERTEX
  8
0
  5
1ED0
 10
230.429
 20
50.0162
 30
0.000000
  70
    32
  0
VERTEX
  8
0
  5
1ED1
 10
230.430
 20
50.0660
 30
0.000000
  70
    32
  0
VERTEX
  8
0
  5
1ED2
 10
230.430
 20
50.1158
 30
0.000000
  70
    32
  0
VERTEX
  8
0
  5
1ED3
 10
230.430
 20
50.1656
 30
0.000000
  70
    32
  0
VERTEX
  8
0
  5
1ED4
 10
230.430
 20
50.2154
 30
0.000000
  70
    32
  0
VERTEX
  8
0
  5
1ED5
 10
230.430
 20
50.2651
 30
0.000000
  70
    32
  0
VERTEX
  8
0
  5
1ED6
 10
230.431
 20
50.3149
 30
0.000000
  70
    32
  0
VERTEX
  8
0
  5
1ED7
 10
230.431
 20
50.3647
 30
0.000000
  70
    32
  0
VERTEX
  8
0
  5
1ED8
 10
230.432
 20
50.4145
 30
0.000000
  70
    32
  0
VERTEX
  8
0
  5
1ED9
 10
230.432
 20
50.4642
 30
0.000000
  70
    32
  0
VERTEX
  8
0
  5
1EDA
 10
230.433
 20
50.5140
 30
0.000000
  70
    32
  0
VERTEX
  8
0
  5
1EDB
 10
230.433
 20
50.5638
 30
0.000000
  70
    32
  0
VERTEX
  8
0
  5
1EDC
 10
230.434
 20
50.6136
 30
0.000000
  70
    32
  0
VERTEX
  8
0
  5
1EDD
 10
230.435
 20
50.6633
 30
0.000000
  70
    32
  0
VERTEX
  8
0
  5
1EDE
 10
230.436
 20
50.7131
 30
0.000000
  70
    32
  0
VERTEX
  8
0
  5
1EDF
 10
230.437
 20
50.7628
 30
0.000000
  70
    32
  0
VERTEX
  8
0
  5
1EE0
 10
230.438
 20
50.8126
 30
0.000000
  70
    32
  0
VERTEX
  8
0
  5
1EE1
 10
230.439
 20
50.8623
 30
0.000000
  70
    32
  0
VERTEX
  8
0
  5
1EE2
 10
230.440
 20
50.9121
 30
0.000000
  70
    32
  0
VERTEX
  8
0
  5
1EE3
 10
230.441
 20
50.9618
 30
0.000000
  70
    32
  0
VERTEX
  8
0
  5
1EE4
 10
230.442
 20
51.0116
 30
0.000000
  70
    32
  0
VERTEX
  8
0
  5
1EE5
 10
230.443
 20
51.0613
 30
0.000000
  70
    32
  0
VERTEX
  8
0
  5
1EE6
 10
230.445
 20
51.1110
 30
0.000000
  70
    32
  0
VERTEX
  8
0
  5
1EE7
 10
230.446
 20
51.1607
 30
0.000000
  70
    32
  0
VERTEX
  8
0
  5
1EE8
 10
230.447
 20
51.2105
 30
0.000000
  70
    32
  0
VERTEX
  8
0
  5
1EE9
 10
230.449
 20
51.2602
 30
0.000000
  70
    32
  0
VERTEX
  8
0
  5
1EEA
 10
230.450
 20
51.3099
 30
0.000000
  70
    32
  0
VERTEX
  8
0
  5
1EEB
 10
230.452
 20
51.3596
 30
0.000000
  70
    32
  0
VERTEX
  8
0
  5
1EEC
 10
230.454
 20
51.4093
 30
0.000000
  70
    32
  0
VERTEX
  8
0
  5
1EED
 10
230.455
 20
51.4590
 30
0.000000
  70
    32
  0
VERTEX
  8
0
  5
1EEE
 10
230.457
 20
51.5086
 30
0.000000
  70
    32
  0
VERTEX
  8
0
  5
1EEF
 10
230.459
 20
51.5583
 30
0.000000
  70
    32
  0
VERTEX
  8
0
  5
1EF0
 10
230.461
 20
51.6080
 30
0.000000
  70
    32
  0
VERTEX
  8
0
  5
1EF1
 10
230.463
 20
51.6576
 30
0.000000
  70
    32
  0
VERTEX
  8
0
  5
1EF2
 10
230.465
 20
51.7073
 30
0.000000
  70
    32
  0
VERTEX
  8
0
  5
1EF3
 10
230.467
 20
51.7569
 30
0.000000
  70
    32
  0
VERTEX
  8
0
  5
1EF4
 10
230.469
 20
51.8066
 30
0.000000
  70
    32
  0
VERTEX
  8
0
  5
1EF5
 10
230.471
 20
51.8562
 30
0.000000
  70
    32
  0
VERTEX
  8
0
  5
1EF6
 10
230.474
 20
51.9058
 30
0.000000
  70
    32
  0
VERTEX
  8
0
  5
1EF7
 10
230.476
 20
51.9554
 30
0.000000
  70
    32
  0
VERTEX
  8
0
  5
1EF8
 10
230.478
 20
52.0050
 30
0.000000
  70
    32
  0
VERTEX
  8
0
  5
1EF9
 10
230.481
 20
52.0546
 30
0.000000
  70
    32
  0
VERTEX
  8
0
  5
1EFA
 10
230.483
 20
52.1042
 30
0.000000
  70
    32
  0
VERTEX
  8
0
  5
1EFB
 10
230.486
 20
52.1538
 30
0.000000
  70
    32
  0
VERTEX
  8
0
  5
1EFC
 10
230.489
 20
52.2033
 30
0.000000
  70
    32
  0
VERTEX
  8
0
  5
1EFD
 10
230.491
 20
52.2529
 30
0.000000
  70
    32
  0
VERTEX
  8
0
  5
1EFE
 10
230.494
 20
52.3024
 30
0.000000
  70
    32
  0
VERTEX
  8
0
  5
1EFF
 10
230.497
 20
52.3519
 30
0.000000
  70
    32
  0
VERTEX
  8
0
  5
1F00
 10
230.500
 20
52.4015
 30
0.000000
  70
    32
  0
VERTEX
  8
0
  5
1F01
 10
230.503
 20
52.4510
 30
0.000000
  70
    32
  0
VERTEX
  8
0
  5
1F02
 10
230.506
 20
52.5005
 30
0.000000
  70
    32
  0
VERTEX
  8
0
  5
1F03
 10
230.509
 20
52.5500
 30
0.000000
  70
    32
  0
VERTEX
  8
0
  5
1F04
 10
230.512
 20
52.5994
 30
0.000000
  70
    32
  0
VERTEX
  8
0
  5
1F05
 10
230.515
 20
52.6489
 30
0.000000
  70
    32
  0
VERTEX
  8
0
  5
1F06
 10
230.518
 20
52.6984
 30
0.000000
  70
    32
  0
VERTEX
  8
0
  5
1F07
 10
230.521
 20
52.7478
 30
0.000000
  70
    32
  0
VERTEX
  8
0
  5
1F08
 10
230.525
 20
52.7972
 30
0.000000
  70
    32
  0
VERTEX
  8
0
  5
1F09
 10
230.528
 20
52.8466
 30
0.000000
  70
    32
  0
VERTEX
  8
0
  5
1F0A
 10
230.532
 20
52.8960
 30
0.000000
  70
    32
  0
VERTEX
  8
0
  5
1F0B
 10
230.535
 20
52.9454
 30
0.000000
  70
    32
  0
VERTEX
  8
0
  5
1F0C
 10
230.539
 20
52.9948
 30
0.000000
  70
    32
  0
VERTEX
  8
0
  5
1F0D
 10
230.542
 20
53.0442
 30
0.000000
  70
    32
  0
VERTEX
  8
0
  5
1F0E
 10
230.546
 20
53.0935
 30
0.000000
  70
    32
  0
VERTEX
  8
0
  5
1F0F
 10
230.550
 20
53.1428
 30
0.000000
  70
    32
  0
VERTEX
  8
0
  5
1F10
 10
230.554
 20
53.1922
 30
0.000000
  70
    32
  0
VERTEX
  8
0
  5
1F11
 10
230.557
 20
53.2415
 30
0.000000
  70
    32
  0
VERTEX
  8
0
  5
1F12
 10
230.561
 20
53.2907
 30
0.000000
  70
    32
  0
VERTEX
  8
0
  5
1F13
 10
230.565
 20
53.3400
 30
0.000000
  70
    32
  0
VERTEX
  8
0
  5
1F14
 10
230.569
 20
53.3893
 30
0.000000
  70
    32
  0
VERTEX
  8
0
  5
1F15
 10
230.573
 20
53.4385
 30
0.000000
  70
    32
  0
VERTEX
  8
0
  5
1F16
 10
230.578
 20
53.4878
 30
0.000000
  70
    32
  0
VERTEX
  8
0
  5
1F17
 10
230.582
 20
53.5370
 30
0.000000
  70
    32
  0
VERTEX
  8
0
  5
1F18
 10
230.586
 20
53.5862
 30
0.000000
  70
    32
  0
VERTEX
  8
0
  5
1F19
 10
230.590
 20
53.6353
 30
0.000000
  70
    32
  0
VERTEX
  8
0
  5
1F1A
 10
230.595
 20
53.6845
 30
0.000000
  70
    32
  0
VERTEX
  8
0
  5
1F1B
 10
230.599
 20
53.7337
 30
0.000000
  70
    32
  0
VERTEX
  8
0
  5
1F1C
 10
230.604
 20
53.7828
 30
0.000000
  70
    32
  0
VERTEX
  8
0
  5
1F1D
 10
230.608
 20
53.8319
 30
0.000000
  70
    32
  0
VERTEX
  8
0
  5
1F1E
 10
230.613
 20
53.8810
 30
0.000000
  70
    32
  0
VERTEX
  8
0
  5
1F1F
 10
230.618
 20
53.9301
 30
0.000000
  70
    32
  0
VERTEX
  8
0
  5
1F20
 10
230.622
 20
53.9791
 30
0.000000
  70
    32
  0
VERTEX
  8
0
  5
1F21
 10
230.627
 20
54.0282
 30
0.000000
  70
    32
  0
VERTEX
  8
0
  5
1F22
 10
230.632
 20
54.0772
 30
0.000000
  70
    32
  0
VERTEX
  8
0
  5
1F23
 10
230.637
 20
54.1262
 30
0.000000
  70
    32
  0
VERTEX
  8
0
  5
1F24
 10
230.642
 20
54.1752
 30
0.000000
  70
    32
  0
VERTEX
  8
0
  5
1F25
 10
230.647
 20
54.2242
 30
0.000000
  70
    32
  0
VERTEX
  8
0
  5
1F26
 10
230.652
 20
54.2731
 30
0.000000
  70
    32
  0
VERTEX
  8
0
  5
1F27
 10
230.657
 20
54.3221
 30
0.000000
  70
    32
  0
VERTEX
  8
0
  5
1F28
 10
230.662
 20
54.3710
 30
0.000000
  70
    32
  0
VERTEX
  8
0
  5
1F29
 10
230.667
 20
54.4199
 30
0.000000
  70
    32
  0
VERTEX
  8
0
  5
1F2A
 10
230.673
 20
54.4687
 30
0.000000
  70
    32
  0
VERTEX
  8
0
  5
1F2B
 10
230.678
 20
54.5176
 30
0.000000
  70
    32
  0
VERTEX
  8
0
  5
1F2C
 10
230.684
 20
54.5664
 30
0.000000
  70
    32
  0
VERTEX
  8
0
  5
1F2D
 10
230.689
 20
54.6152
 30
0.000000
  70
    32
  0
VERTEX
  8
0
  5
1F2E
 10
230.694
 20
54.6640
 30
0.000000
  70
    32
  0
VERTEX
  8
0
  5
1F2F
 10
230.700
 20
54.7128
 30
0.000000
  70
    32
  0
VERTEX
  8
0
  5
1F30
 10
230.706
 20
54.7615
 30
0.000000
  70
    32
  0
VERTEX
  8
0
  5
1F31
 10
230.711
 20
54.8103
 30
0.000000
  70
    32
  0
VERTEX
  8
0
  5
1F32
 10
230.717
 20
54.8590
 30
0.000000
  70
    32
  0
VERTEX
  8
0
  5
1F33
 10
230.723
 20
54.9077
 30
0.000000
  70
    32
  0
VERTEX
  8
0
  5
1F34
 10
230.729
 20
54.9563
 30
0.000000
  70
    32
  0
VERTEX
  8
0
  5
1F35
 10
230.735
 20
55.0050
 30
0.000000
  70
    32
  0
VERTEX
  8
0
  5
1F36
 10
230.741
 20
55.0536
 30
0.000000
  70
    32
  0
VERTEX
  8
0
  5
1F37
 10
230.747
 20
55.1022
 30
0.000000
  70
    32
  0
VERTEX
  8
0
  5
1F38
 10
230.753
 20
55.1507
 30
0.000000
  70
    32
  0
VERTEX
  8
0
  5
1F39
 10
230.759
 20
55.1993
 30
0.000000
  70
    32
  0
VERTEX
  8
0
  5
1F3A
 10
230.765
 20
55.2478
 30
0.000000
  70
    32
  0
VERTEX
  8
0
  5
1F3B
 10
230.771
 20
55.2963
 30
0.000000
  70
    32
  0
VERTEX
  8
0
  5
1F3C
 10
230.778
 20
55.3448
 30
0.000000
  70
    32
  0
VERTEX
  8
0
  5
1F3D
 10
230.784
 20
55.3933
 30
0.000000
  70
    32
  0
VERTEX
  8
0
  5
1F3E
 10
230.791
 20
55.4417
 30
0.000000
  70
    32
  0
VERTEX
  8
0
  5
1F3F
 10
230.797
 20
55.4901
 30
0.000000
  70
    32
  0
VERTEX
  8
0
  5
1F40
 10
230.804
 20
55.5385
 30
0.000000
  70
    32
  0
VERTEX
  8
0
  5
1F41
 10
230.810
 20
55.5868
 30
0.000000
  70
    32
  0
VERTEX
  8
0
  5
1F42
 10
230.817
 20
55.6352
 30
0.000000
  70
    32
  0
VERTEX
  8
0
  5
1F43
 10
230.824
 20
55.6835
 30
0.000000
  70
    32
  0
VERTEX
  8
0
  5
1F44
 10
230.830
 20
55.7318
 30
0.000000
  70
    32
  0
VERTEX
  8
0
  5
1F45
 10
230.837
 20
55.7800
 30
0.000000
  70
    32
  0
VERTEX
  8
0
  5
1F46
 10
230.844
 20
55.8282
 30
0.000000
  70
    32
  0
VERTEX
  8
0
  5
1F47
 10
230.851
 20
55.8764
 30
0.000000
  70
    32
  0
VERTEX
  8
0
  5
1F48
 10
230.858
 20
55.9246
 30
0.000000
  70
    32
  0
VERTEX
  8
0
  5
1F49
 10
230.865
 20
55.9728
 30
0.000000
  70
    32
  0
VERTEX
  8
0
  5
1F4A
 10
230.872
 20
56.0209
 30
0.000000
  70
    32
  0
VERTEX
  8
0
  5
1F4B
 10
230.879
 20
56.0690
 30
0.000000
  70
    32
  0
VERTEX
  8
0
  5
1F4C
 10
230.886
 20
56.1171
 30
0.000000
  70
    32
  0
VERTEX
  8
0
  5
1F4D
 10
230.894
 20
56.1651
 30
0.000000
  70
    32
  0
VERTEX
  8
0
  5
1F4E
 10
230.901
 20
56.2131
 30
0.000000
  70
    32
  0
VERTEX
  8
0
  5
1F4F
 10
230.908
 20
56.2611
 30
0.000000
  70
    32
  0
VERTEX
  8
0
  5
1F50
 10
230.916
 20
56.3091
 30
0.000000
  70
    32
  0
VERTEX
  8
0
  5
1F51
 10
230.923
 20
56.3570
 30
0.000000
  70
    32
  0
VERTEX
  8
0
  5
1F52
 10
230.931
 20
56.4049
 30
0.000000
  70
    32
  0
VERTEX
  8
0
  5
1F53
 10
230.938
 20
56.4528
 30
0.000000
  70
    32
  0
VERTEX
  8
0
  5
1F54
 10
230.946
 20
56.5006
 30
0.000000
  70
    32
  0
VERTEX
  8
0
  5
1F55
 10
230.954
 20
56.5485
 30
0.000000
  70
    32
  0
VERTEX
  8
0
  5
1F56
 10
230.961
 20
56.5963
 30
0.000000
  70
    32
  0
VERTEX
  8
0
  5
1F57
 10
230.969
 20
56.6440
 30
0.000000
  70
    32
  0
VERTEX
  8
0
  5
1F58
 10
230.977
 20
56.6917
 30
0.000000
  70
    32
  0
VERTEX
  8
0
  5
1F59
 10
230.985
 20
56.7394
 30
0.000000
  70
    32
  0
VERTEX
  8
0
  5
1F5A
 10
230.993
 20
56.7871
 30
0.000000
  70
    32
  0
VERTEX
  8
0
  5
1F5B
 10
231.001
 20
56.8348
 30
0.000000
  70
    32
  0
VERTEX
  8
0
  5
1F5C
 10
231.009
 20
56.8824
 30
0.000000
  70
    32
  0
VERTEX
  8
0
  5
1F5D
 10
231.017
 20
56.9300
 30
0.000000
  70
    32
  0
VERTEX
  8
0
  5
1F5E
 10
231.025
 20
56.9775
 30
0.000000
  70
    32
  0
VERTEX
  8
0
  5
1F5F
 10
231.033
 20
57.0250
 30
0.000000
  70
    32
  0
VERTEX
  8
0
  5
1F60
 10
231.041
 20
57.0725
 30
0.000000
  70
    32
  0
VERTEX
  8
0
  5
1F61
 10
231.050
 20
57.1200
 30
0.000000
  70
    32
  0
VERTEX
  8
0
  5
1F62
 10
231.058
 20
57.1674
 30
0.000000
  70
    32
  0
VERTEX
  8
0
  5
1F63
 10
231.067
 20
57.2148
 30
0.000000
  70
    32
  0
VERTEX
  8
0
  5
1F64
 10
231.075
 20
57.2622
 30
0.000000
  70
    32
  0
VERTEX
  8
0
  5
1F65
 10
231.084
 20
57.3095
 30
0.000000
  70
    32
  0
VERTEX
  8
0
  5
1F66
 10
231.092
 20
57.3568
 30
0.000000
  70
    32
  0
VERTEX
  8
0
  5
1F67
 10
231.101
 20
57.4041
 30
0.000000
  70
    32
  0
VERTEX
  8
0
  5
1F68
 10
231.109
 20
57.4513
 30
0.000000
  70
    32
  0
VERTEX
  8
0
  5
1F69
 10
231.118
 20
57.4986
 30
0.000000
  70
    32
  0
VERTEX
  8
0
  5
1F6A
 10
231.127
 20
57.5457
 30
0.000000
  70
    32
  0
VERTEX
  8
0
  5
1F6B
 10
231.136
 20
57.5929
 30
0.000000
  70
    32
  0
VERTEX
  8
0
  5
1F6C
 10
231.145
 20
57.6400
 30
0.000000
  70
    32
  0
VERTEX
  8
0
  5
1F6D
 10
231.154
 20
57.6871
 30
0.000000
  70
    32
  0
VERTEX
  8
0
  5
1F6E
 10
231.163
 20
57.7341
 30
0.000000
  70
    32
  0
VERTEX
  8
0
  5
1F6F
 10
231.172
 20
57.7811
 30
0.000000
  70
    32
  0
VERTEX
  8
0
  5
1F70
 10
231.181
 20
57.8281
 30
0.000000
  70
    32
  0
VERTEX
  8
0
  5
1F71
 10
231.190
 20
57.8750
 30
0.000000
  70
    32
  0
VERTEX
  8
0
  5
1F72
 10
231.199
 20
57.9219
 30
0.000000
  70
    32
  0
VERTEX
  8
0
  5
1F73
 10
231.208
 20
57.9688
 30
0.000000
  70
    32
  0
VERTEX
  8
0
  5
1F74
 10
231.218
 20
58.0157
 30
0.000000
  70
    32
  0
VERTEX
  8
0
  5
1F75
 10
231.227
 20
58.0625
 30
0.000000
  70
    32
  0
VERTEX
  8
0
  5
1F76
 10
231.236
 20
58.1092
 30
0.000000
  70
    32
  0
VERTEX
  8
0
  5
1F77
 10
231.246
 20
58.1560
 30
0.000000
  70
    32
  0
VERTEX
  8
0
  5
1F78
 10
231.255
 20
58.2027
 30
0.000000
  70
    32
  0
VERTEX
  8
0
  5
1F79
 10
231.265
 20
58.2493
 30
0.000000
  70
    32
  0
VERTEX
  8
0
  5
1F7A
 10
231.274
 20
58.2960
 30
0.000000
  70
    32
  0
VERTEX
  8
0
  5
1F7B
 10
231.284
 20
58.3426
 30
0.000000
  70
    32
  0
VERTEX
  8
0
  5
1F7C
 10
231.294
 20
58.3891
 30
0.000000
  70
    32
  0
VERTEX
  8
0
  5
1F7D
 10
231.303
 20
58.4356
 30
0.000000
  70
    32
  0
VERTEX
  8
0
  5
1F7E
 10
231.313
 20
58.4821
 30
0.000000
  70
    32
  0
VERTEX
  8
0
  5
1F7F
 10
231.323
 20
58.5286
 30
0.000000
  70
    32
  0
VERTEX
  8
0
  5
1F80
 10
231.333
 20
58.5750
 30
0.000000
  70
    32
  0
VERTEX
  8
0
  5
1F81
 10
231.343
 20
58.6214
 30
0.000000
  70
    32
  0
VERTEX
  8
0
  5
1F82
 10
231.353
 20
58.6677
 30
0.000000
  70
    32
  0
VERTEX
  8
0
  5
1F83
 10
231.363
 20
58.7140
 30
0.000000
  70
    32
  0
VERTEX
  8
0
  5
1F84
 10
231.373
 20
58.7603
 30
0.000000
  70
    32
  0
VERTEX
  8
0
  5
1F85
 10
231.383
 20
58.8065
 30
0.000000
  70
    32
  0
VERTEX
  8
0
  5
1F86
 10
231.393
 20
58.8527
 30
0.000000
  70
    32
  0
VERTEX
  8
0
  5
1F87
 10
231.403
 20
58.8989
 30
0.000000
  70
    32
  0
VERTEX
  8
0
  5
1F88
 10
231.414
 20
58.9450
 30
0.000000
  70
    32
  0
VERTEX
  8
0
  5
1F89
 10
231.424
 20
58.9910
 30
0.000000
  70
    32
  0
VERTEX
  8
0
  5
1F8A
 10
231.434
 20
59.0371
 30
0.000000
  70
    32
  0
VERTEX
  8
0
  5
1F8B
 10
231.445
 20
59.0831
 30
0.000000
  70
    32
  0
VERTEX
  8
0
  5
1F8C
 10
231.455
 20
59.1290
 30
0.000000
  70
    32
  0
VERTEX
  8
0
  5
1F8D
 10
231.466
 20
59.1750
 30
0.000000
  70
    32
  0
VERTEX
  8
0
  5
1F8E
 10
231.476
 20
59.2208
 30
0.000000
  70
    32
  0
VERTEX
  8
0
  5
1F8F
 10
231.487
 20
59.2667
 30
0.000000
  70
    32
  0
SEQEND
  8
0
  5
1F90
  0
LINE
  5
11E
  8
0
 10
245.92938725078889
 20
41.21400813352394
 30
0.0
 11
245.92938725078889
 21
40.848574601036439
 31
0.0
  0
LINE
  5
11F
  8
0
 10
229.92938725078889
 20
41.21400813352394
 30
0.0
 11
229.92938725078889
 21
40.848574601035551
 31
0.0
  0
LINE
  5
120
  8
0
 10
18.69007275425302
 20
144.76581180112069
 30
0.0
 11
20.69007275425302
 21
144.76581180112069
 31
0.0
  0
LINE
  5
121
  8
0
 10
18.690072754253009
 20
144.76581180112069
 30
0.0
 11
18.690072754253009
 21
142.76581180112069
 31
0.0
  0
LINE
  5
122
  8
0
 10
20.69007275425302
 20
142.76581180112069
 30
0.0
 11
18.69007275425302
 21
142.76581180112069
 31
0.0
  0
LINE
  5
123
  8
0
 10
20.69007275425302
 20
142.76581180112069
 30
0.0
 11
20.69007275425302
 21
144.76581180112069
 31
0.0
  0
LINE
  5
124
  8
0
 10
142.69007275425301
 20
142.76581180112069
 30
0.0
 11
140.69007275425301
 21
142.76581180112069
 31
0.0
  0
LINE
  5
125
  8
0
 10
140.69007275425301
 20
144.76581180112069
 30
0.0
 11
142.69007275425301
 21
144.76581180112069
 31
0.0
  0
LINE
  5
126
  8
0
 10
140.69007275425301
 20
144.76581180112069
 30
0.0
 11
140.69007275425301
 21
142.76581180112069
 31
0.0
  0
LINE
  5
127
  8
0
 10
142.69007275425301
 20
142.76581180112069
 30
0.0
 11
142.69007275425301
 21
144.76581180112069
 31
0.0
  0
LINE
  5
128
  8
0
 10
20.69007275425302
 20
142.76581180112069
 30
0.0
 11
140.69007275425301
 21
142.76581180112069
 31
0.0
  0
LINE
  5
129
  8
0
 10
20.69007275425302
 20
144.76581180112069
 30
0.0
 11
140.69007275425301
 21
144.76581180112069
 31
0.0
  0
LINE
  5
12A
  8
0
 10
74.190072754252952
 20
166.26581180112061
 30
0.0
 11
87.190072754252995
 21
166.26581180112061
 31
0.0
  0
LINE
  5
12B
  8
0
 10
71.740072754252964
 20
141.76581180112069
 30
0.0
 11
89.640072754253026
 21
141.76581180112069
 31
0.0
  0
ARC
  5
12C
  8
0
 10
29.90882275425281
 20
155.51581180112069
 30
0.0
 40
58.281250000000171
 50
349.37090866011039
 51
10.629091339889181
  0
ARC
  5
12D
  8
0
 10
131.47132275425309
 20
155.51581180112061
 30
0.0
 40
58.281250000000171
 50
169.37090866011039
 51
190.6290913398891
  0
LINE
  5
12E
  8
0
 10
89.640072754253026
 20
142.76581180112069
 30
0.0
 11
89.640072754253026
 21
141.76581180112069
 31
0.0
  0
LINE
  5
12F
  8
0
 10
71.740072754252964
 20
142.76581180112069
 30
0.0
 11
71.740072754252964
 21
141.76581180112069
 31
0.0
  0
DIMENSION
  5
130
  8
0
  2
*D1
 10
142.69007275425301
 20
130.65063431594359
 30
0.0
 11
80.690072754253038
 21
130.65063431594359
 31
0.0
 70
   128
  1
<>
 13
18.690072754253009
 23
142.76581180112069
 33
0.0
 14
142.69007275425301
 24
142.76581180112069
 34
0.0
 50
180.0
1001
ACAD
1000
DSTYLE
1002
{
1070
   287
1070
     1
1070
   287
1070
     1
1070
   172
1070
     0
1070
   289
1070
     1
1070
   271
1070
     1
1070
   272
1070
     2
1070
    48
1040
0.0
1070
    47
1040
0.0
1002
}
  0
DIMENSION
  5
209
  8
0
  2
*D2
 10
150.69007275425301
 20
166.26581180112061
 30
0.0
 11
150.69007275425301
 21
154.51581180112069
 31
0.0
 70
   128
  1
<>
 13
140.69007275425301
 23
142.76581180112069
 33
0.0
 14
87.190072754252995
 24
166.26581180112061
 34
0.0
 50
90.0
1001
ACAD
1000
DSTYLE
1002
{
1070
   287
1070
     1
1070
   287
1070
     1
1070
   172
1070
     0
1070
   289
1070
     1
1070
   271
1070
     1
1070
   272
1070
     2
1070
    48
1040
0.0
1070
    47
1040
0.0
1002
}
  0
DIMENSION
  5
2EB
  8
0
  2
*D3
 10
12.446298189291371
 20
142.76581180112069
 30
0.0
 11
12.44629818929134
 21
143.76581180112069
 31
0.0
 70
   128
  1
<>
 13
18.690072754253009
 23
144.76581180112069
 33
0.0
 14
18.690072754253009
 24
142.76581180112069
 34
0.0
 50
90.0
1001
ACAD
1000
DSTYLE
1002
{
1070
   287
1070
     1
1070
   287
1070
     1
1070
   172
1070
     1
1070
   289
1070
     1
1070
   271
1070
     1
1070
   272
1070
     2
1070
    48
1040
0.0
1070
    47
1040
0.0
1002
}
  0
DIMENSION
  5
3EB
  8
0
  2
*D4
 10
191.77010979815421
 20
3.541233028122476
 30
0.0
 11
182.2241682521358
 21
9.0525849493846522
 31
0.0
 70
   128
  1
{\Q30.000;\W0.816;\H0.816x;<>}
 13
185.95703883357751
 23
22.230462626954331
 33
0.0
 14
205.04892192561431
 24
11.207758784430039
 34
0.0
 50
150.0
1001
ACAD
1000
DSTYLE
1002
{
1070
   287
1070
     1
1070
   287
1070
     1
1070
   172
1070
     0
1070
   289
1070
     1
1070
   144
1040
1.2247448713915861
1070
   271
1070
     1
1070
   272
1070
     2
1070
    48
1040
0.0
1070
    47
1040
0.0
1002
}
  0
DIMENSION
  5
4CD
  8
0
  2
*D5
 10
170.40068964747351
 20
29.578931855303889
 30
0.0
 11
214.24131008103939
 21
54.890325864063378
 31
0.0
 70
   128
  1
{\Q-30.000;\W0.816;\H0.816x;<>}
 13
273.6382797007094
 23
71.220257482617967
 33
0.0
 14
185.95703883357751
 24
20.597469465098889
 34
0.0
 50
30.000000000000011
1001
ACAD
1000
DSTYLE
1002
{
1070
   287
1070
     1
1070
   287
1070
     1
1070
   172
1070
     0
1070
   289
1070
     1
1070
   144
1040
1.2247448713915881
1070
   271
1070
     1
1070
   272
1070
     2
1070
    48
1040
0.0
1070
    47
1040
0.0
1002
}
  0
DIMENSION
  5
5A3
  8
0
  2
*D6
 10
88.190072754252995
 20
172.50153199930941
 30
0.0
 11
80.640070170302806
 21
172.50153199930941
 31
0.0
 70
   128
  1
<>
 13
73.190072754252995
 23
155.51581180112061
 33
0.0
 14
88.190072754252995
 24
155.5158118011208
 34
0.0
 50
180.0
1001
ACAD
1000
DSTYLE
1002
{
1070
   287
1070
     1
1070
   287
1070
     1
1070
   172
1070
     0
1070
   289
1070
     1
1070
   271
1070
     1
1070
   272
1070
     2
1070
    48
1040
0.0
1070
    47
1040
0.0
1002
}
  0
CIRCLE
  5
685
  8
0
 10
43.440072754219649
 20
55.03890787679623
 30
0.0
 40
3.6000000000000001
  0
CIRCLE
  5
686
  8
0
 10
117.9400727542196
 20
55.03890787679623
 30
0.0
 40
3.6000000000000001
  0
CIRCLE
  5
687
  8
0
 10
43.440072754219649
 20
55.038907876796792
 30
0.0
 40
5.0
  0
CIRCLE
  5
688
  8
0
 10
117.9400727542196
 20
55.038907876796792
 30
0.0
 40
5.0
  0
CIRCLE
  5
689
  8
0
 10
80.690072754219671
 20
55.038907876796792
 30
0.0
 40
8.0250000000000004
  0
ARC
  5
68A
  8
0
 10
20.69007275421966
 20
43.538907876796777
 30
0.0
 40
2.0
 50
180.0
 51
270.0
  0
ARC
  5
68B
  8
0
 10
20.690072754219649
 20
66.538907876796785
 30
0.0
 40
2.0000000000000022
 50
90.000000000000099
 51
180.0
  0
ARC
  5
68C
  8
0
 10
140.69007275421961
 20
43.53890787679677
 30
0.0
 40
1.999999999999992
 50
270.0
 51
0.0
  0
ARC
  5
68D
  8
0
 10
140.69007275421961
 20
66.538907876796799
 30
0.0
 40
2.0000000000000009
 50
0.0
 51
90.0
  0
LINE
  5
68E
  8
0
 10
18.690072754219649
 20
66.538907876796785
 30
0.0
 11
18.690072754219649
 21
43.53890787679677
 31
0.0
  0
LINE
  5
68F
  8
0
 10
142.69007275421961
 20
43.53890787679677
 30
0.0
 11
142.69007275421961
 21
66.538907876796799
 31
0.0
  0
LINE
  5
690
  8
0
 10
140.69007275421961
 20
68.538907876796799
 30
0.0
 11
20.690072754219649
 21
68.538907876796785
 31
0.0
  0
LINE
  5
691
  8
0
 10
20.69007275421966
 20
41.538907876796777
 30
0.0
 11
140.69007275421961
 21
41.538907876796777
 31
0.0
  0
CIRCLE
  5
692
  8
0
 10
80.690072754219614
 20
55.038907876803059
 30
0.0
 40
6.5000000000000231
  0
CIRCLE
  5
693
  8
0
 10
80.690072754219656
 20
55.038907876796692
 30
0.0
 40
8.0000000000000302
  0
CIRCLE
  5
694
  8
0
 10
80.690072754219656
 20
55.038907876799883
 30
0.0
 40
7.5000000000000258
  0
LINE
  5
695
  8
0
 10
225.38839461943809
 20
144.76581180112069
 30
0.0
 11
227.38839461943871
 21
144.76581180112069
 31
0.0
  0
LINE
  5
696
  8
0
 10
225.38839461943809
 20
144.76581180112069
 30
0.0
 11
225.38839461943809
 21
142.76581180112069
 31
0.0
  0
LINE
  5
697
  8
0
 10
227.38839461943871
 20
142.76581180112069
 30
0.0
 11
225.38839461943809
 21
142.76581180112069
 31
0.0
  0
LINE
  5
698
  8
0
 10
227.38839461943871
 20
142.76581180112069
 30
0.0
 11
227.38839461943871
 21
144.76581180112069
 31
0.0
  0
LINE
  5
699
  8
0
 10
202.38839461943809
 20
142.76581180112069
 30
0.0
 11
200.38839461943871
 21
142.76581180112069
 31
0.0
  0
LINE
  5
69A
  8
0
 10
202.38839461943809
 20
142.76581180112069
 30
0.0
 11
202.38839461943809
 21
144.76581180112069
 31
0.0
  0
LINE
  5
69B
  8
0
 10
200.38839461943871
 20
144.76581180112069
 30
0.0
 11
202.38839461943809
 21
144.76581180112069
 31
0.0
  0
LINE
  5
69C
  8
0
 10
200.38839461943871
 20
144.76581180112069
 30
0.0
 11
200.38839461943871
 21
142.76581180112069
 31
0.0
  0
LINE
  5
69D
  8
0
 10
202.38839461943809
 20
142.76581180112069
 30
0.0
 11
225.38839461943809
 21
142.76581180112069
 31
0.0
  0
LINE
  5
69E
  8
0
 10
202.38839461943809
 20
144.76581180112069
 30
0.0
 11
225.38839461943809
 21
144.76581180112069
 31
0.0
  0
LINE
  5
69F
  8
0
 10
207.38839461945659
 20
166.26581180112061
 30
0.0
 11
220.38839461945659
 21
166.26581180112061
 31
0.0
  0
LINE
  5
6A0
  8
0
 10
204.9383946194566
 20
141.7658118011208
 30
0.0
 11
222.83839461945661
 21
141.76581180112069
 31
0.0
  0
ARC
  5
6A1
  8
0
 10
163.10714461945651
 20
155.5158118011208
 30
0.0
 40
58.281250000000007
 50
349.37090866011022
 51
10.629091339889101
  0
ARC
  5
6A2
  8
0
 10
264.66964461945668
 20
155.51581180112061
 30
0.0
 40
58.281250000000007
 50
169.37090866011019
 51
190.6290913398891
  0
LINE
  5
6A3
  8
0
 10
222.83839461945661
 20
142.76581180112069
 30
0.0
 11
222.83839461945661
 21
141.76581180112069
 31
0.0
  0
LINE
  5
6A4
  8
0
 10
204.9383946194566
 20
142.7658118011208
 30
0.0
 11
204.9383946194566
 21
141.7658118011208
 31
0.0
  0
DIMENSION
  5
6A5
  8
0
  2
*D7
 10
11.46283640280617
 20
68.538907876796785
 30
0.0
 11
11.462836402806159
 21
55.038907876796777
 31
0.0
 70
   128
  1
<>
 13
20.69007275421966
 23
41.538907876796777
 33
0.0
 14
20.690072754219649
 24
68.538907876796785
 34
0.0
 50
270.0
1001
ACAD
1000
DSTYLE
1002
{
1070
   287
1070
     1
1070
   287
1070
     1
1070
   172
1070
     0
1070
   289
1070
     1
1070
   271
1070
     1
1070
   272
1070
     2
1070
    48
1040
0.0
1070
    47
1040
0.0
1002
}
  0
DIMENSION
  5
787
  8
0
  2
*D8
 10
43.440072754219649
 20
78.692800429494866
 30
0.0
 11
31.065072754219639
 21
78.692800429494866
 31
0.0
 70
   128
  1
<>
 13
18.690072754219649
 23
66.538907876796785
 33
0.0
 14
43.440072754219649
 24
55.038907876796792
 34
0.0
 50
180.0
1001
ACAD
1000
DSTYLE
1002
{
1070
   287
1070
     1
1070
   287
1070
     1
1070
   172
1070
     0
1070
   289
1070
     1
1070
   271
1070
     1
1070
   272
1070
     2
1070
    48
1040
0.0
1070
    47
1040
0.0
1002
}
  0
DIMENSION
  5
869
  8
0
  2
*D9
 10
142.69007275421961
 20
76.538907876796799
 30
0.0
 11
130.31507275421961
 21
76.538907876796799
 31
0.0
 70
   128
  1
<>
 13
117.9400727542196
 23
55.038907876796792
 33
0.0
 14
142.69007275421961
 24
66.538907876796799
 34
0.0
1001
ACAD
1000
DSTYLE
1002
{
1070
   287
1070
     1
1070
   287
1070
     1
1070
   172
1070
     0
1070
   289
1070
     1
1070
   271
1070
     1
1070
   272
1070
     2
1070
    48
1040
0.0
1070
    47
1040
0.0
1002
}
  0
DIMENSION
  5
94B
  8
0
  2
*D10
 10
80.690072754219656
 20
75.576012564433142
 30
0.0
 11
62.065072754219642
 21
75.576012564433142
 31
0.0
 70
   128
  1
<>
 13
43.440072754219649
 23
55.038907876796792
 33
0.0
 14
80.690072754219656
 24
55.038907876803059
 34
0.0
 50
180.0
1001
ACAD
1000
DSTYLE
1002
{
1070
   287
1070
     1
1070
   287
1070
     1
1070
   172
1070
     0
1070
   289
1070
     1
1070
   271
1070
     1
1070
   272
1070
     2
1070
    48
1040
0.0
1070
    47
1040
0.0
1002
}
  0
DIMENSION
  5
A2D
  8
0
  2
*D11
 10
80.690072754219671
 20
74.627424953327406
 30
0.0
 11
99.315072754219671
 21
74.627424953327406
 31
0.0
 70
   128
  1
<>
 13
117.9400727542196
 23
55.03890787679623
 33
0.0
 14
80.690072754219671
 24
55.038907876796792
 34
0.0
 50
180.0
1001
ACAD
1000
DSTYLE
1002
{
1070
   287
1070
     1
1070
   287
1070
     1
1070
   172
1070
     0
1070
   289
1070
     1
1070
   271
1070
     1
1070
   272
1070
     2
1070
    48
1040
0.0
1070
    47
1040
0.0
1002
}
  0
DIMENSION
  5
B0F
  8
0
  2
*D12
 10
142.69007275421961
 20
25.600155351058589
 30
0.0
 11
80.690072754219671
 21
25.600155351058589
 31
0.0
 70
   128
  1
<>
 13
18.690072754219649
 23
43.53890787679677
 33
0.0
 14
142.69007275421961
 24
43.53890787679677
 34
0.0
 50
180.0
1001
ACAD
1000
DSTYLE
1002
{
1070
   287
1070
     1
1070
   287
1070
     1
1070
   172
1070
     0
1070
   289
1070
     1
1070
   271
1070
     1
1070
   272
1070
     2
1070
    48
1040
0.0
1070
    47
1040
0.0
1002
}
  0
DIMENSION
  5
BE5
  8
0
  2
*D13
 10
252.83801410893469
 20
142.76581180112069
 30
0.0
 11
252.83801410893469
 21
154.51581180112069
 31
0.0
 70
   128
  1
<>
 13
220.38839461945659
 23
166.26581180112061
 33
0.0
 14
227.38839461943871
 24
142.76581180112069
 34
0.0
 50
90.0
1001
ACAD
1000
DSTYLE
1002
{
1070
   287
1070
     1
1070
   287
1070
     1
1070
   172
1070
     0
1070
   289
1070
     1
1070
   271
1070
     1
1070
   272
1070
     2
1070
    48
1040
0.0
1070
    47
1040
0.0
1002
}
  0
DIMENSION
  5
CC7
  8
0
  2
*D14
 10
270.825260239258
 20
166.26581180112061
 30
0.0
 11
270.825260239258
 21
154.01581180112069
 31
0.0
 70
   128
  1
<>
 13
222.83839461945661
 23
141.76581180112069
 33
0.0
 14
220.38839461945659
 24
166.26581180112061
 34
0.0
 50
90.0
1001
ACAD
1000
DSTYLE
1002
{
1070
   287
1070
     1
1070
   287
1070
     1
1070
   172
1070
     0
1070
   289
1070
     1
1070
   271
1070
     1
1070
   272
1070
     2
1070
    48
1040
0.0
1070
    47
1040
0.0
1002
}
  0
DIMENSION
  5
DA9
  8
0
  2
*D15
 10
227.38839461943871
 20
128.6208932720146
 30
0.0
 11
213.88839461943871
 21
128.6208932720146
 31
0.0
 70
   128
  1
<>
 13
200.38839461943871
 23
142.76581180112069
 33
0.0
 14
227.38839461943871
 24
142.76581180112069
 34
0.0
 50
180.0
1001
ACAD
1000
DSTYLE
1002
{
1070
   287
1070
     1
1070
   287
1070
     1
1070
   172
1070
     0
1070
   289
1070
     1
1070
   271
1070
     1
1070
   272
1070
     2
1070
    48
1040
0.0
1070
    47
1040
0.0
1002
}
  0
DIMENSION
  5
E8B
  8
0
  2
*D16
 10
206.38839461945659
 20
179.51164256321269
 30
0.0
 11
213.88839461945659
 21
179.51164256321269
 31
0.0
 70
   128
  1
<>
 13
221.38839461945659
 23
155.51581180112069
 33
0.0
 14
206.38839461945659
 24
155.51581180112069
 34
0.0
 50
180.0
1001
ACAD
1000
DSTYLE
1002
{
1070
   287
1070
     1
1070
   287
1070
     1
1070
   172
1070
     0
1070
   289
1070
     1
1070
   271
1070
     1
1070
   272
1070
     2
1070
    48
1040
0.0
1070
    47
1040
0.0
1002
}
  0
ENDSEC
  0
EOF
