  0
SECTION
  2
HEADER
  9
$ACADVER
  1
AC1009
  9
$INSBASE
 10
0.0
 20
0.0
 30
0.0
  9
$EXTMIN
 10
208.2138793329662
 20
118.6607861834906
 30
0.0
  9
$EXTMAX
 10
469.29230645771258
 20
277.7392133082368
 30
0.0
  9
$LIMMIN
 10
0.0
 20
0.0
  9
$LIMMAX
 10
420.0
 20
297.0
  9
$ORTHOMODE
 70
     1
  9
$REGENMODE
 70
     1
  9
$FILLMODE
 70
     1
  9
$QTEXTMODE
 70
     0
  9
$MIRRTEXT
 70
     1
  9
$DRAGMODE
 70
     2
  9
$LTSCALE
 40
1.0
  9
$OSMODE
 70
  3071
  9
$ATTMODE
 70
     1
  9
$TEXTSIZE
 40
2.5
  9
$TRACEWID
 40
1.0
  9
$TEXTSTYLE
  7
STANDARD
  9
$CLAYER
  8
0
  9
$CELTYPE
  6
BYLAYER
  9
$CECOLOR
 62
   256
  9
$DIMSCALE
 40
1.0
  9
$DIMASZ
 40
2.0
  9
$DIMEXO
 40
2.0
  9
$DIMDLI
 40
3.75
  9
$DIMRND
 40
0.0
  9
$DIMDLE
 40
0.0
  9
$DIMEXE
 40
0.5
  9
$DIMTP
 40
0.0
  9
$DIMTM
 40
0.0
  9
$DIMTXT
 40
2.5
  9
$DIMCEN
 40
2.0
  9
$DIMTSZ
 40
0.0
  9
$DIMTOL
 70
     0
  9
$DIMLIM
 70
     0
  9
$DIMTIH
 70
     0
  9
$DIMTOH
 70
     0
  9
$DIMSE1
 70
     0
  9
$DIMSE2
 70
     0
  9
$DIMTAD
 70
     1
  9
$DIMZIN
 70
     8
  9
$DIMBLK
  1

  9
$DIMASO
 70
     1
  9
$DIMSHO
 70
     1
  9
$DIMPOST
  1

  9
$DIMAPOST
  1

  9
$DIMALT
 70
     0
  9
$DIMALTD
 70
     3
  9
$DIMALTF
 40
0.03937007874016
  9
$DIMLFAC
 40
1.0
  9
$DIMTOFL
 70
     1
  9
$DIMTVP
 40
0.0
  9
$DIMTIX
 70
     1
  9
$DIMSOXD
 70
     1
  9
$DIMSAH
 70
     0
  9
$DIMBLK1
  1

  9
$DIMBLK2
  1

  9
$DIMSTYLE
  2
ISO-25_1_10
  9
$DIMCLRD
 70
     0
  9
$DIMCLRE
 70
     0
  9
$DIMCLRT
 70
     0
  9
$DIMTFAC
 40
1.0
  9
$DIMGAP
 40
0.75
  9
$LUNITS
 70
     2
  9
$LUPREC
 70
     4
  9
$SKETCHINC
 40
1.0
  9
$FILLETRAD
 40
10.0
  9
$AUNITS
 70
     0
  9
$AUPREC
 70
     0
  9
$MENU
  1
.
  9
$ELEVATION
 40
0.0
  9
$PELEVATION
 40
0.0
  9
$THICKNESS
 40
0.0
  9
$LIMCHECK
 70
     0
  9
$BLIPMODE
 70
     0
  9
$CHAMFERA
 40
10.0
  9
$CHAMFERB
 40
10.0
  9
$SKPOLY
 70
     0
  9
$TDCREATE
 40
2459682.7103331359
  9
$TDUPDATE
 40
2460325.73367419
  9
$TDINDWG
 40
0.0080134259
  9
$TDUSRTIMER
 40
0.0080134259
  9
$USRTIMER
 70
     1
  9
$ANGBASE
 50
0.0
  9
$ANGDIR
 70
     0
  9
$PDMODE
 70
     0
  9
$PDSIZE
 40
0.0
  9
$PLINEWID
 40
0.0
  9
$COORDS
 70
     1
  9
$SPLFRAME
 70
     0
  9
$SPLINETYPE
 70
     6
  9
$SPLINESEGS
 70
     8
  9
$ATTDIA
 70
     0
  9
$ATTREQ
 70
     1
  9
$HANDLING
 70
 10241
  9
$HANDSEED
  5
515
  9
$SURFTAB1
 70
     6
  9
$SURFTAB2
 70
     6
  9
$SURFTYPE
 70
     6
  9
$SURFU
 70
     6
  9
$SURFV
 70
     6
  9
$UCSNAME
  2

  9
$UCSORG
 10
0.0
 20
0.0
 30
0.0
  9
$UCSXDIR
 10
1.0
 20
0.0
 30
0.0
  9
$UCSYDIR
 10
0.0
 20
1.0
 30
0.0
  9
$PUCSNAME
  2

  9
$PUCSORG
 10
0.0
 20
0.0
 30
0.0
  9
$PUCSXDIR
 10
1.0
 20
0.0
 30
0.0
  9
$PUCSYDIR
 10
0.0
 20
1.0
 30
0.0
  9
$USERI1
 70
     0
  9
$USERI2
 70
     0
  9
$USERI3
 70
     0
  9
$USERI4
 70
     0
  9
$USERI5
 70
     0
  9
$USERR1
 40
0.0
  9
$USERR2
 40
0.0
  9
$USERR3
 40
0.0
  9
$USERR4
 40
0.0
  9
$USERR5
 40
0.0
  9
$WORLDVIEW
 70
     1
  9
$SHADEDGE
 70
     3
  9
$SHADEDIF
 70
    70
  9
$TILEMODE
 70
     1
  9
$MAXACTVP
 70
    64
  9
$PLIMCHECK
 70
     0
  9
$PEXTMIN
 10
1.0000000000000000E+020
 20
1.0000000000000000E+020
 30
1.0000000000000000E+020
  9
$PEXTMAX
 10
-1.0000000000000000E+020
 20
-1.0000000000000000E+020
 30
-1.0000000000000000E+020
  9
$PLIMMIN
 10
0.0
 20
0.0
  9
$PLIMMAX
 10
420.0
 20
297.0
  9
$UNITMODE
 70
     0
  9
$VISRETAIN
 70
     1
  9
$PLINEGEN
 70
     0
  9
$PSLTSCALE
 70
     1
  0
ENDSEC
  0
SECTION
  2
TABLES
  0
TABLE
  2
VPORT
 70
     2
  0
VPORT
  2
*ACTIVE
 70
     0
 10
0.0
 20
0.0
 11
1.0
 21
1.0
 12
329.94837102318371
 22
209.69331963397369
 13
0.0
 23
0.0
 14
10.0
 24
10.0
 15
10.0
 25
10.0
 16
0.0
 26
0.0
 36
1.0
 17
0.0
 27
0.0
 37
0.0
 40
230.77753005557989
 41
2.1654929577464781
 42
50.0
 43
0.0
 44
0.0
 50
0.0
 51
0.0
 71
     0
 72
   100
 73
     1
 74
     3
 75
     0
 76
     0
 77
     0
 78
     0
  0
ENDTAB
  0
TABLE
  2
LTYPE
 70
     1
  0
LTYPE
  2
CONTINUOUS
 70
     0
  3
Solid line
 72
    65
 73
     0
 40
0.0
  0
ENDTAB
  0
TABLE
  2
LAYER
 70
     3
  0
LAYER
  2
0
 70
     0
 62
     7
  6
CONTINUOUS
  0
LAYER
  2
DEFPOINTS
 70
     0
 62
     2
  6
CONTINUOUS
  0
LAYER
  2
寸法
 70
     0
 62
     6
  6
CONTINUOUS
  0
ENDTAB
  0
TABLE
  2
STYLE
 70
     1
  0
STYLE
  2
STANDARD
 70
     0
 40
0.0
 41
1.0
 50
0.0
 71
     0
 42
2.5
  3
txt
  4

  0
ENDTAB
  0
TABLE
  2
VIEW
 70
     0
  0
ENDTAB
  0
TABLE
  2
UCS
 70
     0
  0
ENDTAB
  0
TABLE
  2
APPID
 70
     1
  0
APPID
  2
ACAD
 70
     0
  0
ENDTAB
  0
TABLE
  2
DIMSTYLE
 70
     4
  0
DIMSTYLE
  2
ISO-25
 70
     0
  3

  4

  5

  6

  7

 40
1.0
 41
2.5
 42
0.625
 43
3.75
 44
1.25
 45
0.0
 46
0.0
 47
0.0
 48
0.0
140
2.5
141
2.5
142
0.0
143
0.03937007874016
144
1.0
145
0.0
146
1.0
147
0.625
 71
     0
 72
     0
 73
     0
 74
     0
 75
     0
 76
     0
 77
     1
 78
     8
170
     0
171
     3
172
     1
173
     0
174
     0
175
     0
176
     0
177
     0
178
     0
  0
DIMSTYLE
  2
ISO-25_1_10
 70
     0
  3

  4

  5

  6

  7

 40
1.0
 41
2.0
 42
2.0
 43
3.75
 44
0.5
 45
0.0
 46
0.0
 47
0.0
 48
0.0
140
2.5
141
2.0
142
0.0
143
0.03937007874016
144
1.0
145
0.0
146
1.0
147
0.75
 71
     0
 72
     0
 73
     0
 74
     0
 75
     0
 76
     0
 77
     1
 78
     8
170
     0
171
     3
172
     1
173
     0
174
     1
175
     1
176
     0
177
     0
178
     0
  0
DIMSTYLE
  2
STANDARD
 70
     0
  3

  4

  5

  6

  7

 40
1.0
 41
0.18
 42
0.0625
 43
0.38
 44
0.18
 45
0.0
 46
0.0
 47
0.0
 48
0.0
140
0.18
141
0.09
142
0.0
143
25.399999999999999
144
1.0
145
0.0
146
1.0
147
0.09
 71
     0
 72
     0
 73
     1
 74
     1
 75
     0
 76
     0
 77
     0
 78
     0
170
     0
171
     2
172
     0
173
     0
174
     0
175
     0
176
     0
177
     0
178
     0
  0
DIMSTYLE
  2
ISO-25_1_2
 70
     0
  3

  4

  5

  6

  7

 40
15.0
 41
2.0
 42
2.0
 43
3.75
 44
0.5
 45
0.0
 46
0.0
 47
0.0
 48
0.0
140
2.5
141
2.0
142
0.0
143
0.03937007874016
144
0.2
145
0.0
146
1.0
147
0.75
 71
     0
 72
     0
 73
     0
 74
     0
 75
     0
 76
     0
 77
     1
 78
     8
170
     0
171
     3
172
     1
173
     0
174
     1
175
     1
176
     0
177
     0
178
     0
  0
ENDTAB
  0
ENDSEC
  0
SECTION
  2
BLOCKS
  0
BLOCK
  8
0
  2
$MODEL_SPACE
 70
     0
 10
0.0
 20
0.0
 30
0.0
  3
$MODEL_SPACE
  1

  0
ENDBLK
  5
21
  8
0
  0
BLOCK
 67
     1
  8
0
  2
$PAPER_SPACE
 70
     0
 10
0.0
 20
0.0
 30
0.0
  3
$PAPER_SPACE
  1

  0
ENDBLK
  5
1D
 67
     1
  8
0
  0
BLOCK
  8
0
  2
*D1
 70
     1
 10
0.0
 20
0.0
 30
0.0
  3
*D1
  1

  0
LINE
  5
4AC
  8
寸法
 62
     0
 10
384.46387933296631
 20
256.4892133082368
 30
0.0
 11
384.46387933296631
 21
274.9892133082368
 31
0.0
  0
LINE
  5
4AD
  8
寸法
 62
     0
 10
221.46387933296629
 20
256.4892133082368
 30
0.0
 11
221.46387933296629
 21
274.9892133082368
 31
0.0
  0
LINE
  5
4AE
  8
寸法
 62
     0
 10
382.46387933296631
 20
274.48921330823669
 30
0.0
 11
223.46387933296629
 21
274.48921330823669
 31
0.0
  0
SOLID
  5
4AF
  8
寸法
 62
     0
 10
382.46387933296631
 20
274.82254664157011
 30
0.0
 11
382.46387933296631
 21
274.15587997490343
 31
0.0
 12
384.46387933296631
 22
274.48921330823669
 32
0.0
 13
384.46387933296631
 23
274.48921330823669
 33
0.0
  0
SOLID
  5
4B0
  8
寸法
 62
     0
 10
223.46387933296629
 20
274.82254664157011
 30
0.0
 11
223.46387933296629
 21
274.15587997490343
 31
0.0
 12
221.46387933296629
 22
274.48921330823669
 32
0.0
 13
221.46387933296629
 23
274.48921330823669
 33
0.0
  0
TEXT
  8
0
  40
2.5
  5
50E
  62
0
  72
0
  71
0
 10
302.964
 20
273.239
 30
0.000000
  1
163
  0
POINT
  5
4B2
  8
DEFPOINTS
 62
     0
 10
384.46387933296631
 20
254.4892133082368
 30
0.0
  0
POINT
  5
4B3
  8
DEFPOINTS
 62
     0
 10
221.46387933296629
 20
254.4892133082368
 30
0.0
  0
POINT
  5
4B4
  8
DEFPOINTS
 62
     0
 10
221.46387933296629
 20
274.48921330823669
 30
0.0
  0
ENDBLK
  5
2E6
  8
0
  0
BLOCK
  8
0
  2
*D2
 70
     1
 10
0.0
 20
0.0
 30
0.0
  3
*D2
  1

  0
LINE
  5
4B5
  8
寸法
 62
     0
 10
219.46387933296629
 20
254.4892133082368
 30
0.0
 11
210.96387933296629
 21
254.4892133082368
 31
0.0
  0
LINE
  5
4B6
  8
寸法
 62
     0
 10
219.46387933296629
 20
220.48921330823671
 30
0.0
 11
210.96387933296629
 21
220.48921330823671
 31
0.0
  0
LINE
  5
4B7
  8
寸法
 62
     0
 10
211.46387933296629
 20
252.4892133082368
 30
0.0
 11
211.46387933296629
 21
222.48921330823671
 31
0.0
  0
SOLID
  5
4B8
  8
寸法
 62
     0
 10
211.130545999633
 20
252.4892133082368
 30
0.0
 11
211.79721266629971
 21
252.4892133082368
 31
0.0
 12
211.46387933296629
 22
254.4892133082368
 32
0.0
 13
211.46387933296629
 23
254.4892133082368
 33
0.0
  0
SOLID
  5
4B9
  8
寸法
 62
     0
 10
211.130545999633
 20
222.48921330823671
 30
0.0
 11
211.79721266629971
 21
222.48921330823671
 31
0.0
 12
211.46387933296629
 22
220.48921330823671
 32
0.0
 13
211.46387933296629
 23
220.48921330823671
 33
0.0
  0
TEXT
  8
0
  40
2.5
  5
50F
  62
0
  72
0
  71
0
 10
209.464
 20
234.239
 30
0.000000
  1
34
  0
POINT
  5
4BB
  8
DEFPOINTS
 62
     0
 10
221.46387933296629
 20
254.4892133082368
 30
0.0
  0
POINT
  5
4BC
  8
DEFPOINTS
 62
     0
 10
221.46387933296629
 20
220.48921330823671
 30
0.0
  0
POINT
  5
4BD
  8
DEFPOINTS
 62
     0
 10
211.46387933296629
 20
220.48921330823671
 30
0.0
  0
ENDBLK
  5
332
  8
0
  0
BLOCK
  8
0
  2
*D3
 70
     1
 10
0.0
 20
0.0
 30
0.0
  3
*D3
  1

  0
LINE
  5
4BE
  8
寸法
 62
     0
 10
384.46387933296631
 20
172.4892133082368
 30
0.0
 11
384.46387933296631
 21
180.9892133082368
 31
0.0
  0
LINE
  5
4BF
  8
寸法
 62
     0
 10
221.46387933296629
 20
172.4892133082368
 30
0.0
 11
221.46387933296629
 21
180.9892133082368
 31
0.0
  0
LINE
  5
4C0
  8
寸法
 62
     0
 10
382.46387933296631
 20
180.48921330823671
 30
0.0
 11
223.46387933296629
 21
180.48921330823671
 31
0.0
  0
SOLID
  5
4C1
  8
寸法
 62
     0
 10
382.46387933296631
 20
180.82254664157011
 30
0.0
 11
382.46387933296631
 21
180.1558799749034
 31
0.0
 12
384.46387933296631
 22
180.48921330823671
 32
0.0
 13
384.46387933296631
 23
180.48921330823671
 33
0.0
  0
SOLID
  5
4C2
  8
寸法
 62
     0
 10
223.46387933296629
 20
180.82254664157011
 30
0.0
 11
223.46387933296629
 21
180.1558799749034
 31
0.0
 12
221.46387933296629
 22
180.48921330823671
 32
0.0
 13
221.46387933296629
 23
180.48921330823671
 33
0.0
  0
TEXT
  8
0
  40
2.5
  5
510
  62
0
  72
0
  71
0
 10
302.964
 20
179.239
 30
0.000000
  1
163
  0
POINT
  5
4C4
  8
DEFPOINTS
 62
     0
 10
384.46387933296631
 20
170.4892133082368
 30
0.0
  0
POINT
  5
4C5
  8
DEFPOINTS
 62
     0
 10
221.46387933296629
 20
170.4892133082368
 30
0.0
  0
POINT
  5
4C6
  8
DEFPOINTS
 62
     0
 10
221.46387933296629
 20
180.48921330823671
 30
0.0
  0
ENDBLK
  5
364
  8
0
  0
BLOCK
  8
0
  2
*D4
 70
     1
 10
0.0
 20
0.0
 30
0.0
  3
*D4
  1

  0
LINE
  5
4C7
  8
寸法
 62
     0
 10
219.46387933296629
 20
170.4892133082368
 30
0.0
 11
210.96387933296629
 21
170.4892133082368
 31
0.0
  0
LINE
  5
4C8
  8
寸法
 62
     0
 10
219.46387933296629
 20
119.4892133082368
 30
0.0
 11
210.96387933296629
 21
119.4892133082368
 31
0.0
  0
LINE
  5
4C9
  8
寸法
 62
     0
 10
211.46387933296629
 20
168.4892133082368
 30
0.0
 11
211.46387933296629
 21
121.4892133082368
 31
0.0
  0
SOLID
  5
4CA
  8
寸法
 62
     0
 10
211.130545999633
 20
168.4892133082368
 30
0.0
 11
211.79721266629971
 21
168.4892133082368
 31
0.0
 12
211.46387933296629
 22
170.4892133082368
 32
0.0
 13
211.46387933296629
 23
170.4892133082368
 33
0.0
  0
SOLID
  5
4CB
  8
寸法
 62
     0
 10
211.130545999633
 20
121.4892133082368
 30
0.0
 11
211.79721266629971
 21
121.4892133082368
 31
0.0
 12
211.46387933296629
 22
119.4892133082368
 32
0.0
 13
211.46387933296629
 23
119.4892133082368
 33
0.0
  0
TEXT
  8
0
  40
2.5
  5
511
  62
0
  72
0
  71
0
 10
209.464
 20
141.739
 30
0.000000
  1
51
  0
POINT
  5
4CD
  8
DEFPOINTS
 62
     0
 10
221.46387933296629
 20
170.4892133082368
 30
0.0
  0
POINT
  5
4CE
  8
DEFPOINTS
 62
     0
 10
221.46387933296629
 20
119.4892133082368
 30
0.0
  0
POINT
  5
4CF
  8
DEFPOINTS
 62
     0
 10
211.46387933296629
 20
119.4892133082368
 30
0.0
  0
ENDBLK
  5
370
  8
0
  0
BLOCK
  8
0
  2
*D5
 70
     1
 10
0.0
 20
0.0
 30
0.0
  3
*D5
  1

  0
LINE
  5
4D5
  8
寸法
 62
     0
 10
279.46387933296631
 20
239.4892133082368
 30
0.0
 11
279.46387933296631
 21
264.9892133082368
 31
0.0
  0
LINE
  5
4D6
  8
寸法
 62
     0
 10
221.46387933296629
 20
256.4892133082368
 30
0.0
 11
221.46387933296629
 21
264.9892133082368
 31
0.0
  0
LINE
  5
4D7
  8
寸法
 62
     0
 10
277.46387933296631
 20
264.4892133082368
 30
0.0
 11
223.46387933296629
 21
264.4892133082368
 31
0.0
  0
SOLID
  5
4D8
  8
寸法
 62
     0
 10
277.46387933296631
 20
264.82254664157011
 30
0.0
 11
277.46387933296631
 21
264.15587997490343
 31
0.0
 12
279.46387933296631
 22
264.4892133082368
 32
0.0
 13
279.46387933296631
 23
264.4892133082368
 33
0.0
  0
SOLID
  5
4D9
  8
寸法
 62
     0
 10
223.46387933296629
 20
264.82254664157011
 30
0.0
 11
223.46387933296629
 21
264.15587997490343
 31
0.0
 12
221.46387933296629
 22
264.4892133082368
 32
0.0
 13
221.46387933296629
 23
264.4892133082368
 33
0.0
  0
TEXT
  8
0
  40
2.5
  5
512
  62
0
  72
0
  71
0
 10
250.464
 20
263.239
 30
0.000000
  1
58
  0
POINT
  5
4DB
  8
DEFPOINTS
 62
     0
 10
279.46387933296631
 20
237.4892133082368
 30
0.0
  0
POINT
  5
4DC
  8
DEFPOINTS
 62
     0
 10
221.46387933296629
 20
254.4892133082368
 30
0.0
  0
POINT
  5
4DD
  8
DEFPOINTS
 62
     0
 10
221.46387933296629
 20
264.4892133082368
 30
0.0
  0
ENDBLK
  5
3B8
  8
0
  0
BLOCK
  8
0
  2
*D6
 70
     1
 10
0.0
 20
0.0
 30
0.0
  3
*D6
  1

  0
LINE
  5
4E7
  8
寸法
 62
     0
 10
432.46387933296631
 20
170.4892133082368
 30
0.0
 11
423.96387933296643
 21
170.4892133082368
 31
0.0
  0
LINE
  5
4E8
  8
寸法
 62
     0
 10
432.46387933296631
 20
119.4892133082368
 30
0.0
 11
423.96387933296631
 21
119.4892133082368
 31
0.0
  0
LINE
  5
4E9
  8
寸法
 62
     0
 10
424.46387933296643
 20
168.4892133082368
 30
0.0
 11
424.46387933296631
 21
121.4892133082368
 31
0.0
  0
SOLID
  5
4EA
  8
寸法
 62
     0
 10
424.13054599963311
 20
168.4892133082368
 30
0.0
 11
424.79721266629969
 21
168.4892133082368
 31
0.0
 12
424.46387933296643
 22
170.4892133082368
 32
0.0
 13
424.46387933296643
 23
170.4892133082368
 33
0.0
  0
SOLID
  5
4EB
  8
寸法
 62
     0
 10
424.130545999633
 20
121.4892133082368
 30
0.0
 11
424.79721266629969
 21
121.4892133082368
 31
0.0
 12
424.46387933296631
 22
119.4892133082368
 32
0.0
 13
424.46387933296631
 23
119.4892133082368
 33
0.0
  0
TEXT
  8
0
  40
2.5
  5
513
  62
0
  72
0
  71
0
 10
422.464
 20
141.739
 30
0.000000
  1
51
  0
POINT
  5
4ED
  8
DEFPOINTS
 62
     0
 10
434.46387933296631
 20
170.4892133082368
 30
0.0
  0
POINT
  5
4EE
  8
DEFPOINTS
 62
     0
 10
434.46387933296631
 20
119.4892133082368
 30
0.0
  0
POINT
  5
4EF
  8
DEFPOINTS
 62
     0
 10
424.46387933296631
 20
119.4892133082368
 30
0.0
  0
ENDBLK
  5
3E1
  8
0
  0
BLOCK
  8
0
  2
*D7
 70
     1
 10
0.0
 20
0.0
 30
0.0
  3
*D7
  1

  0
LINE
  5
4DE
  8
寸法
 62
     0
 10
468.46387933296631
 20
172.4892133082368
 30
0.0
 11
468.46387933296631
 21
180.9892133082368
 31
0.0
  0
LINE
  5
4DF
  8
寸法
 62
     0
 10
434.46387933296631
 20
172.4892133082368
 30
0.0
 11
434.46387933296631
 21
180.9892133082368
 31
0.0
  0
LINE
  5
4E0
  8
寸法
 62
     0
 10
466.46387933296643
 20
180.48921330823671
 30
0.0
 11
436.46387933296631
 21
180.48921330823671
 31
0.0
  0
SOLID
  5
4E1
  8
寸法
 62
     0
 10
466.46387933296643
 20
180.82254664157011
 30
0.0
 11
466.46387933296643
 21
180.1558799749034
 31
0.0
 12
468.46387933296631
 22
180.48921330823671
 32
0.0
 13
468.46387933296631
 23
180.48921330823671
 33
0.0
  0
SOLID
  5
4E2
  8
寸法
 62
     0
 10
436.46387933296631
 20
180.82254664157011
 30
0.0
 11
436.46387933296631
 21
180.1558799749034
 31
0.0
 12
434.46387933296631
 22
180.48921330823671
 32
0.0
 13
434.46387933296631
 23
180.48921330823671
 33
0.0
  0
TEXT
  8
0
  40
2.5
  5
514
  62
0
  72
0
  71
0
 10
451.464
 20
179.239
 30
0.000000
  1
34
  0
POINT
  5
4E4
  8
DEFPOINTS
 62
     0
 10
468.46387933296631
 20
170.4892133082368
 30
0.0
  0
POINT
  5
4E5
  8
DEFPOINTS
 62
     0
 10
434.46387933296631
 20
170.4892133082368
 30
0.0
  0
POINT
  5
4E6
  8
DEFPOINTS
 62
     0
 10
434.46387933296631
 20
180.48921330823671
 30
0.0
  0
ENDBLK
  5
3ED
  8
0
  0
ENDSEC
  0
SECTION
  2
ENTITIES
  0
POLYLINE
  5
2A2
  8
0
 62
     5
 66
     1
 10
0.0
 20
0.0
 30
0.0
 70
     1
  0
VERTEX
  5
471
  8
0
 62
     5
 10
221.46387933296629
 20
119.4892133082368
 30
0.0
  0
VERTEX
  5
472
  8
0
 62
     5
 10
384.46387933296631
 20
119.4892133082368
 30
0.0
  0
VERTEX
  5
473
  8
0
 62
     5
 10
384.46387933296631
 20
170.4892133082368
 30
0.0
  0
VERTEX
  5
474
  8
0
 62
     5
 10
221.46387933296629
 20
170.4892133082368
 30
0.0
  0
SEQEND
  5
475
  8
0
 62
     5
  0
ARC
  5
2A3
  8
0
 62
     5
 10
225.46387933296629
 20
166.4892133082368
 30
0.0
 40
4.0
 50
90.0
 51
180.0
  0
ARC
  5
2A4
  8
0
 62
     5
 10
380.46387933296631
 20
166.4892133082368
 30
0.0
 40
4.0
 50
0.0
 51
90.0
  0
ARC
  5
2A5
  8
0
 62
     5
 10
225.46387933296629
 20
123.4892133082368
 30
0.0
 40
4.0
 50
180.0
 51
270.0
  0
ARC
  5
2A6
  8
0
 62
     5
 10
380.46387933296631
 20
123.4892133082368
 30
0.0
 40
4.0
 50
270.0
 51
0.0
  0
POLYLINE
  5
2A7
  8
0
 62
     5
 66
     1
 10
0.0
 20
0.0
 30
0.0
  0
VERTEX
  5
476
  8
0
 62
     5
 10
242.46387933296629
 20
244.4892133082368
 30
0.0
  0
VERTEX
  5
477
  8
0
 62
     5
 10
222.0638793329662
 20
244.4892133082368
 30
0.0
  0
SEQEND
  5
478
  8
0
 62
     5
  0
ARC
  5
2A8
  8
0
 62
     5
 10
380.46387933296631
 20
250.4892133082368
 30
0.0
 40
4.0
 50
0.000000000000007
 51
90.0
  0
ARC
  5
2A9
  8
0
 62
     5
 10
225.46387933296629
 20
250.4892133082368
 30
0.0
 40
4.0
 50
90.0
 51
180.0
  0
POLYLINE
  5
2AA
  8
0
 62
     5
 66
     1
 10
0.0
 20
0.0
 30
0.0
  0
VERTEX
  5
479
  8
0
 62
     5
 10
242.46387933296629
 20
244.4892133082368
 30
0.0
  0
VERTEX
  5
47A
  8
0
 62
     5
 10
242.46387933296629
 20
244.4892133082368
 30
0.0
 42
-0.4142135623730951
  0
VERTEX
  5
47B
  8
0
 62
     5
 10
247.46387933296629
 20
249.48921330823671
 30
0.0
  0
VERTEX
  5
47C
  8
0
 62
     5
 10
310.46387933296648
 20
249.48921330823671
 30
0.0
 42
-0.4142135623730951
  0
VERTEX
  5
47D
  8
0
 62
     5
 10
315.4638793329666
 20
244.4892133082368
 30
0.0
  0
VERTEX
  5
47E
  8
0
 62
     5
 10
315.46387933296631
 20
244.4892133082368
 30
0.0
  0
SEQEND
  5
47F
  8
0
 62
     5
  0
POLYLINE
  5
2AB
  8
0
 62
     5
 66
     1
 10
0.0
 20
0.0
 30
0.0
  0
VERTEX
  5
480
  8
0
 62
     5
 10
222.0638793329662
 20
244.4892133082368
 30
0.0
  0
VERTEX
  5
481
  8
0
 62
     5
 10
222.0638793329662
 20
238.4892133082368
 30
0.0
  0
VERTEX
  5
482
  8
0
 62
     5
 10
221.46387933296629
 20
238.4892133082368
 30
0.0
  0
VERTEX
  5
483
  8
0
 62
     5
 10
221.46387933296629
 20
244.4892133082368
 30
0.0
  0
SEQEND
  5
484
  8
0
 62
     5
  0
POLYLINE
  5
2AC
  8
0
 62
     5
 66
     1
 10
0.0
 20
0.0
 30
0.0
  0
VERTEX
  5
485
  8
0
 62
     5
 10
221.46387933296629
 20
244.4892133082368
 30
0.0
  0
VERTEX
  5
486
  8
0
 62
     5
 10
221.46387933296629
 20
254.4892133082368
 30
0.0
  0
VERTEX
  5
487
  8
0
 62
     5
 10
384.46387933296631
 20
254.4892133082368
 30
0.0
  0
VERTEX
  5
488
  8
0
 62
     5
 10
384.46387933296631
 20
244.4892133082368
 30
0.0
  0
VERTEX
  5
489
  8
0
 62
     5
 10
315.46387933296631
 20
244.4892133082368
 30
0.0
  0
SEQEND
  5
48A
  8
0
 62
     5
  0
POLYLINE
  5
2AD
  8
0
 62
     5
 66
     1
 10
0.0
 20
0.0
 30
0.0
  0
VERTEX
  5
48B
  8
0
 62
     5
 10
242.46387933296629
 20
230.48921330823671
 30
0.0
  0
VERTEX
  5
48C
  8
0
 62
     5
 10
222.0638793329662
 20
230.48921330823671
 30
0.0
  0
SEQEND
  5
48D
  8
0
 62
     5
  0
ARC
  5
2AE
  8
0
 62
     5
 10
380.46387933296631
 20
224.48921330823671
 30
0.0
 40
4.0
 50
270.0
 51
0.000000000000007
  0
ARC
  5
2AF
  8
0
 62
     5
 10
225.46387933296629
 20
224.48921330823671
 30
0.0
 40
4.0
 50
180.0
 51
270.0
  0
POLYLINE
  5
2B0
  8
0
 62
     5
 66
     1
 10
0.0
 20
0.0
 30
0.0
  0
VERTEX
  5
48E
  8
0
 62
     5
 10
242.46387933296629
 20
230.48921330823671
 30
0.0
  0
VERTEX
  5
48F
  8
0
 62
     5
 10
242.46387933296629
 20
230.48921330823671
 30
0.0
 42
0.4142135623730951
  0
VERTEX
  5
490
  8
0
 62
     5
 10
247.46387933296629
 20
225.4892133082368
 30
0.0
  0
VERTEX
  5
491
  8
0
 62
     5
 10
310.46387933296648
 20
225.4892133082368
 30
0.0
 42
0.4142135623730951
  0
VERTEX
  5
492
  8
0
 62
     5
 10
315.4638793329666
 20
230.48921330823671
 30
0.0
  0
VERTEX
  5
493
  8
0
 62
     5
 10
315.46387933296631
 20
230.48921330823671
 30
0.0
  0
SEQEND
  5
494
  8
0
 62
     5
  0
POLYLINE
  5
2B1
  8
0
 62
     5
 66
     1
 10
0.0
 20
0.0
 30
0.0
  0
VERTEX
  5
495
  8
0
 62
     5
 10
222.0638793329662
 20
230.48921330823671
 30
0.0
  0
VERTEX
  5
496
  8
0
 62
     5
 10
222.0638793329662
 20
236.4892133082368
 30
0.0
  0
VERTEX
  5
497
  8
0
 62
     5
 10
221.46387933296629
 20
236.4892133082368
 30
0.0
  0
VERTEX
  5
498
  8
0
 62
     5
 10
221.46387933296629
 20
230.48921330823671
 30
0.0
  0
SEQEND
  5
499
  8
0
 62
     5
  0
POLYLINE
  5
2B2
  8
0
 62
     5
 66
     1
 10
0.0
 20
0.0
 30
0.0
  0
VERTEX
  5
49A
  8
0
 62
     5
 10
221.46387933296629
 20
230.48921330823671
 30
0.0
  0
VERTEX
  5
49B
  8
0
 62
     5
 10
221.46387933296629
 20
220.48921330823671
 30
0.0
  0
VERTEX
  5
49C
  8
0
 62
     5
 10
384.46387933296631
 20
220.48921330823671
 30
0.0
  0
VERTEX
  5
49D
  8
0
 62
     5
 10
384.46387933296631
 20
230.48921330823671
 30
0.0
  0
VERTEX
  5
49E
  8
0
 62
     5
 10
315.46387933296631
 20
230.48921330823671
 30
0.0
  0
SEQEND
  5
49F
  8
0
 62
     5
  0
LINE
  5
2B3
  8
0
 62
     5
 10
344.46387933296631
 20
244.4892133082368
 30
0.0
 11
344.46387933296631
 21
230.48921330823671
 31
0.0
  0
LINE
  5
2B4
  8
0
 62
     5
 10
224.46387933296629
 20
244.4892133082368
 30
0.0
 11
224.46387933296629
 21
230.48921330823671
 31
0.0
  0
CIRCLE
  5
2B5
  8
0
 62
     5
 10
279.46387933296631
 20
237.4892133082368
 30
0.0
 40
7.5
  0
ARC
  5
2B6
  8
0
 62
     5
 10
464.46387933296631
 20
166.4892133082368
 30
0.0
 40
4.0
 50
0.0
 51
90.0
  0
ARC
  5
2B7
  8
0
 62
     5
 10
464.46387933296631
 20
123.4892133082368
 30
0.0
 40
4.0
 50
270.0
 51
0.0
  0
POLYLINE
  5
2B8
  8
0
 62
     5
 66
     1
 10
0.0
 20
0.0
 30
0.0
  0
VERTEX
  5
4A0
  8
0
 62
     5
 10
458.46387933296643
 20
119.4892133082368
 30
0.0
  0
VERTEX
  5
4A1
  8
0
 62
     5
 10
468.46387933296631
 20
119.4892133082368
 30
0.0
  0
VERTEX
  5
4A2
  8
0
 62
     5
 10
468.46387933296631
 20
170.4892133082368
 30
0.0
  0
VERTEX
  5
4A3
  8
0
 62
     5
 10
458.46387933296643
 20
170.4892133082368
 30
0.0
  0
VERTEX
  5
4A4
  8
0
 62
     5
 10
458.46387933296643
 20
119.4892133082368
 30
0.0
  0
SEQEND
  5
4A5
  8
0
 62
     5
  0
ARC
  5
2B9
  8
0
 62
     5
 10
438.46387933296631
 20
166.4892133082368
 30
0.0
 40
4.0
 50
90.0
 51
180.0
  0
ARC
  5
2BA
  8
0
 62
     5
 10
438.46387933296631
 20
123.4892133082368
 30
0.0
 40
4.0
 50
180.0
 51
270.0
  0
POLYLINE
  5
2BB
  8
0
 62
     5
 66
     1
 10
0.0
 20
0.0
 30
0.0
  0
VERTEX
  5
4A6
  8
0
 62
     5
 10
444.46387933296631
 20
119.4892133082368
 30
0.0
  0
VERTEX
  5
4A7
  8
0
 62
     5
 10
434.46387933296631
 20
119.4892133082368
 30
0.0
  0
VERTEX
  5
4A8
  8
0
 62
     5
 10
434.46387933296631
 20
170.4892133082368
 30
0.0
  0
VERTEX
  5
4A9
  8
0
 62
     5
 10
444.46387933296631
 20
170.4892133082368
 30
0.0
  0
VERTEX
  5
4AA
  8
0
 62
     5
 10
444.46387933296631
 20
119.4892133082368
 30
0.0
  0
SEQEND
  5
4AB
  8
0
 62
     5
  0
LINE
  5
2BC
  8
0
 62
     5
 10
444.46387933296631
 20
168.4892133082368
 30
0.0
 11
458.46387933296643
 21
168.4892133082368
 31
0.0
  0
LINE
  5
2BD
  8
0
 62
     5
 10
444.46387933296631
 20
129.48921330823671
 30
0.0
 11
458.46387933296643
 21
129.48921330823671
 31
0.0
  0
LINE
  5
2BE
  8
0
 62
     5
 10
444.46387933296631
 20
141.98921330823671
 30
0.0
 11
458.46387933296643
 21
141.98921330823671
 31
0.0
  0
DIMENSION
  5
2DA
  8
寸法
  2
*D1
 10
221.46387933296629
 20
274.48921330823669
 30
0.0
 11
302.96387933296631
 21
276.48921330823669
 31
0.0
 70
     0
 13
384.46387933296631
 23
254.4892133082368
 33
0.0
 14
221.46387933296629
 24
254.4892133082368
 34
0.0
1001
ACAD
1000
DSTYLE
1002
{
1070
   287
1070
     4
1070
   279
1070
     1
1002
}
  0
DIMENSION
  5
326
  8
寸法
  2
*D2
 10
211.46387933296629
 20
220.48921330823671
 30
0.0
 11
209.46387933296629
 21
237.4892133082368
 31
0.0
 70
     0
 13
221.46387933296629
 23
254.4892133082368
 33
0.0
 14
221.46387933296629
 24
220.48921330823671
 34
0.0
 50
90.0
1001
ACAD
1000
DSTYLE
1002
{
1070
   287
1070
     4
1070
   279
1070
     1
1002
}
  0
DIMENSION
  5
357
  8
寸法
  2
*D3
 10
221.46387933296629
 20
180.48921330823671
 30
0.0
 11
302.96387933296631
 21
182.4892133082368
 31
0.0
 70
     0
 13
384.46387933296631
 23
170.4892133082368
 33
0.0
 14
221.46387933296629
 24
170.4892133082368
 34
0.0
1001
ACAD
1000
DSTYLE
1002
{
1070
   287
1070
     4
1070
   279
1070
     1
1002
}
  0
DIMENSION
  5
358
  8
寸法
  2
*D4
 10
211.46387933296629
 20
119.4892133082368
 30
0.0
 11
209.46387933296629
 21
144.9892133082368
 31
0.0
 70
     0
 13
221.46387933296629
 23
170.4892133082368
 33
0.0
 14
221.46387933296629
 24
119.4892133082368
 34
0.0
 50
90.0
1001
ACAD
1000
DSTYLE
1002
{
1070
   287
1070
     4
1070
   279
1070
     1
1002
}
  0
POLYLINE
  5
395
  8
0
 66
     1
 10
0.0
 20
0.0
 30
0.0
 70
     1
  0
VERTEX
  5
4D0
  8
0
 10
268.46387933296631
 20
226.48921330823671
 30
0.0
  0
VERTEX
  5
4D1
  8
0
 10
290.46387933296631
 20
226.48921330823671
 30
0.0
  0
VERTEX
  5
4D2
  8
0
 10
290.46387933296631
 20
248.4892133082368
 30
0.0
  0
VERTEX
  5
4D3
  8
0
 10
268.46387933296631
 20
248.4892133082368
 30
0.0
  0
SEQEND
  5
4D4
  8
0
  0
DIMENSION
  5
3AC
  8
寸法
  2
*D5
 10
221.46387933296629
 20
264.4892133082368
 30
0.0
 11
250.46387933296629
 21
266.48921330823669
 31
0.0
 70
     0
 13
279.46387933296631
 23
237.4892133082368
 33
0.0
 14
221.46387933296629
 24
254.4892133082368
 34
0.0
1001
ACAD
1000
DSTYLE
1002
{
1070
   287
1070
     4
1070
   279
1070
     1
1002
}
  0
DIMENSION
  5
3D4
  8
寸法
  2
*D7
 10
434.46387933296631
 20
180.48921330823671
 30
0.0
 11
451.46387933296631
 21
182.4892133082368
 31
0.0
 70
     0
 13
468.46387933296631
 23
170.4892133082368
 33
0.0
 14
434.46387933296631
 24
170.4892133082368
 34
0.0
1001
ACAD
1000
DSTYLE
1002
{
1070
   287
1070
     4
1070
   279
1070
     1
1002
}
  0
DIMENSION
  5
3D5
  8
寸法
  2
*D6
 10
424.46387933296631
 20
119.4892133082368
 30
0.0
 11
422.46387933296631
 21
144.9892133082368
 31
0.0
 70
     0
 13
434.46387933296631
 23
170.4892133082368
 33
0.0
 14
434.46387933296631
 24
119.4892133082368
 34
0.0
 50
90.0
1001
ACAD
1000
DSTYLE
1002
{
1070
   287
1070
     4
1070
   279
1070
     1
1002
}
  0
POLYLINE
  5
436
  8
0
 62
     5
 66
     1
 10
0.0
 20
0.0
 30
0.0
 70
     1
  0
VERTEX
  5
4F0
  8
0
 62
     5
 10
384.46387933296631
 20
147.98921330823671
 30
0.0
  0
VERTEX
  5
4F1
  8
0
 62
     5
 10
385.46387933296631
 20
147.98921330823671
 30
0.0
  0
VERTEX
  5
4F2
  8
0
 62
     5
 10
385.46387933296631
 20
150.9892133082368
 30
0.0
  0
VERTEX
  5
4F3
  8
0
 62
     5
 10
384.46387933296631
 20
150.9892133082368
 30
0.0
  0
SEQEND
  5
4F4
  8
0
 62
     5
  0
POLYLINE
  5
437
  8
0
 62
     5
 66
     1
 10
0.0
 20
0.0
 30
0.0
 70
     1
  0
VERTEX
  5
4F5
  8
0
 62
     5
 10
221.46387933296629
 20
147.98921330823671
 30
0.0
  0
VERTEX
  5
4F6
  8
0
 62
     5
 10
220.46387933296629
 20
147.98921330823671
 30
0.0
  0
VERTEX
  5
4F7
  8
0
 62
     5
 10
220.46387933296629
 20
150.9892133082368
 30
0.0
  0
VERTEX
  5
4F8
  8
0
 62
     5
 10
221.46387933296629
 20
150.9892133082368
 30
0.0
  0
SEQEND
  5
4F9
  8
0
 62
     5
  0
CIRCLE
  5
438
  8
0
 62
     5
 10
439.46387933296631
 20
149.4892133082368
 30
0.0
 40
1.5
  0
CIRCLE
  5
439
  8
0
 62
     5
 10
463.46387933296631
 20
149.4892133082368
 30
0.0
 40
1.5
  0
POLYLINE
  5
43A
  8
0
 62
     5
 66
     1
 10
0.0
 20
0.0
 30
0.0
 70
     1
  0
VERTEX
  5
4FA
  8
0
 62
     5
 10
384.46387933296631
 20
223.9892133082368
 30
0.0
  0
VERTEX
  5
4FB
  8
0
 62
     5
 10
385.46387933296631
 20
223.9892133082368
 30
0.0
  0
VERTEX
  5
4FC
  8
0
 62
     5
 10
385.46387933296631
 20
226.9892133082368
 30
0.0
  0
VERTEX
  5
4FD
  8
0
 62
     5
 10
384.46387933296631
 20
226.9892133082368
 30
0.0
  0
SEQEND
  5
4FE
  8
0
 62
     5
  0
POLYLINE
  5
43B
  8
0
 62
     5
 66
     1
 10
0.0
 20
0.0
 30
0.0
 70
     1
  0
VERTEX
  5
4FF
  8
0
 62
     5
 10
384.46387933296631
 20
250.9892133082368
 30
0.0
  0
VERTEX
  5
500
  8
0
 62
     5
 10
385.46387933296631
 20
250.9892133082368
 30
0.0
  0
VERTEX
  5
501
  8
0
 62
     5
 10
385.46387933296631
 20
247.9892133082368
 30
0.0
  0
VERTEX
  5
502
  8
0
 62
     5
 10
384.46387933296631
 20
247.9892133082368
 30
0.0
  0
SEQEND
  5
503
  8
0
 62
     5
  0
POLYLINE
  5
43C
  8
0
 62
     5
 66
     1
 10
0.0
 20
0.0
 30
0.0
 70
     1
  0
VERTEX
  5
504
  8
0
 62
     5
 10
221.46387933296629
 20
223.9892133082368
 30
0.0
  0
VERTEX
  5
505
  8
0
 62
     5
 10
220.46387933296629
 20
223.9892133082368
 30
0.0
  0
VERTEX
  5
506
  8
0
 62
     5
 10
220.46387933296629
 20
226.9892133082368
 30
0.0
  0
VERTEX
  5
507
  8
0
 62
     5
 10
221.46387933296629
 20
226.9892133082368
 30
0.0
  0
SEQEND
  5
508
  8
0
 62
     5
  0
POLYLINE
  5
43D
  8
0
 62
     5
 66
     1
 10
0.0
 20
0.0
 30
0.0
 70
     1
  0
VERTEX
  5
509
  8
0
 62
     5
 10
221.46387933296629
 20
250.9892133082368
 30
0.0
  0
VERTEX
  5
50A
  8
0
 62
     5
 10
220.46387933296629
 20
250.9892133082368
 30
0.0
  0
VERTEX
  5
50B
  8
0
 62
     5
 10
220.46387933296629
 20
247.9892133082368
 30
0.0
  0
VERTEX
  5
50C
  8
0
 62
     5
 10
221.46387933296629
 20
247.9892133082368
 30
0.0
  0
SEQEND
  5
50D
  8
0
 62
     5
  0
ENDSEC
  0
EOF
