  0
SECTION
  2
HEADER
  9
$ACADVER
  1
AC1015
  9
$ACADMAINTVER
 70
     6
  9
$DWGCODEPAGE
  3
ANSI_932
  9
$INSBASE
 10
0.0
 20
0.0
 30
0.0
  9
$EXTMIN
 10
-20.45517266198225
 20
35.87935990568585
 30
0.0
  9
$EXTMAX
 10
236.5448273380177
 20
228.0312137316793
 30
0.0
  9
$LIMMIN
 10
0.0
 20
0.0
  9
$LIMMAX
 10
4200.0
 20
2970.0
  9
$ORTHOMODE
 70
     0
  9
$REGENMODE
 70
     1
  9
$FILLMODE
 70
     1
  9
$QTEXTMODE
 70
     0
  9
$MIRRTEXT
 70
     1
  9
$LTSCALE
 40
1.0
  9
$ATTMODE
 70
     1
  9
$TEXTSIZE
 40
2.5
  9
$TRACEWID
 40
1.0
  9
$TEXTSTYLE
  7
Standard
  9
$CLAYER
  8
0
  9
$CELTYPE
  6
ByLayer
  9
$CECOLOR
 62
   256
  9
$CELTSCALE
 40
1.0
  9
$DISPSILH
 70
     0
  9
$DIMSCALE
 40
1.0
  9
$DIMASZ
 40
2.0
  9
$DIMEXO
 40
2.0
  9
$DIMDLI
 40
3.75
  9
$DIMRND
 40
0.0
  9
$DIMDLE
 40
0.0
  9
$DIMEXE
 40
0.5
  9
$DIMTP
 40
0.0
  9
$DIMTM
 40
0.0
  9
$DIMTXT
 40
2.5
  9
$DIMCEN
 40
2.0
  9
$DIMTSZ
 40
0.0
  9
$DIMTOL
 70
     0
  9
$DIMLIM
 70
     0
  9
$DIMTIH
 70
     0
  9
$DIMTOH
 70
     0
  9
$DIMSE1
 70
     0
  9
$DIMSE2
 70
     0
  9
$DIMTAD
 70
     1
  9
$DIMZIN
 70
     8
  9
$DIMBLK
  1

  9
$DIMASO
 70
     1
  9
$DIMSHO
 70
     1
  9
$DIMPOST
  1

  9
$DIMAPOST
  1

  9
$DIMALT
 70
     0
  9
$DIMALTD
 70
     3
  9
$DIMALTF
 40
0.03937007874016
  9
$DIMLFAC
 40
1.0
  9
$DIMTOFL
 70
     1
  9
$DIMTVP
 40
0.0
  9
$DIMTIX
 70
     1
  9
$DIMSOXD
 70
     1
  9
$DIMSAH
 70
     0
  9
$DIMBLK1
  1

  9
$DIMBLK2
  1

  9
$DIMSTYLE
  2
ISO-25 1／10
  9
$DIMCLRD
 70
     0
  9
$DIMCLRE
 70
     0
  9
$DIMCLRT
 70
     0
  9
$DIMTFAC
 40
1.0
  9
$DIMGAP
 40
0.75
  9
$DIMJUST
 70
     0
  9
$DIMSD1
 70
     0
  9
$DIMSD2
 70
     0
  9
$DIMTOLJ
 70
     0
  9
$DIMTZIN
 70
     8
  9
$DIMALTZ
 70
     0
  9
$DIMALTTZ
 70
     0
  9
$DIMUPT
 70
     0
  9
$DIMDEC
 70
     2
  9
$DIMTDEC
 70
     2
  9
$DIMALTU
 70
     2
  9
$DIMALTTD
 70
     3
  9
$DIMTXSTY
  7
Standard
  9
$DIMAUNIT
 70
     0
  9
$DIMADEC
 70
     0
  9
$DIMALTRND
 40
0.0
  9
$DIMAZIN
 70
     0
  9
$DIMDSEP
 70
    46
  9
$DIMATFIT
 70
     3
  9
$DIMFRAC
 70
     0
  9
$DIMLDRBLK
  1

  9
$DIMLUNIT
 70
     2
  9
$DIMLWD
 70
    -2
  9
$DIMLWE
 70
    -2
  9
$DIMTMOVE
 70
     0
  9
$LUNITS
 70
     2
  9
$LUPREC
 70
     4
  9
$SKETCHINC
 40
1.0
  9
$FILLETRAD
 40
7.5
  9
$AUNITS
 70
     0
  9
$AUPREC
 70
     0
  9
$MENU
  1
.
  9
$ELEVATION
 40
0.0
  9
$PELEVATION
 40
0.0
  9
$THICKNESS
 40
0.0
  9
$LIMCHECK
 70
     0
  9
$CHAMFERA
 40
0.4
  9
$CHAMFERB
 40
0.4
  9
$CHAMFERC
 40
20.0
  9
$CHAMFERD
 40
0.0
  9
$SKPOLY
 70
     0
  9
$TDCREATE
 40
2458285.470922916
  9
$TDUCREATE
 40
2458285.095922916
  9
$TDUPDATE
 40
2460406.410108102
  9
$TDUUPDATE
 40
2460406.035108102
  9
$TDINDWG
 40
0.6774617708
  9
$TDUSRTIMER
 40
0.6774617708
  9
$USRTIMER
 70
     1
  9
$ANGBASE
 50
0.0
  9
$ANGDIR
 70
     0
  9
$PDMODE
 70
     0
  9
$PDSIZE
 40
0.0
  9
$PLINEWID
 40
0.0
  9
$SPLFRAME
 70
     0
  9
$SPLINETYPE
 70
     6
  9
$SPLINESEGS
 70
     8
  9
$HANDSEED
  5
15FC9
  9
$SURFTAB1
 70
     6
  9
$SURFTAB2
 70
     6
  9
$SURFTYPE
 70
     6
  9
$SURFU
 70
     6
  9
$SURFV
 70
     6
  9
$UCSBASE
  2

  9
$UCSNAME
  2

  9
$UCSORG
 10
0.0
 20
0.0
 30
0.0
  9
$UCSXDIR
 10
1.0
 20
0.0
 30
0.0
  9
$UCSYDIR
 10
0.0
 20
1.0
 30
0.0
  9
$UCSORTHOREF
  2

  9
$UCSORTHOVIEW
 70
     0
  9
$UCSORGTOP
 10
0.0
 20
0.0
 30
0.0
  9
$UCSORGBOTTOM
 10
0.0
 20
0.0
 30
0.0
  9
$UCSORGLEFT
 10
0.0
 20
0.0
 30
0.0
  9
$UCSORGRIGHT
 10
0.0
 20
0.0
 30
0.0
  9
$UCSORGFRONT
 10
0.0
 20
0.0
 30
0.0
  9
$UCSORGBACK
 10
0.0
 20
0.0
 30
0.0
  9
$PUCSBASE
  2

  9
$PUCSNAME
  2

  9
$PUCSORG
 10
0.0
 20
0.0
 30
0.0
  9
$PUCSXDIR
 10
1.0
 20
0.0
 30
0.0
  9
$PUCSYDIR
 10
0.0
 20
1.0
 30
0.0
  9
$PUCSORTHOREF
  2

  9
$PUCSORTHOVIEW
 70
     0
  9
$PUCSORGTOP
 10
0.0
 20
0.0
 30
0.0
  9
$PUCSORGBOTTOM
 10
0.0
 20
0.0
 30
0.0
  9
$PUCSORGLEFT
 10
0.0
 20
0.0
 30
0.0
  9
$PUCSORGRIGHT
 10
0.0
 20
0.0
 30
0.0
  9
$PUCSORGFRONT
 10
0.0
 20
0.0
 30
0.0
  9
$PUCSORGBACK
 10
0.0
 20
0.0
 30
0.0
  9
$USERI1
 70
     0
  9
$USERI2
 70
     0
  9
$USERI3
 70
     0
  9
$USERI4
 70
     0
  9
$USERI5
 70
     0
  9
$USERR1
 40
0.0
  9
$USERR2
 40
0.0
  9
$USERR3
 40
0.0
  9
$USERR4
 40
0.0
  9
$USERR5
 40
0.0
  9
$WORLDVIEW
 70
     1
  9
$SHADEDGE
 70
     3
  9
$SHADEDIF
 70
    70
  9
$TILEMODE
 70
     1
  9
$MAXACTVP
 70
    64
  9
$PINSBASE
 10
0.0
 20
0.0
 30
0.0
  9
$PLIMCHECK
 70
     0
  9
$PEXTMIN
 10
1.000000000000000E+20
 20
1.000000000000000E+20
 30
1.000000000000000E+20
  9
$PEXTMAX
 10
-1.000000000000000E+20
 20
-1.000000000000000E+20
 30
-1.000000000000000E+20
  9
$PLIMMIN
 10
0.0
 20
0.0
  9
$PLIMMAX
 10
420.0
 20
297.0
  9
$UNITMODE
 70
     0
  9
$VISRETAIN
 70
     1
  9
$PLINEGEN
 70
     0
  9
$PSLTSCALE
 70
     1
  9
$TREEDEPTH
 70
  3020
  9
$CMLSTYLE
  2
Standard
  9
$CMLJUST
 70
     0
  9
$CMLSCALE
 40
20.0
  9
$PROXYGRAPHICS
 70
     1
  9
$MEASUREMENT
 70
     1
  9
$CELWEIGHT
370
    13
  9
$ENDCAPS
280
     0
  9
$JOINSTYLE
280
     0
  9
$LWDISPLAY
290
     0
  9
$INSUNITS
 70
     4
  9
$HYPERLINKBASE
  1

  9
$STYLESHEET
  1
monochrome.ctb
  9
$XEDIT
290
     1
  9
$CEPSNTYPE
380
     0
  9
$PSTYLEMODE
290
     1
  9
$FINGERPRINTGUID
  2
{FDEAD578-A652-11D2-9A35-0060089B3A3F}
  9
$VERSIONGUID
  2
{2DAA5888-9947-4087-9FBD-EA8D0346E8E4}
  9
$EXTNAMES
290
     1
  9
$PSVPSCALE
 40
0.0
  9
$OLESTARTUP
290
     0
  0
ENDSEC
  0
SECTION
  2
CLASSES
  0
CLASS
  1
ACDBDICTIONARYWDFLT
  2
AcDbDictionaryWithDefault
  3
AutoCAD 2000
 90
        0
280
     0
281
     0
  0
CLASS
  1
ACDBPLACEHOLDER
  2
AcDbPlaceHolder
  3
AutoCAD 2000
 90
        0
280
     0
281
     0
  0
CLASS
  1
LAYOUT
  2
AcDbLayout
  3
AutoCAD 2000
 90
        0
280
     0
281
     0
  0
CLASS
  1
DICTIONARYVAR
  2
AcDbDictionaryVar
  3
AutoCAD 2000
 90
        0
280
     0
281
     0
  0
ENDSEC
  0
SECTION
  2
TABLES
  0
TABLE
  2
VPORT
  5
8
330
0
100
AcDbSymbolTable
 70
     2
  0
VPORT
  5
15FC8
330
8
100
AcDbSymbolTableRecord
100
AcDbViewportTableRecord
  2
*Active
 70
     0
 10
0.0
 20
0.0
 11
1.0
 21
1.0
 12
108.0531096537552
 22
131.8998008720805
 13
0.0
 23
0.0
 14
10.0
 24
10.0
 15
10.0
 25
10.0
 16
0.0
 26
0.0
 36
1.0
 17
0.0
 27
0.0
 37
0.0
 40
193.730651353956
 41
2.165492957746478
 42
50.0
 43
0.0
 44
0.0
 50
0.0
 51
0.0
 71
     0
 72
   100
 73
     1
 74
     3
 75
     0
 76
     0
 77
     0
 78
     0
281
     0
 65
     1
110
0.0
120
0.0
130
0.0
111
1.0
121
0.0
131
0.0
112
0.0
122
1.0
132
0.0
 79
     0
146
0.0
  0
ENDTAB
  0
TABLE
  2
LTYPE
  5
5
330
0
100
AcDbSymbolTable
 70
     2
  0
LTYPE
  5
14
330
5
100
AcDbSymbolTableRecord
100
AcDbLinetypeTableRecord
  2
ByBlock
 70
     0
  3

 72
    65
 73
     0
 40
0.0
  0
LTYPE
  5
15
330
5
100
AcDbSymbolTableRecord
100
AcDbLinetypeTableRecord
  2
ByLayer
 70
     0
  3

 72
    65
 73
     0
 40
0.0
  0
LTYPE
  5
16
330
5
100
AcDbSymbolTableRecord
100
AcDbLinetypeTableRecord
  2
Continuous
 70
     0
  3
Solid line
 72
    65
 73
     0
 40
0.0
  0
LTYPE
  5
153AD
330
5
100
AcDbSymbolTableRecord
100
AcDbLinetypeTableRecord
  2
ACAD_ISO07W100
 70
     0
  3
ISO dot . . . . . . . . . . . . . . . . . . . .
 72
    65
 73
     2
 40
3.0
 49
0.0
 74
     0
 49
-3.0
 74
     0
  0
ENDTAB
  0
TABLE
  2
LAYER
  5
2
102
{ACAD_XDICTIONARY
360
44
102
}
330
0
100
AcDbSymbolTable
 70
     4
  0
LAYER
  5
10
330
2
100
AcDbSymbolTableRecord
100
AcDbLayerTableRecord
  2
0
 70
     0
 62
     7
  6
Continuous
370
    -3
390
F
  0
LAYER
  5
543
330
2
100
AcDbSymbolTableRecord
100
AcDbLayerTableRecord
  2
Defpoints
 70
     0
 62
     2
  6
Continuous
290
     0
370
    -3
390
F
  0
LAYER
  5
544
330
2
100
AcDbSymbolTableRecord
100
AcDbLayerTableRecord
  2
文字
 70
     0
 62
    30
  6
Continuous
370
    -3
390
F
  0
LAYER
  5
545
330
2
100
AcDbSymbolTableRecord
100
AcDbLayerTableRecord
  2
寸法
 70
     0
 62
     6
  6
Continuous
370
    -3
390
F
  0
ENDTAB
  0
TABLE
  2
STYLE
  5
3
330
0
100
AcDbSymbolTable
 70
     1
  0
STYLE
  5
11
330
3
100
AcDbSymbolTableRecord
100
AcDbTextStyleTableRecord
  2
Standard
 70
     0
 40
0.0
 41
1.0
 50
0.0
 71
     0
 42
2.5
  3
MS PGothic.ttf
  4

1001
ACAD
1000
MS PGothic
1071
    32818
  0
ENDTAB
  0
TABLE
  2
VIEW
  5
6
330
0
100
AcDbSymbolTable
 70
     0
  0
ENDTAB
  0
TABLE
  2
UCS
  5
7
330
0
100
AcDbSymbolTable
 70
     0
  0
ENDTAB
  0
TABLE
  2
APPID
  5
9
330
0
100
AcDbSymbolTable
 70
     1
  0
APPID
  5
12
330
9
100
AcDbSymbolTableRecord
100
AcDbRegAppTableRecord
  2
ACAD
 70
     0
  0
ENDTAB
  0
TABLE
  2
DIMSTYLE
  5
A
330
0
100
AcDbSymbolTable
 70
     2
100
AcDbDimStyleTable
 71
     1
340
546
  0
DIMSTYLE
105
546
102
{ACAD_REACTORS
330
15878
330
15888
330
15889
330
15879
330
1586E
330
1586B
330
15927
330
1594F
330
15991
330
1599A
330
15999
330
15992
330
15EDA
330
15F2A
330
15F97
102
}
330
A
100
AcDbSymbolTableRecord
100
AcDbDimStyleTableRecord
  2
ISO-25 1／10
 70
     0
 41
2.0
 42
2.0
 43
3.75
 44
0.5
 73
     0
 74
     0
 77
     1
 78
     8
140
2.5
141
2.0
143
0.03937007874016
147
0.75
171
     3
172
     1
174
     1
175
     1
271
     2
272
     2
274
     3
283
     0
284
     8
340
11
  0
DIMSTYLE
105
547
330
A
100
AcDbSymbolTableRecord
100
AcDbDimStyleTableRecord
  2
STANDARD
 70
     0
340
11
  0
ENDTAB
  0
TABLE
  2
BLOCK_RECORD
  5
1
330
0
100
AcDbSymbolTable
 70
    16
  0
BLOCK_RECORD
  5
1F
330
1
100
AcDbSymbolTableRecord
100
AcDbBlockTableRecord
  2
*Model_Space
340
22
  0
BLOCK_RECORD
  5
1B
330
1
100
AcDbSymbolTableRecord
100
AcDbBlockTableRecord
  2
*Paper_Space
340
1E
  0
BLOCK_RECORD
  5
23
330
1
100
AcDbSymbolTableRecord
100
AcDbBlockTableRecord
  2
*Paper_Space0
340
26
  0
BLOCK_RECORD
  5
1588B
330
1
100
AcDbSymbolTableRecord
100
AcDbBlockTableRecord
  2
*D1
340
0
  0
BLOCK_RECORD
  5
15897
330
1
100
AcDbSymbolTableRecord
100
AcDbBlockTableRecord
  2
*D2
340
0
  0
BLOCK_RECORD
  5
158A1
330
1
100
AcDbSymbolTableRecord
100
AcDbBlockTableRecord
  2
*D3
340
0
  0
BLOCK_RECORD
  5
158AB
330
1
100
AcDbSymbolTableRecord
100
AcDbBlockTableRecord
  2
*D4
340
0
  0
BLOCK_RECORD
  5
158B7
330
1
100
AcDbSymbolTableRecord
100
AcDbBlockTableRecord
  2
*D5
340
0
  0
BLOCK_RECORD
  5
158C3
330
1
100
AcDbSymbolTableRecord
100
AcDbBlockTableRecord
  2
*D6
340
0
  0
BLOCK_RECORD
  5
15928
330
1
100
AcDbSymbolTableRecord
100
AcDbBlockTableRecord
  2
*D7
340
0
  0
BLOCK_RECORD
  5
15950
330
1
100
AcDbSymbolTableRecord
100
AcDbBlockTableRecord
  2
*D8
340
0
  0
BLOCK_RECORD
  5
159C3
330
1
100
AcDbSymbolTableRecord
100
AcDbBlockTableRecord
  2
*D9
340
0
  0
BLOCK_RECORD
  5
159CF
330
1
100
AcDbSymbolTableRecord
100
AcDbBlockTableRecord
  2
*D10
340
0
  0
BLOCK_RECORD
  5
159D9
330
1
100
AcDbSymbolTableRecord
100
AcDbBlockTableRecord
  2
*D11
340
0
  0
BLOCK_RECORD
  5
159E3
330
1
100
AcDbSymbolTableRecord
100
AcDbBlockTableRecord
  2
*D12
340
0
  0
BLOCK_RECORD
  5
15EDB
330
1
100
AcDbSymbolTableRecord
100
AcDbBlockTableRecord
  2
*D13
340
0
  0
BLOCK_RECORD
  5
15F31
330
1
100
AcDbSymbolTableRecord
100
AcDbBlockTableRecord
  2
*D14
340
0
  0
BLOCK_RECORD
  5
15F98
330
1
100
AcDbSymbolTableRecord
100
AcDbBlockTableRecord
  2
*D15
340
0
  0
ENDTAB
  0
ENDSEC
  0
SECTION
  2
BLOCKS
  0
BLOCK
  5
20
330
1F
100
AcDbEntity
  8
0
100
AcDbBlockBegin
  2
*Model_Space
 70
     0
 10
0.0
 20
0.0
 30
0.0
  3
*Model_Space
  1

  0
ENDBLK
  5
21
330
1F
100
AcDbEntity
  8
0
100
AcDbBlockEnd
  0
BLOCK
  5
1C
330
1B
100
AcDbEntity
 67
     1
  8
0
100
AcDbBlockBegin
  2
*Paper_Space
 70
     0
 10
0.0
 20
0.0
 30
0.0
  3
*Paper_Space
  1

  0
ENDBLK
  5
1D
330
1B
100
AcDbEntity
 67
     1
  8
0
100
AcDbBlockEnd
  0
BLOCK
  5
24
330
23
100
AcDbEntity
  8
0
100
AcDbBlockBegin
  2
*Paper_Space0
 70
     0
 10
0.0
 20
0.0
 30
0.0
  3
*Paper_Space0
  1

  0
ENDBLK
  5
25
330
23
100
AcDbEntity
  8
0
100
AcDbBlockEnd
  0
BLOCK
  5
15895
330
1588B
100
AcDbEntity
  8
0
370
    13
100
AcDbBlockBegin
  2
*D1
 70
     1
 10
0.0
 20
0.0
 30
0.0
  3
*D1
  1

  0
LINE
  5
158CF
330
1588B
100
AcDbEntity
  8
寸法
 62
     0
370
    -2
100
AcDbLine
 10
105.5448273380177
 20
162.8562137316793
 30
0.0
 11
105.5448273380177
 21
166.3562137316793
 31
0.0
  0
LINE
  5
158D0
330
1588B
100
AcDbEntity
  8
寸法
 62
     0
370
    -2
100
AcDbLine
 10
50.54482733801774
 20
159.8562137316794
 30
0.0
 11
50.54482733801774
 21
166.3562137316793
 31
0.0
  0
LINE
  5
158D1
330
1588B
100
AcDbEntity
  8
寸法
 62
     0
370
    -2
100
AcDbLine
 10
103.5448273380177
 20
165.8562137316794
 30
0.0
 11
52.54482733801774
 21
165.8562137316794
 31
0.0
  0
SOLID
  5
158D2
330
1588B
100
AcDbEntity
  8
寸法
 62
     0
370
    13
100
AcDbTrace
 10
103.5448273380177
 20
166.1895470650127
 30
0.0
 11
103.5448273380177
 21
165.522880398346
 31
0.0
 12
105.5448273380177
 22
165.8562137316794
 32
0.0
 13
105.5448273380177
 23
165.8562137316794
 33
0.0
  0
SOLID
  5
158D3
330
1588B
100
AcDbEntity
  8
寸法
 62
     0
370
    13
100
AcDbTrace
 10
52.54482733801774
 20
166.1895470650127
 30
0.0
 11
52.54482733801774
 21
165.522880398346
 31
0.0
 12
50.54482733801774
 22
165.8562137316794
 32
0.0
 13
50.54482733801774
 23
165.8562137316794
 33
0.0
  0
MTEXT
  5
158D4
330
1588B
100
AcDbEntity
  8
寸法
 62
     0
370
    13
100
AcDbMText
 10
78.04482733801774
 20
167.8562137316793
 30
0.0
 40
2.5
 41
0.0
 71
     5
 72
     1
  1
55
 73
     1
 44
1.0
  0
POINT
  5
158D5
330
1588B
100
AcDbEntity
  8
Defpoints
 62
     0
370
    13
100
AcDbPoint
 10
105.5448273380177
 20
160.8562137316793
 30
0.0
  0
POINT
  5
158D6
330
1588B
100
AcDbEntity
  8
Defpoints
 62
     0
370
    13
100
AcDbPoint
 10
50.54482733801774
 20
157.8562137316794
 30
0.0
  0
POINT
  5
158D7
330
1588B
100
AcDbEntity
  8
Defpoints
 62
     0
370
    13
100
AcDbPoint
 10
50.54482733801774
 20
165.8562137316794
 30
0.0
  0
ENDBLK
  5
15896
330
1588B
100
AcDbEntity
  8
0
370
    13
100
AcDbBlockEnd
  0
BLOCK
  5
1589F
330
15897
100
AcDbEntity
  8
0
370
    13
100
AcDbBlockBegin
  2
*D2
 70
     1
 10
0.0
 20
0.0
 30
0.0
  3
*D2
  1

  0
LINE
  5
158D8
330
15897
100
AcDbEntity
  8
寸法
 62
     0
370
    -2
100
AcDbLine
 10
105.5448273380177
 20
162.8562137316793
 30
0.0
 11
105.5448273380177
 21
166.3562137316793
 31
0.0
  0
LINE
  5
158D9
330
15897
100
AcDbEntity
  8
寸法
 62
     0
370
    -2
100
AcDbLine
 10
110.5448273380177
 20
162.8562137316794
 30
0.0
 11
110.5448273380177
 21
166.3562137316793
 31
0.0
  0
LINE
  5
158DA
330
15897
100
AcDbEntity
  8
寸法
 62
     0
370
    -2
100
AcDbLine
 10
105.5448273380177
 20
165.8562137316794
 30
0.0
 11
110.5448273380177
 21
165.8562137316794
 31
0.0
  0
MTEXT
  5
158DB
330
15897
100
AcDbEntity
  8
寸法
 62
     0
370
    13
100
AcDbMText
 10
108.0448273380177
 20
167.8562137316793
 30
0.0
 40
2.5
 41
0.0
 71
     5
 72
     1
  1
5
 73
     1
 44
1.0
  0
POINT
  5
158DC
330
15897
100
AcDbEntity
  8
Defpoints
 62
     0
370
    13
100
AcDbPoint
 10
105.5448273380177
 20
160.8562137316793
 30
0.0
  0
POINT
  5
158DD
330
15897
100
AcDbEntity
  8
Defpoints
 62
     0
370
    13
100
AcDbPoint
 10
110.5448273380177
 20
160.8562137316794
 30
0.0
  0
POINT
  5
158DE
330
15897
100
AcDbEntity
  8
Defpoints
 62
     0
370
    13
100
AcDbPoint
 10
110.5448273380177
 20
165.8562137316794
 30
0.0
  0
ENDBLK
  5
158A0
330
15897
100
AcDbEntity
  8
0
370
    13
100
AcDbBlockEnd
  0
BLOCK
  5
158A9
330
158A1
100
AcDbEntity
  8
0
370
    13
100
AcDbBlockBegin
  2
*D3
 70
     1
 10
0.0
 20
0.0
 30
0.0
  3
*D3
  1

  0
LINE
  5
15946
330
158A1
100
AcDbEntity
  8
寸法
 62
     0
370
    -2
100
AcDbLine
 10
165.5448273380177
 20
159.8562137316794
 30
0.0
 11
165.5448273380177
 21
166.3562137316793
 31
0.0
  0
LINE
  5
15947
330
158A1
100
AcDbEntity
  8
寸法
 62
     0
370
    -2
100
AcDbLine
 10
110.5448273380177
 20
162.8562137316794
 30
0.0
 11
110.5448273380177
 21
166.3562137316793
 31
0.0
  0
LINE
  5
15948
330
158A1
100
AcDbEntity
  8
寸法
 62
     0
370
    -2
100
AcDbLine
 10
163.5448273380177
 20
165.8562137316794
 30
0.0
 11
112.5448273380177
 21
165.8562137316794
 31
0.0
  0
SOLID
  5
15949
330
158A1
100
AcDbEntity
  8
寸法
 62
     0
370
    13
100
AcDbTrace
 10
163.5448273380177
 20
166.1895470650127
 30
0.0
 11
163.5448273380177
 21
165.522880398346
 31
0.0
 12
165.5448273380177
 22
165.8562137316794
 32
0.0
 13
165.5448273380177
 23
165.8562137316794
 33
0.0
  0
SOLID
  5
1594A
330
158A1
100
AcDbEntity
  8
寸法
 62
     0
370
    13
100
AcDbTrace
 10
112.5448273380177
 20
166.1895470650127
 30
0.0
 11
112.5448273380177
 21
165.522880398346
 31
0.0
 12
110.5448273380177
 22
165.8562137316794
 32
0.0
 13
110.5448273380177
 23
165.8562137316794
 33
0.0
  0
MTEXT
  5
1594B
330
158A1
100
AcDbEntity
  8
寸法
 62
     0
370
    13
100
AcDbMText
 10
138.0448273380177
 20
167.8562137316793
 30
0.0
 40
2.5
 41
0.0
 71
     5
 72
     1
  1
55
 73
     1
 44
1.0
  0
POINT
  5
1594C
330
158A1
100
AcDbEntity
  8
Defpoints
 62
     0
370
    13
100
AcDbPoint
 10
165.5448273380177
 20
157.8562137316794
 30
0.0
  0
POINT
  5
1594D
330
158A1
100
AcDbEntity
  8
Defpoints
 62
     0
370
    13
100
AcDbPoint
 10
110.5448273380177
 20
160.8562137316794
 30
0.0
  0
POINT
  5
1594E
330
158A1
100
AcDbEntity
  8
Defpoints
 62
     0
370
    13
100
AcDbPoint
 10
110.5448273380177
 20
165.8562137316794
 30
0.0
  0
ENDBLK
  5
158AA
330
158A1
100
AcDbEntity
  8
0
370
    13
100
AcDbBlockEnd
  0
BLOCK
  5
158B5
330
158AB
100
AcDbEntity
  8
0
370
    13
100
AcDbBlockBegin
  2
*D4
 70
     1
 10
0.0
 20
0.0
 30
0.0
  3
*D4
  1

  0
LINE
  5
1593D
330
158AB
100
AcDbEntity
  8
寸法
 62
     0
370
    -2
100
AcDbLine
 10
165.5448273380177
 20
159.8562137316794
 30
0.0
 11
165.5448273380177
 21
171.3562137316793
 31
0.0
  0
LINE
  5
1593E
330
158AB
100
AcDbEntity
  8
寸法
 62
     0
370
    -2
100
AcDbLine
 10
50.54482733801774
 20
159.8562137316794
 30
0.0
 11
50.54482733801774
 21
171.3562137316793
 31
0.0
  0
LINE
  5
1593F
330
158AB
100
AcDbEntity
  8
寸法
 62
     0
370
    -2
100
AcDbLine
 10
163.5448273380177
 20
170.8562137316793
 30
0.0
 11
52.54482733801774
 21
170.8562137316793
 31
0.0
  0
SOLID
  5
15940
330
158AB
100
AcDbEntity
  8
寸法
 62
     0
370
    13
100
AcDbTrace
 10
163.5448273380177
 20
171.1895470650127
 30
0.0
 11
163.5448273380177
 21
170.522880398346
 31
0.0
 12
165.5448273380177
 22
170.8562137316793
 32
0.0
 13
165.5448273380177
 23
170.8562137316793
 33
0.0
  0
SOLID
  5
15941
330
158AB
100
AcDbEntity
  8
寸法
 62
     0
370
    13
100
AcDbTrace
 10
52.54482733801774
 20
171.1895470650127
 30
0.0
 11
52.54482733801774
 21
170.522880398346
 31
0.0
 12
50.54482733801774
 22
170.8562137316793
 32
0.0
 13
50.54482733801774
 23
170.8562137316793
 33
0.0
  0
MTEXT
  5
15942
330
158AB
100
AcDbEntity
  8
寸法
 62
     0
370
    13
100
AcDbMText
 10
108.0448273380177
 20
172.8562137316793
 30
0.0
 40
2.5
 41
0.0
 71
     5
 72
     1
  1
115
 73
     1
 44
1.0
  0
POINT
  5
15943
330
158AB
100
AcDbEntity
  8
Defpoints
 62
     0
370
    13
100
AcDbPoint
 10
165.5448273380177
 20
157.8562137316794
 30
0.0
  0
POINT
  5
15944
330
158AB
100
AcDbEntity
  8
Defpoints
 62
     0
370
    13
100
AcDbPoint
 10
50.54482733801774
 20
157.8562137316794
 30
0.0
  0
POINT
  5
15945
330
158AB
100
AcDbEntity
  8
Defpoints
 62
     0
370
    13
100
AcDbPoint
 10
50.54482733801774
 20
170.8562137316793
 30
0.0
  0
ENDBLK
  5
158B6
330
158AB
100
AcDbEntity
  8
0
370
    13
100
AcDbBlockEnd
  0
BLOCK
  5
158C1
330
158B7
100
AcDbEntity
  8
0
370
    13
100
AcDbBlockBegin
  2
*D5
 70
     1
 10
0.0
 20
0.0
 30
0.0
  3
*D5
  1

  0
LINE
  5
15906
330
158B7
100
AcDbEntity
  8
寸法
 62
     0
370
    -2
100
AcDbLine
 10
105.5448273380177
 20
68.85621373167942
 30
0.0
 11
105.5448273380177
 21
65.35621373167945
 31
0.0
  0
LINE
  5
15907
330
158B7
100
AcDbEntity
  8
寸法
 62
     0
370
    -2
100
AcDbLine
 10
68.54482733801773
 20
84.85621373167942
 30
0.0
 11
68.54482733801773
 21
65.35621373167945
 31
0.0
  0
LINE
  5
15908
330
158B7
100
AcDbEntity
  8
寸法
 62
     0
370
    -2
100
AcDbLine
 10
103.5448273380177
 20
65.85621373167945
 30
0.0
 11
70.54482733801774
 21
65.85621373167945
 31
0.0
  0
SOLID
  5
15909
330
158B7
100
AcDbEntity
  8
寸法
 62
     0
370
    13
100
AcDbTrace
 10
103.5448273380177
 20
66.18954706501277
 30
0.0
 11
103.5448273380177
 21
65.52288039834611
 31
0.0
 12
105.5448273380177
 22
65.85621373167945
 32
0.0
 13
105.5448273380177
 23
65.85621373167945
 33
0.0
  0
SOLID
  5
1590A
330
158B7
100
AcDbEntity
  8
寸法
 62
     0
370
    13
100
AcDbTrace
 10
70.54482733801774
 20
66.18954706501277
 30
0.0
 11
70.54482733801774
 21
65.52288039834611
 31
0.0
 12
68.54482733801773
 22
65.85621373167945
 32
0.0
 13
68.54482733801773
 23
65.85621373167945
 33
0.0
  0
MTEXT
  5
1590B
330
158B7
100
AcDbEntity
  8
寸法
 62
     0
370
    13
100
AcDbMText
 10
87.04482733801773
 20
67.85621373167945
 30
0.0
 40
2.5
 41
0.0
 71
     5
 72
     1
  1
37
 73
     1
 44
1.0
  0
POINT
  5
1590C
330
158B7
100
AcDbEntity
  8
Defpoints
 62
     0
370
    13
100
AcDbPoint
 10
105.5448273380177
 20
70.85621373167942
 30
0.0
  0
POINT
  5
1590D
330
158B7
100
AcDbEntity
  8
Defpoints
 62
     0
370
    13
100
AcDbPoint
 10
68.54482733801773
 20
86.85621373167942
 30
0.0
  0
POINT
  5
1590E
330
158B7
100
AcDbEntity
  8
Defpoints
 62
     0
370
    13
100
AcDbPoint
 10
68.54482733801773
 20
65.85621373167945
 30
0.0
  0
ENDBLK
  5
158C2
330
158B7
100
AcDbEntity
  8
0
370
    13
100
AcDbBlockEnd
  0
BLOCK
  5
158CD
330
158C3
100
AcDbEntity
  8
0
370
    13
100
AcDbBlockBegin
  2
*D6
 70
     1
 10
0.0
 20
0.0
 30
0.0
  3
*D6
  1

  0
LINE
  5
158F8
330
158C3
100
AcDbEntity
  8
寸法
 62
     0
370
    -2
100
AcDbLine
 10
66.54482733801774
 20
144.8562137316794
 30
0.0
 11
45.04482733801775
 21
144.8562137316794
 31
0.0
  0
LINE
  5
158F9
330
158C3
100
AcDbEntity
  8
寸法
 62
     0
370
    -2
100
AcDbLine
 10
66.54482733801774
 20
86.85621373167942
 30
0.0
 11
45.04482733801774
 21
86.85621373167942
 31
0.0
  0
LINE
  5
158FA
330
158C3
100
AcDbEntity
  8
寸法
 62
     0
370
    -2
100
AcDbLine
 10
45.54482733801775
 20
142.8562137316794
 30
0.0
 11
45.54482733801774
 21
88.85621373167941
 31
0.0
  0
SOLID
  5
158FB
330
158C3
100
AcDbEntity
  8
寸法
 62
     0
370
    13
100
AcDbTrace
 10
45.2114940046844
 20
142.8562137316794
 30
0.0
 11
45.87816067135108
 21
142.8562137316794
 31
0.0
 12
45.54482733801775
 22
144.8562137316794
 32
0.0
 13
45.54482733801775
 23
144.8562137316794
 33
0.0
  0
SOLID
  5
158FC
330
158C3
100
AcDbEntity
  8
寸法
 62
     0
370
    13
100
AcDbTrace
 10
45.2114940046844
 20
88.85621373167941
 30
0.0
 11
45.87816067135107
 21
88.85621373167941
 31
0.0
 12
45.54482733801774
 22
86.85621373167942
 32
0.0
 13
45.54482733801774
 23
86.85621373167942
 33
0.0
  0
MTEXT
  5
158FD
330
158C3
100
AcDbEntity
  8
寸法
 62
     0
370
    13
100
AcDbMText
 10
43.54482733801773
 20
115.8562137316794
 30
0.0
 40
2.5
 41
0.0
 71
     5
 72
     1
  1
58
 11
0.0000000000000001
 21
1.0
 31
0.0
 73
     1
 44
1.0
  0
POINT
  5
158FE
330
158C3
100
AcDbEntity
  8
Defpoints
 62
     0
370
    13
100
AcDbPoint
 10
68.54482733801773
 20
144.8562137316794
 30
0.0
  0
POINT
  5
158FF
330
158C3
100
AcDbEntity
  8
Defpoints
 62
     0
370
    13
100
AcDbPoint
 10
68.54482733801773
 20
86.85621373167942
 30
0.0
  0
POINT
  5
15900
330
158C3
100
AcDbEntity
  8
Defpoints
 62
     0
370
    13
100
AcDbPoint
 10
45.54482733801774
 20
86.85621373167942
 30
0.0
  0
ENDBLK
  5
158CE
330
158C3
100
AcDbEntity
  8
0
370
    13
100
AcDbBlockEnd
  0
BLOCK
  5
15932
330
15928
100
AcDbEntity
  8
0
370
    13
100
AcDbBlockBegin
  2
*D7
 70
     1
 10
0.0
 20
0.0
 30
0.0
  3
*D7
  1

  0
LINE
  5
15934
330
15928
100
AcDbEntity
  8
寸法
 62
     0
370
    -2
100
AcDbLine
 10
110.5448273380177
 20
68.85621373167942
 30
0.0
 11
110.5448273380177
 21
65.35621373167945
 31
0.0
  0
LINE
  5
15935
330
15928
100
AcDbEntity
  8
寸法
 62
     0
370
    -2
100
AcDbLine
 10
147.5448273380177
 20
84.85621373167942
 30
0.0
 11
147.5448273380177
 21
65.35621373167945
 31
0.0
  0
LINE
  5
15936
330
15928
100
AcDbEntity
  8
寸法
 62
     0
370
    -2
100
AcDbLine
 10
112.5448273380177
 20
65.85621373167945
 30
0.0
 11
145.5448273380177
 21
65.85621373167945
 31
0.0
  0
SOLID
  5
15937
330
15928
100
AcDbEntity
  8
寸法
 62
     0
370
    13
100
AcDbTrace
 10
112.5448273380177
 20
66.18954706501277
 30
0.0
 11
112.5448273380177
 21
65.52288039834611
 31
0.0
 12
110.5448273380177
 22
65.85621373167945
 32
0.0
 13
110.5448273380177
 23
65.85621373167945
 33
0.0
  0
SOLID
  5
15938
330
15928
100
AcDbEntity
  8
寸法
 62
     0
370
    13
100
AcDbTrace
 10
145.5448273380177
 20
66.18954706501277
 30
0.0
 11
145.5448273380177
 21
65.52288039834611
 31
0.0
 12
147.5448273380177
 22
65.85621373167945
 32
0.0
 13
147.5448273380177
 23
65.85621373167945
 33
0.0
  0
MTEXT
  5
15939
330
15928
100
AcDbEntity
  8
寸法
 62
     0
370
    13
100
AcDbMText
 10
129.0448273380177
 20
67.85621373167945
 30
0.0
 40
2.5
 41
0.0
 71
     5
 72
     1
  1
37
 73
     1
 44
1.0
  0
POINT
  5
1593A
330
15928
100
AcDbEntity
  8
Defpoints
 62
     0
370
    13
100
AcDbPoint
 10
110.5448273380177
 20
70.85621373167942
 30
0.0
  0
POINT
  5
1593B
330
15928
100
AcDbEntity
  8
Defpoints
 62
     0
370
    13
100
AcDbPoint
 10
147.5448273380177
 20
86.85621373167942
 30
0.0
  0
POINT
  5
1593C
330
15928
100
AcDbEntity
  8
Defpoints
 62
     0
370
    13
100
AcDbPoint
 10
147.5448273380177
 20
65.85621373167945
 30
0.0
  0
ENDBLK
  5
15933
330
15928
100
AcDbEntity
  8
0
370
    13
100
AcDbBlockEnd
  0
BLOCK
  5
1595A
330
15950
100
AcDbEntity
  8
0
370
    13
100
AcDbBlockBegin
  2
*D8
 70
     1
 10
0.0
 20
0.0
 30
0.0
  3
*D8
  1

  0
LINE
  5
1596E
330
15950
100
AcDbEntity
  8
寸法
 62
     0
370
    -2
100
AcDbLine
 10
51.54482733801774
 20
160.8562137316794
 30
0.0
 11
40.04482733801775
 21
160.8562137316794
 31
0.0
  0
LINE
  5
1596F
330
15950
100
AcDbEntity
  8
寸法
 62
     0
370
    -2
100
AcDbLine
 10
51.54482733801774
 20
70.85621373167942
 30
0.0
 11
40.04482733801773
 21
70.85621373167942
 31
0.0
  0
LINE
  5
15970
330
15950
100
AcDbEntity
  8
寸法
 62
     0
370
    -2
100
AcDbLine
 10
40.54482733801775
 20
158.8562137316794
 30
0.0
 11
40.54482733801773
 21
72.85621373167941
 31
0.0
  0
SOLID
  5
15971
330
15950
100
AcDbEntity
  8
寸法
 62
     0
370
    13
100
AcDbTrace
 10
40.21149400468441
 20
158.8562137316794
 30
0.0
 11
40.87816067135109
 21
158.8562137316794
 31
0.0
 12
40.54482733801775
 22
160.8562137316794
 32
0.0
 13
40.54482733801775
 23
160.8562137316794
 33
0.0
  0
SOLID
  5
15972
330
15950
100
AcDbEntity
  8
寸法
 62
     0
370
    13
100
AcDbTrace
 10
40.2114940046844
 20
72.85621373167941
 30
0.0
 11
40.87816067135107
 21
72.85621373167941
 31
0.0
 12
40.54482733801773
 22
70.85621373167942
 32
0.0
 13
40.54482733801773
 23
70.85621373167942
 33
0.0
  0
MTEXT
  5
15973
330
15950
100
AcDbEntity
  8
寸法
 62
     0
370
    13
100
AcDbMText
 10
38.54482733801772
 20
115.8562137316794
 30
0.0
 40
2.5
 41
0.0
 71
     5
 72
     1
  1
90
 11
0.0000000000000001
 21
1.0
 31
0.0
 73
     1
 44
1.0
  0
POINT
  5
15974
330
15950
100
AcDbEntity
  8
Defpoints
 62
     0
370
    13
100
AcDbPoint
 10
53.54482733801773
 20
160.8562137316794
 30
0.0
  0
POINT
  5
15975
330
15950
100
AcDbEntity
  8
Defpoints
 62
     0
370
    13
100
AcDbPoint
 10
53.54482733801773
 20
70.85621373167942
 30
0.0
  0
POINT
  5
15976
330
15950
100
AcDbEntity
  8
Defpoints
 62
     0
370
    13
100
AcDbPoint
 10
40.54482733801773
 20
70.85621373167942
 30
0.0
  0
ENDBLK
  5
1595B
330
15950
100
AcDbEntity
  8
0
370
    13
100
AcDbBlockEnd
  0
BLOCK
  5
159CD
330
159C3
100
AcDbEntity
  8
0
370
    13
100
AcDbBlockBegin
  2
*D9
 70
     1
 10
0.0
 20
0.0
 30
0.0
  3
*D9
  1

  0
LINE
  5
15D9C
330
159C3
100
AcDbEntity
  8
寸法
 62
     0
370
    -2
100
AcDbLine
 10
165.5448273380177
 20
213.3562137316794
 30
0.0
 11
165.5448273380177
 21
224.6562137316793
 31
0.0
  0
LINE
  5
15D9D
330
159C3
100
AcDbEntity
  8
寸法
 62
     0
370
    -2
100
AcDbLine
 10
50.54482733801771
 20
213.3562137316794
 30
0.0
 11
50.54482733801771
 21
224.6562137316793
 31
0.0
  0
LINE
  5
15D9E
330
159C3
100
AcDbEntity
  8
寸法
 62
     0
370
    -2
100
AcDbLine
 10
163.5448273380177
 20
224.1562137316793
 30
0.0
 11
52.54482733801771
 21
224.1562137316793
 31
0.0
  0
SOLID
  5
15D9F
330
159C3
100
AcDbEntity
  8
寸法
 62
     0
370
    13
100
AcDbTrace
 10
163.5448273380177
 20
224.4895470650127
 30
0.0
 11
163.5448273380177
 21
223.822880398346
 31
0.0
 12
165.5448273380177
 22
224.1562137316793
 32
0.0
 13
165.5448273380177
 23
224.1562137316793
 33
0.0
  0
SOLID
  5
15DA0
330
159C3
100
AcDbEntity
  8
寸法
 62
     0
370
    13
100
AcDbTrace
 10
52.54482733801771
 20
224.4895470650127
 30
0.0
 11
52.54482733801771
 21
223.822880398346
 31
0.0
 12
50.54482733801771
 22
224.1562137316793
 32
0.0
 13
50.54482733801771
 23
224.1562137316793
 33
0.0
  0
MTEXT
  5
15DA1
330
159C3
100
AcDbEntity
  8
寸法
 62
     0
370
    13
100
AcDbMText
 10
108.0448273380177
 20
226.1562137316793
 30
0.0
 40
2.5
 41
0.0
 71
     5
 72
     1
  1
115
 73
     1
 44
1.0
  0
POINT
  5
15DA2
330
159C3
100
AcDbEntity
  8
Defpoints
 62
     0
370
    13
100
AcDbPoint
 10
165.5448273380177
 20
211.3562137316794
 30
0.0
  0
POINT
  5
15DA3
330
159C3
100
AcDbEntity
  8
Defpoints
 62
     0
370
    13
100
AcDbPoint
 10
50.54482733801771
 20
211.3562137316794
 30
0.0
  0
POINT
  5
15DA4
330
159C3
100
AcDbEntity
  8
Defpoints
 62
     0
370
    13
100
AcDbPoint
 10
50.54482733801771
 20
224.1562137316793
 30
0.0
  0
ENDBLK
  5
159CE
330
159C3
100
AcDbEntity
  8
0
370
    13
100
AcDbBlockEnd
  0
BLOCK
  5
159D7
330
159CF
100
AcDbEntity
  8
0
370
    13
100
AcDbBlockBegin
  2
*D10
 70
     1
 10
0.0
 20
0.0
 30
0.0
  3
*D10
  1

  0
LINE
  5
15DA5
330
159CF
100
AcDbEntity
  8
寸法
 62
     0
370
    -2
100
AcDbLine
 10
165.5448273380177
 20
213.3562137316794
 30
0.0
 11
165.5448273380177
 21
219.3562137316794
 31
0.0
  0
LINE
  5
15DA6
330
159CF
100
AcDbEntity
  8
寸法
 62
     0
370
    -2
100
AcDbLine
 10
110.5448273380177
 20
213.3562137316794
 30
0.0
 11
110.5448273380177
 21
219.3562137316794
 31
0.0
  0
LINE
  5
15DA7
330
159CF
100
AcDbEntity
  8
寸法
 62
     0
370
    -2
100
AcDbLine
 10
163.5448273380177
 20
218.8562137316794
 30
0.0
 11
112.5448273380177
 21
218.8562137316794
 31
0.0
  0
SOLID
  5
15DA8
330
159CF
100
AcDbEntity
  8
寸法
 62
     0
370
    13
100
AcDbTrace
 10
163.5448273380177
 20
219.1895470650127
 30
0.0
 11
163.5448273380177
 21
218.522880398346
 31
0.0
 12
165.5448273380177
 22
218.8562137316794
 32
0.0
 13
165.5448273380177
 23
218.8562137316794
 33
0.0
  0
SOLID
  5
15DA9
330
159CF
100
AcDbEntity
  8
寸法
 62
     0
370
    13
100
AcDbTrace
 10
112.5448273380177
 20
219.1895470650127
 30
0.0
 11
112.5448273380177
 21
218.522880398346
 31
0.0
 12
110.5448273380177
 22
218.8562137316794
 32
0.0
 13
110.5448273380177
 23
218.8562137316794
 33
0.0
  0
MTEXT
  5
15DAA
330
159CF
100
AcDbEntity
  8
寸法
 62
     0
370
    13
100
AcDbMText
 10
138.0448273380177
 20
220.8562137316794
 30
0.0
 40
2.5
 41
0.0
 71
     5
 72
     1
  1
55
 73
     1
 44
1.0
  0
POINT
  5
15DAB
330
159CF
100
AcDbEntity
  8
Defpoints
 62
     0
370
    13
100
AcDbPoint
 10
165.5448273380177
 20
211.3562137316794
 30
0.0
  0
POINT
  5
15DAC
330
159CF
100
AcDbEntity
  8
Defpoints
 62
     0
370
    13
100
AcDbPoint
 10
110.5448273380177
 20
211.3562137316794
 30
0.0
  0
POINT
  5
15DAD
330
159CF
100
AcDbEntity
  8
Defpoints
 62
     0
370
    13
100
AcDbPoint
 10
110.5448273380177
 20
218.8562137316794
 30
0.0
  0
ENDBLK
  5
159D8
330
159CF
100
AcDbEntity
  8
0
370
    13
100
AcDbBlockEnd
  0
BLOCK
  5
159E1
330
159D9
100
AcDbEntity
  8
0
370
    13
100
AcDbBlockBegin
  2
*D11
 70
     1
 10
0.0
 20
0.0
 30
0.0
  3
*D11
  1

  0
LINE
  5
15D8C
330
159D9
100
AcDbEntity
  8
寸法
 62
     0
370
    -2
100
AcDbLine
 10
105.5448273380177
 20
213.3562137316794
 30
0.0
 11
105.5448273380177
 21
219.3562137316794
 31
0.0
  0
LINE
  5
15D8D
330
159D9
100
AcDbEntity
  8
寸法
 62
     0
370
    -2
100
AcDbLine
 10
110.5448273380177
 20
213.3562137316794
 30
0.0
 11
110.5448273380177
 21
219.3562137316794
 31
0.0
  0
LINE
  5
15D8E
330
159D9
100
AcDbEntity
  8
寸法
 62
     0
370
    -2
100
AcDbLine
 10
105.5448273380177
 20
218.8562137316794
 30
0.0
 11
110.5448273380177
 21
218.8562137316794
 31
0.0
  0
MTEXT
  5
15D8F
330
159D9
100
AcDbEntity
  8
寸法
 62
     0
370
    13
100
AcDbMText
 10
108.0448273380177
 20
220.8562137316794
 30
0.0
 40
2.5
 41
0.0
 71
     5
 72
     1
  1
5
 73
     1
 44
1.0
  0
POINT
  5
15D90
330
159D9
100
AcDbEntity
  8
Defpoints
 62
     0
370
    13
100
AcDbPoint
 10
105.5448273380177
 20
211.3562137316794
 30
0.0
  0
POINT
  5
15D91
330
159D9
100
AcDbEntity
  8
Defpoints
 62
     0
370
    13
100
AcDbPoint
 10
110.5448273380177
 20
211.3562137316794
 30
0.0
  0
POINT
  5
15D92
330
159D9
100
AcDbEntity
  8
Defpoints
 62
     0
370
    13
100
AcDbPoint
 10
110.5448273380177
 20
218.8562137316794
 30
0.0
  0
ENDBLK
  5
159E2
330
159D9
100
AcDbEntity
  8
0
370
    13
100
AcDbBlockEnd
  0
BLOCK
  5
159ED
330
159E3
100
AcDbEntity
  8
0
370
    13
100
AcDbBlockBegin
  2
*D12
 70
     1
 10
0.0
 20
0.0
 30
0.0
  3
*D12
  1

  0
LINE
  5
15D7A
330
159E3
100
AcDbEntity
  8
寸法
 62
     0
370
    -2
100
AcDbLine
 10
105.5448273380177
 20
213.3562137316794
 30
0.0
 11
105.5448273380177
 21
219.3562137316794
 31
0.0
  0
LINE
  5
15D7B
330
159E3
100
AcDbEntity
  8
寸法
 62
     0
370
    -2
100
AcDbLine
 10
50.54482733801771
 20
213.3562137316794
 30
0.0
 11
50.54482733801771
 21
219.3562137316794
 31
0.0
  0
LINE
  5
15D7C
330
159E3
100
AcDbEntity
  8
寸法
 62
     0
370
    -2
100
AcDbLine
 10
103.5448273380177
 20
218.8562137316794
 30
0.0
 11
52.54482733801771
 21
218.8562137316794
 31
0.0
  0
SOLID
  5
15D7D
330
159E3
100
AcDbEntity
  8
寸法
 62
     0
370
    13
100
AcDbTrace
 10
103.5448273380177
 20
219.1895470650127
 30
0.0
 11
103.5448273380177
 21
218.522880398346
 31
0.0
 12
105.5448273380177
 22
218.8562137316794
 32
0.0
 13
105.5448273380177
 23
218.8562137316794
 33
0.0
  0
SOLID
  5
15D7E
330
159E3
100
AcDbEntity
  8
寸法
 62
     0
370
    13
100
AcDbTrace
 10
52.54482733801771
 20
219.1895470650127
 30
0.0
 11
52.54482733801771
 21
218.522880398346
 31
0.0
 12
50.54482733801771
 22
218.8562137316794
 32
0.0
 13
50.54482733801771
 23
218.8562137316794
 33
0.0
  0
MTEXT
  5
15D7F
330
159E3
100
AcDbEntity
  8
寸法
 62
     0
370
    13
100
AcDbMText
 10
78.04482733801773
 20
220.8562137316794
 30
0.0
 40
2.5
 41
0.0
 71
     5
 72
     1
  1
55
 73
     1
 44
1.0
  0
POINT
  5
15D80
330
159E3
100
AcDbEntity
  8
Defpoints
 62
     0
370
    13
100
AcDbPoint
 10
105.5448273380177
 20
211.3562137316794
 30
0.0
  0
POINT
  5
15D81
330
159E3
100
AcDbEntity
  8
Defpoints
 62
     0
370
    13
100
AcDbPoint
 10
50.54482733801771
 20
211.3562137316794
 30
0.0
  0
POINT
  5
15D82
330
159E3
100
AcDbEntity
  8
Defpoints
 62
     0
370
    13
100
AcDbPoint
 10
50.54482733801771
 20
218.8562137316794
 30
0.0
  0
ENDBLK
  5
159EE
330
159E3
100
AcDbEntity
  8
0
370
    13
100
AcDbBlockEnd
  0
BLOCK
  5
15EE5
330
15EDB
100
AcDbEntity
  8
0
370
    13
100
AcDbBlockBegin
  2
*D13
 70
     1
 10
0.0
 20
0.0
 30
0.0
  3
*D13
  1

  0
LINE
  5
15F7F
330
15EDB
100
AcDbEntity
  8
寸法
 62
     0
370
    -2
100
AcDbLine
 10
0.5448273380177399
 20
158.8562137316794
 30
0.0
 11
0.5448273380177403
 21
166.3562137316794
 31
0.0
  0
LINE
  5
15F80
330
15EDB
100
AcDbEntity
  8
寸法
 62
     0
370
    -2
100
AcDbLine
 10
-20.45517266198225
 20
158.8562137316794
 30
0.0
 11
-20.45517266198225
 21
166.3562137316794
 31
0.0
  0
LINE
  5
15F81
330
15EDB
100
AcDbEntity
  8
寸法
 62
     0
370
    -2
100
AcDbLine
 10
-1.455172661982259
 20
165.8562137316794
 30
0.0
 11
-18.45517266198226
 21
165.8562137316794
 31
0.0
  0
SOLID
  5
15F82
330
15EDB
100
AcDbEntity
  8
寸法
 62
     0
370
    13
100
AcDbTrace
 10
-1.455172661982259
 20
166.1895470650127
 30
0.0
 11
-1.455172661982259
 21
165.522880398346
 31
0.0
 12
0.5448273380177403
 22
165.8562137316794
 32
0.0
 13
0.5448273380177403
 23
165.8562137316794
 33
0.0
  0
SOLID
  5
15F83
330
15EDB
100
AcDbEntity
  8
寸法
 62
     0
370
    13
100
AcDbTrace
 10
-18.45517266198226
 20
166.1895470650127
 30
0.0
 11
-18.45517266198226
 21
165.522880398346
 31
0.0
 12
-20.45517266198225
 22
165.8562137316794
 32
0.0
 13
-20.45517266198225
 23
165.8562137316794
 33
0.0
  0
MTEXT
  5
15F84
330
15EDB
100
AcDbEntity
  8
寸法
 62
     0
370
    13
100
AcDbMText
 10
-9.95517266198226
 20
167.8562137316794
 30
0.0
 40
2.5
 41
0.0
 71
     5
 72
     1
  1
21
 73
     1
 44
1.0
  0
POINT
  5
15F85
330
15EDB
100
AcDbEntity
  8
Defpoints
 62
     0
370
    13
100
AcDbPoint
 10
0.5448273380177398
 20
156.8562137316794
 30
0.0
  0
POINT
  5
15F86
330
15EDB
100
AcDbEntity
  8
Defpoints
 62
     0
370
    13
100
AcDbPoint
 10
-20.45517266198225
 20
156.8562137316794
 30
0.0
  0
POINT
  5
15F87
330
15EDB
100
AcDbEntity
  8
Defpoints
 62
     0
370
    13
100
AcDbPoint
 10
-20.45517266198225
 20
165.8562137316794
 30
0.0
  0
ENDBLK
  5
15EE6
330
15EDB
100
AcDbEntity
  8
0
370
    13
100
AcDbBlockEnd
  0
BLOCK
  5
15F3B
330
15F31
100
AcDbEntity
  8
0
370
    13
100
AcDbBlockBegin
  2
*D14
 70
     1
 10
0.0
 20
0.0
 30
0.0
  3
*D14
  1

  0
LINE
  5
15F88
330
15F31
100
AcDbEntity
  8
寸法
 62
     0
370
    -2
100
AcDbLine
 10
215.5448273380177
 20
158.8562137316794
 30
0.0
 11
215.5448273380177
 21
166.3562137316794
 31
0.0
  0
LINE
  5
15F89
330
15F31
100
AcDbEntity
  8
寸法
 62
     0
370
    -2
100
AcDbLine
 10
236.5448273380177
 20
158.8562137316794
 30
0.0
 11
236.5448273380177
 21
166.3562137316794
 31
0.0
  0
LINE
  5
15F8A
330
15F31
100
AcDbEntity
  8
寸法
 62
     0
370
    -2
100
AcDbLine
 10
217.5448273380177
 20
165.8562137316794
 30
0.0
 11
234.5448273380177
 21
165.8562137316794
 31
0.0
  0
SOLID
  5
15F8B
330
15F31
100
AcDbEntity
  8
寸法
 62
     0
370
    13
100
AcDbTrace
 10
217.5448273380177
 20
166.1895470650127
 30
0.0
 11
217.5448273380177
 21
165.522880398346
 31
0.0
 12
215.5448273380177
 22
165.8562137316794
 32
0.0
 13
215.5448273380177
 23
165.8562137316794
 33
0.0
  0
SOLID
  5
15F8C
330
15F31
100
AcDbEntity
  8
寸法
 62
     0
370
    13
100
AcDbTrace
 10
234.5448273380177
 20
166.1895470650127
 30
0.0
 11
234.5448273380177
 21
165.522880398346
 31
0.0
 12
236.5448273380177
 22
165.8562137316794
 32
0.0
 13
236.5448273380177
 23
165.8562137316794
 33
0.0
  0
MTEXT
  5
15F8D
330
15F31
100
AcDbEntity
  8
寸法
 62
     0
370
    13
100
AcDbMText
 10
226.0448273380177
 20
167.8562137316794
 30
0.0
 40
2.5
 41
0.0
 71
     5
 72
     1
  1
21
 73
     1
 44
1.0
  0
POINT
  5
15F8E
330
15F31
100
AcDbEntity
  8
Defpoints
 62
     0
370
    13
100
AcDbPoint
 10
215.5448273380177
 20
156.8562137316794
 30
0.0
  0
POINT
  5
15F8F
330
15F31
100
AcDbEntity
  8
Defpoints
 62
     0
370
    13
100
AcDbPoint
 10
236.5448273380177
 20
156.8562137316794
 30
0.0
  0
POINT
  5
15F90
330
15F31
100
AcDbEntity
  8
Defpoints
 62
     0
370
    13
100
AcDbPoint
 10
236.5448273380177
 20
165.8562137316794
 30
0.0
  0
ENDBLK
  5
15F3C
330
15F31
100
AcDbEntity
  8
0
370
    13
100
AcDbBlockEnd
  0
BLOCK
  5
15FA2
330
15F98
100
AcDbEntity
  8
0
370
    13
100
AcDbBlockBegin
  2
*D15
 70
     1
 10
0.0
 20
0.0
 30
0.0
  3
*D15
  1

  0
LINE
  5
15FB6
330
15F98
100
AcDbEntity
  8
寸法
 62
     0
370
    -2
100
AcDbLine
 10
52.54482733801771
 20
213.8562137316794
 30
0.0
 11
45.04482733801772
 21
213.8562137316794
 31
0.0
  0
LINE
  5
15FB7
330
15F98
100
AcDbEntity
  8
寸法
 62
     0
370
    -2
100
AcDbLine
 10
52.54482733801771
 20
192.8562137316794
 30
0.0
 11
45.04482733801771
 21
192.8562137316794
 31
0.0
  0
LINE
  5
15FB8
330
15F98
100
AcDbEntity
  8
寸法
 62
     0
370
    -2
100
AcDbLine
 10
45.54482733801772
 20
211.8562137316794
 30
0.0
 11
45.54482733801772
 21
194.8562137316793
 31
0.0
  0
SOLID
  5
15FB9
330
15F98
100
AcDbEntity
  8
寸法
 62
     0
370
    13
100
AcDbTrace
 10
45.21149400468439
 20
211.8562137316794
 30
0.0
 11
45.87816067135106
 21
211.8562137316794
 31
0.0
 12
45.54482733801772
 22
213.8562137316794
 32
0.0
 13
45.54482733801772
 23
213.8562137316794
 33
0.0
  0
SOLID
  5
15FBA
330
15F98
100
AcDbEntity
  8
寸法
 62
     0
370
    13
100
AcDbTrace
 10
45.21149400468438
 20
194.8562137316793
 30
0.0
 11
45.87816067135105
 21
194.8562137316793
 31
0.0
 12
45.54482733801772
 22
192.8562137316794
 32
0.0
 13
45.54482733801772
 23
192.8562137316794
 33
0.0
  0
MTEXT
  5
15FBB
330
15F98
100
AcDbEntity
  8
寸法
 62
     0
370
    13
100
AcDbMText
 10
43.54482733801769
 20
203.3562137316794
 30
0.0
 40
2.5
 41
0.0
 71
     5
 72
     1
  1
21
 11
0.0000000000000001
 21
1.0
 31
0.0
 73
     1
 44
1.0
  0
POINT
  5
15FBC
330
15F98
100
AcDbEntity
  8
Defpoints
 62
     0
370
    13
100
AcDbPoint
 10
54.54482733801771
 20
213.8562137316794
 30
0.0
  0
POINT
  5
15FBD
330
15F98
100
AcDbEntity
  8
Defpoints
 62
     0
370
    13
100
AcDbPoint
 10
54.54482733801771
 20
192.8562137316794
 30
0.0
  0
POINT
  5
15FBE
330
15F98
100
AcDbEntity
  8
Defpoints
 62
     0
370
    13
100
AcDbPoint
 10
45.54482733801772
 20
192.8562137316794
 30
0.0
  0
ENDBLK
  5
15FA3
330
15F98
100
AcDbEntity
  8
0
370
    13
100
AcDbBlockEnd
  0
ENDSEC
  0
SECTION
  2
ENTITIES
  0
MTEXT
  5
E58
330
1F
100
AcDbEntity
  8
文字
370
    13
100
AcDbMText
 10
97.75962886267075
 20
39.29271217841312
 30
0.0
 40
4.5
 41
149.5540499999999
 71
     5
 72
     5
  1
ガラスヒンジ　182
 73
     1
 44
1.0
  0
LINE
  5
15866
330
1F
100
AcDbEntity
  8
0
370
    13
100
AcDbLine
 10
105.5448273380177
 20
70.85621373167942
 30
0.0
 11
105.5448273380177
 21
93.35621373167942
 31
0.0
  0
LINE
  5
15867
330
1F
100
AcDbEntity
  8
0
370
    13
100
AcDbLine
 10
50.54482733801774
 20
157.8562137316794
 30
0.0
 11
50.54482733801774
 21
73.85621373167942
 31
0.0
  0
LINE
  5
15868
330
1F
100
AcDbEntity
  8
0
  6
ACAD_ISO07W100
 48
0.5
370
    13
100
AcDbLine
 10
54.54482733801774
 20
156.8562137316794
 30
0.0
 11
54.54482733801774
 21
74.85621373167941
 31
0.0
  0
LINE
  5
15869
330
1F
100
AcDbEntity
  8
0
  6
ACAD_ISO07W100
 48
0.5
370
    13
100
AcDbLine
 10
101.5448273380177
 20
74.85621373167941
 30
0.0
 11
101.5448273380177
 21
93.35621373167942
 31
0.0
  0
CIRCLE
  5
1586A
102
{ACAD_REACTORS
330
15903
102
}
330
1F
100
AcDbEntity
  8
0
370
    13
100
AcDbCircle
 10
68.54482733801773
 20
86.85621373167942
 30
0.0
 40
6.0
  0
DIMENSION
  5
1586B
330
1F
100
AcDbEntity
  8
寸法
370
    13
100
AcDbDimension
  2
*D6
 10
45.54482733801774
 20
86.85621373167942
 30
0.0
 11
43.54482733801773
 21
115.8562137316794
 31
0.0
 70
    32
 71
     5
 42
58.00000000000001
  3
ISO-25 1／10
100
AcDbAlignedDimension
 13
68.54482733801773
 23
144.8562137316794
 33
0.0
 14
68.54482733801773
 24
86.85621373167942
 34
0.0
 50
90.0
100
AcDbRotatedDimension
1001
ACAD
1000
DSTYLE
1002
{
1070
   279
1070
     1
1002
}
  0
LINE
  5
1586C
330
1F
100
AcDbEntity
  8
0
370
    13
100
AcDbLine
 10
53.54482733801773
 20
70.85621373167942
 30
0.0
 11
105.5448273380177
 21
70.85621373167942
 31
0.0
  0
LINE
  5
1586D
330
1F
100
AcDbEntity
  8
0
  6
ACAD_ISO07W100
 48
0.5
370
    13
100
AcDbLine
 10
54.54482733801774
 20
74.85621373167941
 30
0.0
 11
101.5448273380177
 21
74.85621373167941
 31
0.0
  0
DIMENSION
  5
1586E
330
1F
100
AcDbEntity
  8
寸法
370
    13
100
AcDbDimension
  2
*D5
 10
68.54482733801773
 20
65.85621373167945
 30
0.0
 11
87.04482733801773
 21
67.85621373167945
 31
0.0
 70
    32
 71
     5
 42
37.0
  3
ISO-25 1／10
100
AcDbAlignedDimension
 13
105.5448273380177
 23
70.85621373167942
 33
0.0
 14
68.54482733801773
 24
86.85621373167942
 34
0.0
100
AcDbRotatedDimension
1001
ACAD
1000
DSTYLE
1002
{
1070
   279
1070
     1
1002
}
  0
ARC
  5
1586F
330
1F
100
AcDbEntity
  8
0
370
    13
100
AcDbCircle
 10
53.54482733801773
 20
73.85621373167942
 30
0.0
 40
3.0
100
AcDbArc
 50
180.0
 51
270.0
  0
LWPOLYLINE
  5
15870
102
{ACAD_REACTORS
330
15903
102
}
330
1F
100
AcDbEntity
  8
0
370
    13
100
AcDbPolyline
 90
        6
 70
     1
 43
0.0
 10
67.39012679963844
 20
88.85621373167941
 10
66.23542626125914
 20
86.85621373167942
 10
67.39012679963844
 20
84.85621373167942
 10
69.69952787639693
 20
84.85621373167942
 10
70.85422841477612
 20
86.85621373167942
 10
69.69952787639693
 20
88.85621373167941
  0
CIRCLE
  5
15875
102
{ACAD_REACTORS
330
15902
102
}
330
1F
100
AcDbEntity
  8
0
370
    13
100
AcDbCircle
 10
68.54482733801773
 20
144.8562137316794
 30
0.0
 40
6.0
  0
LINE
  5
15876
330
1F
100
AcDbEntity
  8
0
370
    13
100
AcDbLine
 10
105.5448273380177
 20
160.8562137316794
 30
0.0
 11
53.54482733801773
 21
160.8562137316794
 31
0.0
  0
LINE
  5
15877
330
1F
100
AcDbEntity
  8
0
  6
ACAD_ISO07W100
 48
0.5
370
    13
100
AcDbLine
 10
101.5448273380177
 20
156.8562137316794
 30
0.0
 11
54.54482733801774
 21
156.8562137316794
 31
0.0
  0
DIMENSION
  5
15878
330
1F
100
AcDbEntity
  8
寸法
370
    13
100
AcDbDimension
  2
*D1
 10
50.54482733801774
 20
165.8562137316794
 30
0.0
 11
78.04482733801774
 21
167.8562137316793
 31
0.0
 70
    32
 71
     5
 42
55.0
  3
ISO-25 1／10
100
AcDbAlignedDimension
 13
105.5448273380177
 23
160.8562137316793
 33
0.0
 14
50.54482733801774
 24
157.8562137316794
 34
0.0
100
AcDbRotatedDimension
1001
ACAD
1000
DSTYLE
1002
{
1070
   279
1070
     1
1002
}
  0
DIMENSION
  5
15879
330
1F
100
AcDbEntity
  8
寸法
370
    13
100
AcDbDimension
  2
*D4
 10
50.54482733801774
 20
170.8562137316793
 30
0.0
 11
108.0448273380177
 21
172.8562137316793
 31
0.0
 70
    32
 71
     5
 42
115.0
  3
ISO-25 1／10
100
AcDbAlignedDimension
 13
165.5448273380177
 23
157.8562137316794
 33
0.0
 14
50.54482733801774
 24
157.8562137316794
 34
0.0
100
AcDbRotatedDimension
1001
ACAD
1000
DSTYLE
1002
{
1070
   279
1070
     1
1002
}
  0
LWPOLYLINE
  5
1587A
102
{ACAD_REACTORS
330
15902
102
}
330
1F
100
AcDbEntity
  8
0
370
    13
100
AcDbPolyline
 90
        6
 70
     1
 43
0.0
 10
67.39012679963844
 20
146.8562137316794
 10
66.23542626125914
 20
144.8562137316794
 10
67.39012679963844
 20
142.8562137316794
 10
69.69952787639693
 20
142.8562137316794
 10
70.85422841477612
 20
144.8562137316794
 10
69.69952787639693
 20
146.8562137316794
  0
ARC
  5
1587B
330
1F
100
AcDbEntity
  8
0
370
    13
100
AcDbCircle
 10
53.54482733801773
 20
157.8562137316794
 30
0.0
 40
3.0
100
AcDbArc
 50
90.0
 51
180.0
  0
LINE
  5
1587C
330
1F
100
AcDbEntity
  8
0
370
    13
100
AcDbLine
 10
105.5448273380177
 20
138.3562137316794
 30
0.0
 11
105.5448273380177
 21
160.8562137316794
 31
0.0
  0
LINE
  5
1587D
330
1F
100
AcDbEntity
  8
0
  6
ACAD_ISO07W100
 48
0.5
370
    13
100
AcDbLine
 10
101.5448273380177
 20
138.3562137316794
 30
0.0
 11
101.5448273380177
 21
156.8562137316794
 31
0.0
  0
LINE
  5
15881
330
1F
100
AcDbEntity
  8
0
370
    13
100
AcDbLine
 10
78.04482733801774
 20
138.3562137316794
 30
0.0
 11
78.04482733801774
 21
93.35621373167942
 31
0.0
  0
LWPOLYLINE
  5
15882
330
1F
100
AcDbEntity
  8
0
370
    13
100
AcDbPolyline
 90
        4
 70
     1
 43
0.0
 10
78.04482733801774
 20
96.35621373167943
 10
79.04482733801774
 20
96.35621373167943
 10
79.04482733801774
 20
135.3562137316794
 10
78.04482733801774
 20
135.3562137316794
  0
LINE
  5
15883
330
1F
100
AcDbEntity
  8
0
370
    13
100
AcDbLine
 10
78.04482733801774
 20
138.3562137316794
 30
0.0
 11
105.5448273380177
 21
138.3562137316794
 31
0.0
  0
LINE
  5
15884
330
1F
100
AcDbEntity
  8
0
370
    13
100
AcDbLine
 10
78.04482733801774
 20
93.35621373167942
 30
0.0
 11
105.5448273380177
 21
93.35621373167942
 31
0.0
  0
LWPOLYLINE
  5
15885
330
1F
100
AcDbEntity
  8
0
370
    13
100
AcDbPolyline
 90
        4
 70
     1
 43
0.0
 10
80.54482733801775
 20
95.35621373167941
 10
110.5448273380177
 20
95.35621373167941
 10
110.5448273380177
 20
136.3562137316794
 10
80.54482733801775
 20
136.3562137316794
  0
LWPOLYLINE
  5
15886
330
1F
100
AcDbEntity
  8
0
370
    13
100
AcDbPolyline
 90
        4
 70
     1
 43
0.0
 10
81.54482733801774
 20
136.3562137316794
 10
95.54482733801775
 20
136.3562137316794
 10
95.54482733801775
 20
138.3562137316794
 10
81.54482733801774
 20
138.3562137316794
  0
LWPOLYLINE
  5
15887
330
1F
100
AcDbEntity
  8
0
370
    13
100
AcDbPolyline
 90
        4
 70
     1
 43
0.0
 10
81.54482733801774
 20
95.35621373167941
 10
95.54482733801775
 20
95.35621373167941
 10
95.54482733801775
 20
93.35621373167942
 10
81.54482733801774
 20
93.35621373167942
  0
DIMENSION
  5
15888
330
1F
100
AcDbEntity
  8
寸法
370
    13
100
AcDbDimension
  2
*D2
 10
110.5448273380177
 20
165.8562137316794
 30
0.0
 11
108.0448273380177
 21
167.8562137316793
 31
0.0
 70
    32
 71
     5
 42
5.0
  3
ISO-25 1／10
100
AcDbAlignedDimension
 13
105.5448273380177
 23
160.8562137316793
 33
0.0
 14
110.5448273380177
 24
160.8562137316794
 34
0.0
 50
180.0
100
AcDbRotatedDimension
1001
ACAD
1000
DSTYLE
1002
{
1070
   279
1070
     1
1002
}
  0
DIMENSION
  5
15889
330
1F
100
AcDbEntity
  8
寸法
370
    13
100
AcDbDimension
  2
*D3
 10
110.5448273380177
 20
165.8562137316794
 30
0.0
 11
138.0448273380177
 21
167.8562137316793
 31
0.0
 70
    32
 71
     5
 42
55.0
  3
ISO-25 1／10
100
AcDbAlignedDimension
 13
165.5448273380177
 23
157.8562137316794
 33
0.0
 14
110.5448273380177
 24
160.8562137316794
 34
0.0
 50
0.000000000000007
100
AcDbRotatedDimension
1001
ACAD
1000
DSTYLE
1002
{
1070
   279
1070
     1
1002
}
  0
LINE
  5
1590F
102
{ACAD_REACTORS
330
15923
102
}
330
1F
100
AcDbEntity
  8
0
370
    13
100
AcDbLine
 10
110.5448273380177
 20
138.3562137316794
 30
0.0
 11
110.5448273380177
 21
160.8562137316794
 31
0.0
  0
LINE
  5
15910
102
{ACAD_REACTORS
330
15923
102
}
330
1F
100
AcDbEntity
  8
0
  6
ACAD_ISO07W100
 48
0.5
370
    13
100
AcDbLine
 10
161.5448273380177
 20
156.8562137316794
 30
0.0
 11
161.5448273380177
 21
74.85621373167941
 31
0.0
  0
LINE
  5
15911
102
{ACAD_REACTORS
330
15923
102
}
330
1F
100
AcDbEntity
  8
0
  6
ACAD_ISO07W100
 48
0.5
370
    13
100
AcDbLine
 10
114.5448273380177
 20
156.8562137316794
 30
0.0
 11
161.5448273380177
 21
156.8562137316794
 31
0.0
  0
LINE
  5
15912
102
{ACAD_REACTORS
330
15923
102
}
330
1F
100
AcDbEntity
  8
0
  6
ACAD_ISO07W100
 48
0.5
370
    13
100
AcDbLine
 10
114.5448273380177
 20
156.8562137316794
 30
0.0
 11
114.5448273380177
 21
156.8562137316794
 31
0.0
  0
LINE
  5
15913
102
{ACAD_REACTORS
330
15923
102
}
330
1F
100
AcDbEntity
  8
0
  6
ACAD_ISO07W100
 48
0.5
370
    13
100
AcDbLine
 10
114.5448273380177
 20
74.85621373167941
 30
0.0
 11
114.5448273380177
 21
156.8562137316794
 31
0.0
  0
LINE
  5
15914
102
{ACAD_REACTORS
330
15923
102
}
330
1F
100
AcDbEntity
  8
0
  6
ACAD_ISO07W100
 48
0.5
370
    13
100
AcDbLine
 10
161.5448273380177
 20
74.85621373167941
 30
0.0
 11
114.5448273380177
 21
74.85621373167941
 31
0.0
  0
LINE
  5
15915
102
{ACAD_REACTORS
330
15923
102
}
330
1F
100
AcDbEntity
  8
0
370
    13
100
AcDbLine
 10
110.5448273380177
 20
70.85621373167942
 30
0.0
 11
110.5448273380177
 21
93.35621373167942
 31
0.0
  0
CIRCLE
  5
15916
102
{ACAD_REACTORS
330
15924
330
15923
102
}
330
1F
100
AcDbEntity
  8
0
370
    13
100
AcDbCircle
 10
147.5448273380177
 20
86.85621373167942
 30
0.0
 40
6.0
  0
LINE
  5
15917
102
{ACAD_REACTORS
330
15923
102
}
330
1F
100
AcDbEntity
  8
0
370
    13
100
AcDbLine
 10
165.5448273380177
 20
157.8562137316794
 30
0.0
 11
165.5448273380177
 21
73.85621373167942
 31
0.0
  0
LWPOLYLINE
  5
15918
102
{ACAD_REACTORS
330
15924
330
15923
102
}
330
1F
100
AcDbEntity
  8
0
370
    13
100
AcDbPolyline
 90
        6
 70
     1
 43
0.0
 10
148.699527876397
 20
88.85621373167941
 10
149.8542284147763
 20
86.85621373167942
 10
148.699527876397
 20
84.85621373167942
 10
146.3901267996385
 20
84.85621373167942
 10
145.2354262612593
 20
86.85621373167942
 10
146.3901267996385
 20
88.85621373167941
  0
LINE
  5
15919
102
{ACAD_REACTORS
330
15923
102
}
330
1F
100
AcDbEntity
  8
0
370
    13
100
AcDbLine
 10
162.5448273380177
 20
70.85621373167942
 30
0.0
 11
110.5448273380177
 21
70.85621373167942
 31
0.0
  0
ARC
  5
1591A
102
{ACAD_REACTORS
330
15923
102
}
330
1F
100
AcDbEntity
  8
0
370
    13
100
AcDbCircle
 10
162.5448273380177
 20
73.85621373167942
 30
0.0
 40
3.0
100
AcDbArc
 50
270.0
 51
0.000000000000007
  0
LWPOLYLINE
  5
1591B
102
{ACAD_REACTORS
330
15925
330
15923
102
}
330
1F
100
AcDbEntity
  8
0
370
    13
100
AcDbPolyline
 90
        6
 70
     1
 43
0.0
 10
148.699527876397
 20
146.8562137316794
 10
149.8542284147763
 20
144.8562137316794
 10
148.699527876397
 20
142.8562137316794
 10
146.3901267996385
 20
142.8562137316794
 10
145.2354262612593
 20
144.8562137316794
 10
146.3901267996385
 20
146.8562137316794
  0
CIRCLE
  5
1591C
102
{ACAD_REACTORS
330
15925
330
15923
102
}
330
1F
100
AcDbEntity
  8
0
370
    13
100
AcDbCircle
 10
147.5448273380177
 20
144.8562137316794
 30
0.0
 40
6.0
  0
LINE
  5
1591D
102
{ACAD_REACTORS
330
15923
102
}
330
1F
100
AcDbEntity
  8
0
370
    13
100
AcDbLine
 10
110.5448273380177
 20
160.8562137316794
 30
0.0
 11
162.5448273380177
 21
160.8562137316794
 31
0.0
  0
ARC
  5
1591E
102
{ACAD_REACTORS
330
15923
102
}
330
1F
100
AcDbEntity
  8
0
370
    13
100
AcDbCircle
 10
162.5448273380177
 20
157.8562137316794
 30
0.0
 40
3.0
100
AcDbArc
 50
0.000000000000007
 51
90.0
  0
LINE
  5
1591F
102
{ACAD_REACTORS
330
15923
102
}
330
1F
100
AcDbEntity
  8
0
370
    13
100
AcDbLine
 10
110.5448273380177
 20
138.3562137316794
 30
0.0
 11
110.5448273380177
 21
138.3562137316794
 31
0.0
  0
LINE
  5
15920
102
{ACAD_REACTORS
330
15923
102
}
330
1F
100
AcDbEntity
  8
0
370
    13
100
AcDbLine
 10
110.5448273380177
 20
93.35621373167942
 30
0.0
 11
110.5448273380177
 21
93.35621373167942
 31
0.0
  0
LINE
  5
15921
102
{ACAD_REACTORS
330
15923
102
}
330
1F
100
AcDbEntity
  8
0
370
    13
100
AcDbLine
 10
110.5448273380177
 20
138.3562137316794
 30
0.0
 11
110.5448273380177
 21
93.35621373167942
 31
0.0
  0
DIMENSION
  5
15927
330
1F
100
AcDbEntity
  8
寸法
370
    13
100
AcDbDimension
  2
*D7
 10
147.5448273380177
 20
65.85621373167945
 30
0.0
 11
129.0448273380177
 21
67.85621373167945
 31
0.0
 70
    32
 71
     5
 42
37.0
  3
ISO-25 1／10
100
AcDbAlignedDimension
 13
110.5448273380177
 23
70.85621373167942
 33
0.0
 14
147.5448273380177
 24
86.85621373167942
 34
0.0
 50
180.0
100
AcDbRotatedDimension
1001
ACAD
1000
DSTYLE
1002
{
1070
   279
1070
     1
1002
}
  0
DIMENSION
  5
1594F
330
1F
100
AcDbEntity
  8
寸法
370
    13
100
AcDbDimension
  2
*D8
 10
40.54482733801773
 20
70.85621373167942
 30
0.0
 11
38.54482733801772
 21
115.8562137316794
 31
0.0
 70
    32
 71
     5
 42
89.99999999999998
  3
ISO-25 1／10
100
AcDbAlignedDimension
 13
53.54482733801773
 23
160.8562137316794
 33
0.0
 14
53.54482733801773
 24
70.85621373167942
 34
0.0
 50
90.0
100
AcDbRotatedDimension
1001
ACAD
1000
DSTYLE
1002
{
1070
   279
1070
     1
1002
}
  0
DIMENSION
  5
15991
330
1F
100
AcDbEntity
  8
寸法
370
    13
100
AcDbDimension
  2
*D9
 10
50.54482733801771
 20
224.1562137316793
 30
0.0
 11
108.0448273380177
 21
226.1562137316793
 31
0.0
 70
    32
 71
     5
 42
115.0
  3
ISO-25 1／10
100
AcDbAlignedDimension
 13
165.5448273380177
 23
211.3562137316794
 33
0.0
 14
50.54482733801771
 24
211.3562137316794
 34
0.0
100
AcDbRotatedDimension
1001
ACAD
1000
DSTYLE
1002
{
1070
   279
1070
     1
1002
}
  0
DIMENSION
  5
15992
330
1F
100
AcDbEntity
  8
寸法
370
    13
100
AcDbDimension
  2
*D12
 10
50.54482733801771
 20
218.8562137316794
 30
0.0
 11
78.04482733801773
 21
220.8562137316794
 31
0.0
 70
    32
 71
     5
 42
55.00000000000003
  3
ISO-25 1／10
100
AcDbAlignedDimension
 13
105.5448273380177
 23
211.3562137316794
 33
0.0
 14
50.54482733801771
 24
211.3562137316794
 34
0.0
100
AcDbRotatedDimension
1001
ACAD
1000
DSTYLE
1002
{
1070
   279
1070
     1
1002
}
  0
DIMENSION
  5
15999
330
1F
100
AcDbEntity
  8
寸法
370
    13
100
AcDbDimension
  2
*D11
 10
110.5448273380177
 20
218.8562137316794
 30
0.0
 11
108.0448273380177
 21
220.8562137316794
 31
0.0
 70
    32
 71
     5
 42
5.0
  3
ISO-25 1／10
100
AcDbAlignedDimension
 13
105.5448273380177
 23
211.3562137316794
 33
0.0
 14
110.5448273380177
 24
211.3562137316794
 34
0.0
 50
180.0
100
AcDbRotatedDimension
1001
ACAD
1000
DSTYLE
1002
{
1070
   279
1070
     1
1002
}
  0
DIMENSION
  5
1599A
330
1F
100
AcDbEntity
  8
寸法
370
    13
100
AcDbDimension
  2
*D10
 10
110.5448273380177
 20
218.8562137316794
 30
0.0
 11
138.0448273380177
 21
220.8562137316794
 31
0.0
 70
    32
 71
     5
 42
55.00000000000003
  3
ISO-25 1／10
100
AcDbAlignedDimension
 13
165.5448273380177
 23
211.3562137316794
 33
0.0
 14
110.5448273380177
 24
211.3562137316794
 34
0.0
100
AcDbRotatedDimension
1001
ACAD
1000
DSTYLE
1002
{
1070
   279
1070
     1
1002
}
  0
LINE
  5
15B3C
102
{ACAD_REACTORS
330
15B45
102
}
330
1F
100
AcDbEntity
  8
0
  6
ACAD_ISO07W100
 48
0.5
370
    13
100
AcDbLine
 10
105.5448273380177
 20
195.3562137316794
 30
0.0
 11
50.54482733801771
 21
195.3562137316794
 31
0.0
  0
LINE
  5
15B3D
102
{ACAD_REACTORS
330
15B45
102
}
330
1F
100
AcDbEntity
  8
0
370
    13
100
AcDbLine
 10
101.5448273380177
 20
192.8562137316794
 30
0.0
 11
54.54482733801771
 21
192.8562137316794
 31
0.0
  0
LINE
  5
15B3E
102
{ACAD_REACTORS
330
15B45
102
}
330
1F
100
AcDbEntity
  8
0
  6
ACAD_ISO07W100
370
    13
100
AcDbLine
 10
53.54482733801771
 20
195.3562137316794
 30
0.0
 11
53.54482733801771
 21
197.3562137316793
 31
0.0
  0
LINE
  5
15B3F
102
{ACAD_REACTORS
330
15B45
102
}
330
1F
100
AcDbEntity
  8
0
370
    13
100
AcDbLine
 10
50.54482733801771
 20
197.3562137316793
 30
0.0
 11
105.5448273380177
 21
197.3562137316793
 31
0.0
  0
LINE
  5
15B40
102
{ACAD_REACTORS
330
15B45
102
}
330
1F
100
AcDbEntity
  8
0
370
    13
100
AcDbLine
 10
50.54482733801771
 20
195.3562137316794
 30
0.0
 11
50.54482733801771
 21
197.3562137316793
 31
0.0
  0
LINE
  5
15B41
102
{ACAD_REACTORS
330
15B45
102
}
330
1F
100
AcDbEntity
  8
0
370
    13
100
AcDbLine
 10
54.54482733801771
 20
192.8562137316794
 30
0.0
 11
50.54482733801771
 21
195.3562137316794
 31
0.0
  0
LINE
  5
15B42
102
{ACAD_REACTORS
330
15B45
102
}
330
1F
100
AcDbEntity
  8
0
  6
ACAD_ISO07W100
 48
0.5
370
    13
100
AcDbLine
 10
102.5448273380177
 20
197.3562137316793
 30
0.0
 11
102.5448273380177
 21
195.3562137316794
 31
0.0
  0
LINE
  5
15B43
102
{ACAD_REACTORS
330
15B45
102
}
330
1F
100
AcDbEntity
  8
0
370
    13
100
AcDbLine
 10
105.5448273380177
 20
197.3562137316793
 30
0.0
 11
105.5448273380177
 21
195.3562137316794
 31
0.0
  0
LINE
  5
15B44
102
{ACAD_REACTORS
330
15B45
102
}
330
1F
100
AcDbEntity
  8
0
370
    13
100
AcDbLine
 10
101.5448273380177
 20
192.8562137316794
 30
0.0
 11
105.5448273380177
 21
195.3562137316794
 31
0.0
  0
LINE
  5
15BC3
102
{ACAD_REACTORS
330
15BCC
102
}
330
1F
100
AcDbEntity
  8
0
370
    13
100
AcDbLine
 10
50.54482733801771
 20
209.3562137316794
 30
0.0
 11
105.5448273380177
 21
209.3562137316794
 31
0.0
  0
LINE
  5
15BC4
102
{ACAD_REACTORS
330
15BCC
102
}
330
1F
100
AcDbEntity
  8
0
  6
ACAD_ISO07W100
 48
0.5
370
    13
100
AcDbLine
 10
105.5448273380177
 20
211.3562137316794
 30
0.0
 11
50.54482733801771
 21
211.3562137316794
 31
0.0
  0
LINE
  5
15BC5
102
{ACAD_REACTORS
330
15BCC
102
}
330
1F
100
AcDbEntity
  8
0
370
    13
100
AcDbLine
 10
101.5448273380177
 20
213.8562137316794
 30
0.0
 11
54.54482733801771
 21
213.8562137316794
 31
0.0
  0
LINE
  5
15BC6
102
{ACAD_REACTORS
330
15BCC
102
}
330
1F
100
AcDbEntity
  8
0
  6
ACAD_ISO07W100
370
    13
100
AcDbLine
 10
53.54482733801771
 20
211.3562137316794
 30
0.0
 11
53.54482733801771
 21
209.3562137316794
 31
0.0
  0
LINE
  5
15BC7
102
{ACAD_REACTORS
330
15BCC
102
}
330
1F
100
AcDbEntity
  8
0
370
    13
100
AcDbLine
 10
50.54482733801771
 20
211.3562137316794
 30
0.0
 11
50.54482733801771
 21
209.3562137316794
 31
0.0
  0
LINE
  5
15BC8
102
{ACAD_REACTORS
330
15BCC
102
}
330
1F
100
AcDbEntity
  8
0
370
    13
100
AcDbLine
 10
54.54482733801771
 20
213.8562137316794
 30
0.0
 11
50.54482733801771
 21
211.3562137316794
 31
0.0
  0
LINE
  5
15BC9
102
{ACAD_REACTORS
330
15BCC
102
}
330
1F
100
AcDbEntity
  8
0
  6
ACAD_ISO07W100
 48
0.5
370
    13
100
AcDbLine
 10
102.5448273380177
 20
209.3562137316794
 30
0.0
 11
102.5448273380177
 21
211.3562137316794
 31
0.0
  0
LINE
  5
15BCA
102
{ACAD_REACTORS
330
15BCC
102
}
330
1F
100
AcDbEntity
  8
0
370
    13
100
AcDbLine
 10
105.5448273380177
 20
209.3562137316794
 30
0.0
 11
105.5448273380177
 21
211.3562137316794
 31
0.0
  0
LINE
  5
15BCB
102
{ACAD_REACTORS
330
15BCC
102
}
330
1F
100
AcDbEntity
  8
0
370
    13
100
AcDbLine
 10
101.5448273380177
 20
213.8562137316794
 30
0.0
 11
105.5448273380177
 21
211.3562137316794
 31
0.0
  0
LWPOLYLINE
  5
15BE9
330
1F
100
AcDbEntity
  8
0
370
    13
100
AcDbPolyline
 90
        4
 70
     1
 43
0.0
 10
105.5448273380177
 20
210.8562137316793
 10
110.5448273380177
 20
210.8562137316793
 10
110.5448273380177
 20
195.8562137316793
 10
105.5448273380177
 20
195.8562137316793
  0
LWPOLYLINE
  5
15BEA
330
1F
100
AcDbEntity
  8
0
370
    13
100
AcDbPolyline
 90
        4
 70
     1
 43
0.0
 10
85.54482733801776
 20
208.6562137316794
 10
85.54482733801776
 20
198.3562137316793
 10
91.54482733801776
 20
198.3562137316793
 10
91.54482733801776
 20
208.6562137316794
  0
LINE
  5
15BEB
102
{ACAD_REACTORS
330
15C02
102
}
330
1F
100
AcDbEntity
  8
0
370
    13
100
AcDbLine
 10
90.54482733801776
 20
204.3562137316793
 30
0.0
 11
91.54482733801776
 21
202.6241629241105
 31
0.0
  0
LINE
  5
15BEC
102
{ACAD_REACTORS
330
15C02
102
}
330
1F
100
AcDbEntity
  8
0
370
    13
100
AcDbLine
 10
90.54482733801776
 20
204.3562137316793
 30
0.0
 11
91.54482733801776
 21
206.0882645392484
 31
0.0
  0
LINE
  5
15BED
102
{ACAD_REACTORS
330
15C02
102
}
330
1F
100
AcDbEntity
  8
0
370
    13
100
AcDbLine
 10
91.54482733801776
 20
207.001965042744
 30
0.0
 11
91.54482733801776
 21
206.0882645392484
 31
0.0
  0
LINE
  5
15BEE
102
{ACAD_REACTORS
330
15C02
102
}
330
1F
100
AcDbEntity
  8
0
370
    13
100
AcDbLine
 10
91.54482733801776
 20
202.6241629241105
 30
0.0
 11
91.54482733801776
 21
201.7104624206148
 31
0.0
  0
LINE
  5
15BEF
102
{ACAD_REACTORS
330
15C02
102
}
330
1F
100
AcDbEntity
  8
0
370
    13
100
AcDbLine
 10
85.54482733801776
 20
207.001965042744
 30
0.0
 11
85.54482733801776
 21
201.7104624206148
 31
0.0
  0
ARC
  5
15BF0
102
{ACAD_REACTORS
330
15C02
102
}
330
1F
100
AcDbEntity
  8
0
370
    13
100
AcDbCircle
 10
88.54482733801773
 20
204.3562137316793
 30
0.0
 40
4.0
100
AcDbArc
 50
41.40962210927095
 51
138.590377890729
  0
ARC
  5
15BF1
102
{ACAD_REACTORS
330
15C02
102
}
330
1F
100
AcDbEntity
  8
0
370
    13
100
AcDbCircle
 10
88.54482733801773
 20
204.3562137316793
 30
0.0
 40
4.0
100
AcDbArc
 50
221.4096221092709
 51
318.590377890729
  0
LINE
  5
15BF2
102
{ACAD_REACTORS
330
15C03
102
}
330
1F
100
AcDbEntity
  8
0
370
    13
100
AcDbLine
 10
74.29482733801771
 20
193.1562137316794
 30
0.0
 11
71.54482733801771
 21
195.9062137316794
 31
0.0
  0
LINE
  5
15BF3
102
{ACAD_REACTORS
330
15C03
102
}
330
1F
100
AcDbEntity
  8
0
370
    13
100
AcDbLine
 10
71.54482733801771
 20
206.4562137316793
 30
0.0
 11
65.54482733801771
 21
206.4562137316793
 31
0.0
  0
LINE
  5
15BF4
102
{ACAD_REACTORS
330
15C03
102
}
330
1F
100
AcDbEntity
  8
0
370
    13
100
AcDbLine
 10
65.94482733801772
 20
206.8562137316793
 30
0.0
 11
65.9448273380178
 21
195.9062137316793
 31
0.0
  0
LINE
  5
15BF5
102
{ACAD_REACTORS
330
15C03
102
}
330
1F
100
AcDbEntity
  8
0
370
    13
100
AcDbLine
 10
71.14482733801771
 20
206.8562137316793
 30
0.0
 11
71.14482733801779
 21
195.9062137316794
 31
0.0
  0
LINE
  5
15BF6
102
{ACAD_REACTORS
330
15C03
102
}
330
1F
100
AcDbEntity
  8
0
370
    13
100
AcDbLine
 10
71.54482733801771
 20
195.9062137316794
 30
0.0
 11
65.54482733801768
 21
195.9062137316793
 31
0.0
  0
LINE
  5
15BF7
102
{ACAD_REACTORS
330
15C03
102
}
330
1F
100
AcDbEntity
  8
0
370
    13
100
AcDbLine
 10
71.14482733801771
 20
206.8562137316793
 30
0.0
 11
65.94482733801772
 21
206.8562137316793
 31
0.0
  0
LINE
  5
15BF8
102
{ACAD_REACTORS
330
15C03
102
}
330
1F
100
AcDbEntity
  8
0
370
    13
100
AcDbLine
 10
65.54482733801771
 20
206.4562137316793
 30
0.0
 11
65.54482733801768
 21
195.9062137316793
 31
0.0
  0
LINE
  5
15BF9
102
{ACAD_REACTORS
330
15C03
102
}
330
1F
100
AcDbEntity
  8
0
370
    13
100
AcDbLine
 10
65.94482733801772
 20
206.8562137316793
 30
0.0
 11
65.54482733801771
 21
206.4562137316793
 31
0.0
  0
LINE
  5
15BFA
102
{ACAD_REACTORS
330
15C03
102
}
330
1F
100
AcDbEntity
  8
0
370
    13
100
AcDbLine
 10
71.54482733801771
 20
195.9062137316794
 30
0.0
 11
71.54482733801771
 21
206.4562137316793
 31
0.0
  0
LINE
  5
15BFB
102
{ACAD_REACTORS
330
15C03
102
}
330
1F
100
AcDbEntity
  8
0
370
    13
100
AcDbLine
 10
71.14482733801771
 20
206.8562137316793
 30
0.0
 11
71.54482733801771
 21
206.4562137316793
 31
0.0
  0
LINE
  5
15BFC
102
{ACAD_REACTORS
330
15C03
102
}
330
1F
100
AcDbEntity
  8
0
370
    13
100
AcDbLine
 10
62.79482733801772
 20
193.1562137316794
 30
0.0
 11
74.29482733801771
 21
193.1562137316794
 31
0.0
  0
LINE
  5
15BFD
102
{ACAD_REACTORS
330
15C03
102
}
330
1F
100
AcDbEntity
  8
0
370
    13
100
AcDbLine
 10
62.79482733801772
 20
193.1562137316794
 30
0.0
 11
65.54482733801768
 21
195.9062137316793
 31
0.0
  0
LINE
  5
15BFE
102
{ACAD_REACTORS
330
15C03
102
}
330
1F
100
AcDbEntity
  8
0
370
    13
100
AcDbLine
 10
74.29482733801771
 20
192.8562137316794
 30
0.0
 11
74.29482733801771
 21
193.1562137316794
 31
0.0
  0
LINE
  5
15BFF
102
{ACAD_REACTORS
330
15C03
102
}
330
1F
100
AcDbEntity
  8
0
370
    13
100
AcDbLine
 10
62.79482733801772
 20
193.1562137316794
 30
0.0
 11
62.79482733801772
 21
192.8562137316794
 31
0.0
  0
LINE
  5
15C00
102
{ACAD_REACTORS
330
15C03
102
}
330
1F
100
AcDbEntity
  8
0
370
    13
100
AcDbLine
 10
62.79482733801772
 20
192.8562137316794
 30
0.0
 11
74.29482733801771
 21
192.8562137316794
 31
0.0
  0
LWPOLYLINE
  5
15C01
330
1F
100
AcDbEntity
  8
0
370
    13
100
AcDbPolyline
 90
        4
 70
     1
 43
0.0
 10
63.54482733801771
 20
209.3562137316794
 10
63.54482733801771
 20
198.3562137316793
 10
105.5448273380177
 20
198.3562137316793
 10
105.5448273380177
 20
209.3562137316794
  0
LWPOLYLINE
  5
15CA8
330
1F
100
AcDbEntity
  8
0
 62
     4
370
    13
100
AcDbPolyline
 90
        4
 70
     1
 43
0.0
 10
54.04482733801771
 20
197.3562137316793
 10
54.04482733801771
 20
199.3562137316794
 10
102.0448273380177
 20
199.3562137316794
 10
102.0448273380177
 20
197.3562137316793
  0
LWPOLYLINE
  5
15CC4
330
1F
100
AcDbEntity
  8
0
 62
     4
370
    13
100
AcDbPolyline
 90
        4
 70
     1
 43
0.0
 10
54.04482733801771
 20
207.3562137316793
 10
54.04482733801771
 20
209.3562137316793
 10
102.0448273380177
 20
209.3562137316793
 10
102.0448273380177
 20
207.3562137316793
  0
LWPOLYLINE
  5
15CE8
330
1F
100
AcDbEntity
  8
0
 62
     4
370
    13
100
AcDbPolyline
 90
        4
 70
     1
 43
0.0
 10
162.0448273380177
 20
207.3562137316793
 10
162.0448273380177
 20
209.3562137316793
 10
114.0448273380177
 20
209.3562137316793
 10
114.0448273380177
 20
207.3562137316793
  0
LWPOLYLINE
  5
15CE9
330
1F
100
AcDbEntity
  8
0
370
    13
100
AcDbPolyline
 90
        4
 70
     1
 43
0.0
 10
152.5448273380177
 20
209.3562137316794
 10
152.5448273380177
 20
198.3562137316793
 10
110.5448273380177
 20
198.3562137316793
 10
110.5448273380177
 20
209.3562137316794
  0
LWPOLYLINE
  5
15CEA
330
1F
100
AcDbEntity
  8
0
 62
     4
370
    13
100
AcDbPolyline
 90
        4
 70
     1
 43
0.0
 10
162.0448273380177
 20
197.3562137316793
 10
162.0448273380177
 20
199.3562137316794
 10
114.0448273380177
 20
199.3562137316794
 10
114.0448273380177
 20
197.3562137316793
  0
LINE
  5
15CEE
102
{ACAD_REACTORS
330
15D14
102
}
330
1F
100
AcDbEntity
  8
0
370
    13
100
AcDbLine
 10
165.5448273380177
 20
197.3562137316793
 30
0.0
 11
110.5448273380177
 21
197.3562137316793
 31
0.0
  0
LINE
  5
15CEF
102
{ACAD_REACTORS
330
15D14
102
}
330
1F
100
AcDbEntity
  8
0
370
    13
100
AcDbLine
 10
114.5448273380177
 20
192.8562137316794
 30
0.0
 11
161.5448273380177
 21
192.8562137316794
 31
0.0
  0
LINE
  5
15CF0
102
{ACAD_REACTORS
330
15D14
102
}
330
1F
100
AcDbEntity
  8
0
  6
ACAD_ISO07W100
 48
0.5
370
    13
100
AcDbLine
 10
110.5448273380177
 20
195.3562137316794
 30
0.0
 11
165.5448273380177
 21
195.3562137316794
 31
0.0
  0
LINE
  5
15CF1
102
{ACAD_REACTORS
330
15D17
102
}
330
1F
100
AcDbEntity
  8
0
370
    13
100
AcDbLine
 10
153.2948273380177
 20
192.8562137316794
 30
0.0
 11
141.7948273380177
 21
192.8562137316794
 31
0.0
  0
LINE
  5
15CF2
102
{ACAD_REACTORS
330
15D17
102
}
330
1F
100
AcDbEntity
  8
0
370
    13
100
AcDbLine
 10
153.2948273380177
 20
193.1562137316794
 30
0.0
 11
153.2948273380177
 21
192.8562137316794
 31
0.0
  0
LINE
  5
15CF3
102
{ACAD_REACTORS
330
15D17
102
}
330
1F
100
AcDbEntity
  8
0
370
    13
100
AcDbLine
 10
141.7948273380177
 20
192.8562137316794
 30
0.0
 11
141.7948273380177
 21
193.1562137316794
 31
0.0
  0
LINE
  5
15CF4
102
{ACAD_REACTORS
330
15D17
102
}
330
1F
100
AcDbEntity
  8
0
370
    13
100
AcDbLine
 10
141.7948273380177
 20
193.1562137316794
 30
0.0
 11
144.5448273380177
 21
195.9062137316794
 31
0.0
  0
LINE
  5
15CF5
102
{ACAD_REACTORS
330
15D17
102
}
330
1F
100
AcDbEntity
  8
0
370
    13
100
AcDbLine
 10
153.2948273380177
 20
193.1562137316794
 30
0.0
 11
150.5448273380177
 21
195.9062137316793
 31
0.0
  0
LINE
  5
15CF6
102
{ACAD_REACTORS
330
15D17
102
}
330
1F
100
AcDbEntity
  8
0
370
    13
100
AcDbLine
 10
144.9448273380177
 20
206.8562137316793
 30
0.0
 11
144.5448273380177
 21
206.4562137316793
 31
0.0
  0
LINE
  5
15CF7
102
{ACAD_REACTORS
330
15D17
102
}
330
1F
100
AcDbEntity
  8
0
370
    13
100
AcDbLine
 10
144.5448273380177
 20
195.9062137316794
 30
0.0
 11
144.5448273380177
 21
206.4562137316793
 31
0.0
  0
LINE
  5
15CF8
102
{ACAD_REACTORS
330
15D17
102
}
330
1F
100
AcDbEntity
  8
0
370
    13
100
AcDbLine
 10
150.1448273380177
 20
206.8562137316793
 30
0.0
 11
150.5448273380177
 21
206.4562137316793
 31
0.0
  0
LINE
  5
15CF9
102
{ACAD_REACTORS
330
15D17
102
}
330
1F
100
AcDbEntity
  8
0
370
    13
100
AcDbLine
 10
150.5448273380177
 20
206.4562137316793
 30
0.0
 11
150.5448273380177
 21
195.9062137316793
 31
0.0
  0
LINE
  5
15CFA
102
{ACAD_REACTORS
330
15D17
102
}
330
1F
100
AcDbEntity
  8
0
370
    13
100
AcDbLine
 10
144.9448273380177
 20
206.8562137316793
 30
0.0
 11
150.1448273380177
 21
206.8562137316793
 31
0.0
  0
LINE
  5
15CFB
102
{ACAD_REACTORS
330
15D17
102
}
330
1F
100
AcDbEntity
  8
0
370
    13
100
AcDbLine
 10
144.5448273380177
 20
195.9062137316794
 30
0.0
 11
150.5448273380177
 21
195.9062137316793
 31
0.0
  0
LINE
  5
15CFC
102
{ACAD_REACTORS
330
15D17
102
}
330
1F
100
AcDbEntity
  8
0
370
    13
100
AcDbLine
 10
144.9448273380177
 20
206.8562137316793
 30
0.0
 11
144.9448273380177
 21
195.9062137316794
 31
0.0
  0
LINE
  5
15CFD
102
{ACAD_REACTORS
330
15D17
102
}
330
1F
100
AcDbEntity
  8
0
370
    13
100
AcDbLine
 10
150.1448273380177
 20
206.8562137316793
 30
0.0
 11
150.1448273380176
 21
195.9062137316793
 31
0.0
  0
LINE
  5
15CFE
102
{ACAD_REACTORS
330
15D17
102
}
330
1F
100
AcDbEntity
  8
0
370
    13
100
AcDbLine
 10
144.5448273380177
 20
206.4562137316793
 30
0.0
 11
150.5448273380177
 21
206.4562137316793
 31
0.0
  0
LINE
  5
15CFF
102
{ACAD_REACTORS
330
15D17
102
}
330
1F
100
AcDbEntity
  8
0
370
    13
100
AcDbLine
 10
153.2948273380177
 20
193.1562137316794
 30
0.0
 11
141.7948273380177
 21
193.1562137316794
 31
0.0
  0
LINE
  5
15D01
102
{ACAD_REACTORS
330
15D14
102
}
330
1F
100
AcDbEntity
  8
0
370
    13
100
AcDbLine
 10
161.5448273380177
 20
192.8562137316794
 30
0.0
 11
165.5448273380177
 21
195.3562137316794
 31
0.0
  0
LINE
  5
15D02
102
{ACAD_REACTORS
330
15D14
102
}
330
1F
100
AcDbEntity
  8
0
370
    13
100
AcDbLine
 10
165.5448273380177
 20
195.3562137316794
 30
0.0
 11
165.5448273380177
 21
197.3562137316793
 31
0.0
  0
LINE
  5
15D03
102
{ACAD_REACTORS
330
15D14
102
}
330
1F
100
AcDbEntity
  8
0
  6
ACAD_ISO07W100
370
    13
100
AcDbLine
 10
162.5448273380177
 20
195.3562137316794
 30
0.0
 11
162.5448273380177
 21
197.3562137316793
 31
0.0
  0
LINE
  5
15D08
102
{ACAD_REACTORS
330
15D14
102
}
330
1F
100
AcDbEntity
  8
0
370
    13
100
AcDbLine
 10
114.5448273380177
 20
192.8562137316794
 30
0.0
 11
110.5448273380177
 21
195.3562137316794
 31
0.0
  0
LINE
  5
15D09
102
{ACAD_REACTORS
330
15D14
102
}
330
1F
100
AcDbEntity
  8
0
  6
ACAD_ISO07W100
 48
0.5
370
    13
100
AcDbLine
 10
113.5448273380177
 20
197.3562137316793
 30
0.0
 11
113.5448273380177
 21
195.3562137316794
 31
0.0
  0
LINE
  5
15D0A
102
{ACAD_REACTORS
330
15D15
102
}
330
1F
100
AcDbEntity
  8
0
370
    13
100
AcDbLine
 10
114.5448273380177
 20
213.8562137316794
 30
0.0
 11
161.5448273380177
 21
213.8562137316794
 31
0.0
  0
LINE
  5
15D0B
102
{ACAD_REACTORS
330
15D15
102
}
330
1F
100
AcDbEntity
  8
0
  6
ACAD_ISO07W100
 48
0.5
370
    13
100
AcDbLine
 10
110.5448273380177
 20
211.3562137316794
 30
0.0
 11
165.5448273380177
 21
211.3562137316794
 31
0.0
  0
LINE
  5
15D0C
102
{ACAD_REACTORS
330
15D15
102
}
330
1F
100
AcDbEntity
  8
0
370
    13
100
AcDbLine
 10
165.5448273380177
 20
209.3562137316794
 30
0.0
 11
110.5448273380177
 21
209.3562137316794
 31
0.0
  0
LINE
  5
15D0D
102
{ACAD_REACTORS
330
15D15
102
}
330
1F
100
AcDbEntity
  8
0
370
    13
100
AcDbLine
 10
161.5448273380177
 20
213.8562137316794
 30
0.0
 11
165.5448273380177
 21
211.3562137316794
 31
0.0
  0
LINE
  5
15D0E
102
{ACAD_REACTORS
330
15D15
102
}
330
1F
100
AcDbEntity
  8
0
370
    13
100
AcDbLine
 10
165.5448273380177
 20
211.3562137316794
 30
0.0
 11
165.5448273380177
 21
209.3562137316794
 31
0.0
  0
LINE
  5
15D0F
102
{ACAD_REACTORS
330
15D15
102
}
330
1F
100
AcDbEntity
  8
0
  6
ACAD_ISO07W100
370
    13
100
AcDbLine
 10
162.5448273380177
 20
211.3562137316794
 30
0.0
 11
162.5448273380177
 21
209.3562137316794
 31
0.0
  0
LINE
  5
15D10
102
{ACAD_REACTORS
330
15D15
102
}
330
1F
100
AcDbEntity
  8
0
370
    13
100
AcDbLine
 10
114.5448273380177
 20
213.8562137316794
 30
0.0
 11
110.5448273380177
 21
211.3562137316794
 31
0.0
  0
LINE
  5
15D11
102
{ACAD_REACTORS
330
15D15
102
}
330
1F
100
AcDbEntity
  8
0
  6
ACAD_ISO07W100
 48
0.5
370
    13
100
AcDbLine
 10
113.5448273380177
 20
209.3562137316794
 30
0.0
 11
113.5448273380177
 21
211.3562137316794
 31
0.0
  0
LINE
  5
15D12
102
{ACAD_REACTORS
330
15D14
102
}
330
1F
100
AcDbEntity
  8
0
370
    13
100
AcDbLine
 10
110.5448273380177
 20
197.3562137316793
 30
0.0
 11
110.5448273380177
 21
195.3562137316794
 31
0.0
  0
LINE
  5
15D13
102
{ACAD_REACTORS
330
15D15
102
}
330
1F
100
AcDbEntity
  8
0
370
    13
100
AcDbLine
 10
110.5448273380177
 20
209.3562137316794
 30
0.0
 11
110.5448273380177
 21
211.3562137316794
 31
0.0
  0
LINE
  5
15E4D
102
{ACAD_REACTORS
330
15E56
102
}
330
1F
100
AcDbEntity
  8
0
370
    13
100
AcDbLine
 10
0.5448273380177398
 20
156.8562137316794
 30
0.0
 11
0.5448273380177398
 21
74.85621373167943
 31
0.0
  0
LINE
  5
15E4E
102
{ACAD_REACTORS
330
15E56
102
}
330
1F
100
AcDbEntity
  8
0
  6
ACAD_ISO07W100
370
    13
100
AcDbLine
 10
-1.95517266198226
 20
73.85621373167943
 30
0.0
 11
-3.95517266198226
 21
73.85621373167943
 31
0.0
  0
LINE
  5
15E4F
102
{ACAD_REACTORS
330
15E56
102
}
330
1F
100
AcDbEntity
  8
0
  6
ACAD_ISO07W100
 48
0.5
370
    13
100
AcDbLine
 10
-1.95517266198226
 20
160.8562137316794
 30
0.0
 11
-1.95517266198226
 21
70.85621373167943
 31
0.0
  0
LINE
  5
15E50
102
{ACAD_REACTORS
330
15E56
102
}
330
1F
100
AcDbEntity
  8
0
370
    13
100
AcDbLine
 10
-3.95517266198226
 20
70.85621373167943
 30
0.0
 11
-3.95517266198226
 21
160.8562137316794
 31
0.0
  0
LINE
  5
15E51
102
{ACAD_REACTORS
330
15E56
102
}
330
1F
100
AcDbEntity
  8
0
370
    13
100
AcDbLine
 10
-1.95517266198226
 20
70.85621373167943
 30
0.0
 11
-3.95517266198226
 21
70.85621373167943
 31
0.0
  0
LINE
  5
15E52
102
{ACAD_REACTORS
330
15E56
102
}
330
1F
100
AcDbEntity
  8
0
370
    13
100
AcDbLine
 10
0.5448273380177398
 20
74.85621373167943
 30
0.0
 11
-1.95517266198226
 21
70.85621373167943
 31
0.0
  0
LINE
  5
15E53
102
{ACAD_REACTORS
330
15E56
102
}
330
1F
100
AcDbEntity
  8
0
  6
ACAD_ISO07W100
 48
0.5
370
    13
100
AcDbLine
 10
-3.95517266198226
 20
157.8562137316794
 30
0.0
 11
-1.95517266198226
 21
157.8562137316794
 31
0.0
  0
LINE
  5
15E54
102
{ACAD_REACTORS
330
15E56
102
}
330
1F
100
AcDbEntity
  8
0
370
    13
100
AcDbLine
 10
-3.95517266198226
 20
160.8562137316794
 30
0.0
 11
-1.95517266198226
 21
160.8562137316794
 31
0.0
  0
LINE
  5
15E55
102
{ACAD_REACTORS
330
15E56
102
}
330
1F
100
AcDbEntity
  8
0
370
    13
100
AcDbLine
 10
0.5448273380177398
 20
156.8562137316794
 30
0.0
 11
-1.95517266198226
 21
160.8562137316794
 31
0.0
  0
LWPOLYLINE
  5
15E6D
330
1F
100
AcDbEntity
  8
0
370
    13
100
AcDbPolyline
 90
        4
 70
     1
 43
0.0
 10
-4.95517266198226
 20
81.85621373167942
 10
-15.95517266198226
 20
81.85621373167942
 10
-15.95517266198226
 20
149.8562137316794
 10
-4.95517266198226
 20
149.8562137316794
  0
LWPOLYLINE
  5
15E6E
330
1F
100
AcDbEntity
  8
0
  6
ACAD_ISO07W100
 48
0.5
370
    13
100
AcDbPolyline
 90
        4
 70
     1
 43
0.0
 10
-4.95517266198226
 20
140.3562137316794
 10
-15.95517266198226
 20
140.3562137316794
 10
-15.95517266198226
 20
149.8562137316794
 10
-4.95517266198226
 20
149.8562137316794
  0
LWPOLYLINE
  5
15E6F
330
1F
100
AcDbEntity
  8
0
  6
ACAD_ISO07W100
 48
0.5
370
    13
100
AcDbPolyline
 90
        4
 70
     1
 43
0.0
 10
-4.95517266198226
 20
91.35621373167941
 10
-15.95517266198226
 20
91.35621373167941
 10
-15.95517266198226
 20
81.85621373167942
 10
-4.95517266198226
 20
81.85621373167942
  0
LINE
  5
15E9C
102
{ACAD_REACTORS
330
15EA5
102
}
330
1F
100
AcDbEntity
  8
0
370
    13
100
AcDbLine
 10
-20.45517266198225
 20
74.85621373167941
 30
0.0
 11
-20.45517266198225
 21
156.8562137316794
 31
0.0
  0
LINE
  5
15E9D
102
{ACAD_REACTORS
330
15EA5
102
}
330
1F
100
AcDbEntity
  8
0
  6
ACAD_ISO07W100
370
    13
100
AcDbLine
 10
-17.95517266198226
 20
157.8562137316794
 30
0.0
 11
-15.95517266198226
 21
157.8562137316794
 31
0.0
  0
LINE
  5
15E9E
102
{ACAD_REACTORS
330
15EA5
102
}
330
1F
100
AcDbEntity
  8
0
  6
ACAD_ISO07W100
 48
0.5
370
    13
100
AcDbLine
 10
-17.95517266198226
 20
70.85621373167942
 30
0.0
 11
-17.95517266198226
 21
160.8562137316794
 31
0.0
  0
LINE
  5
15E9F
102
{ACAD_REACTORS
330
15EA5
102
}
330
1F
100
AcDbEntity
  8
0
370
    13
100
AcDbLine
 10
-15.95517266198226
 20
160.8562137316794
 30
0.0
 11
-15.95517266198223
 21
70.85621373167942
 31
0.0
  0
LINE
  5
15EA0
102
{ACAD_REACTORS
330
15EA5
102
}
330
1F
100
AcDbEntity
  8
0
370
    13
100
AcDbLine
 10
-17.95517266198226
 20
160.8562137316794
 30
0.0
 11
-15.95517266198226
 21
160.8562137316794
 31
0.0
  0
LINE
  5
15EA1
102
{ACAD_REACTORS
330
15EA5
102
}
330
1F
100
AcDbEntity
  8
0
370
    13
100
AcDbLine
 10
-20.45517266198225
 20
156.8562137316794
 30
0.0
 11
-17.95517266198226
 21
160.8562137316794
 31
0.0
  0
LINE
  5
15EA2
102
{ACAD_REACTORS
330
15EA5
102
}
330
1F
100
AcDbEntity
  8
0
  6
ACAD_ISO07W100
 48
0.5
370
    13
100
AcDbLine
 10
-15.95517266198223
 20
73.85621373167942
 30
0.0
 11
-17.95517266198226
 21
73.85621373167942
 31
0.0
  0
LINE
  5
15EA3
102
{ACAD_REACTORS
330
15EA5
102
}
330
1F
100
AcDbEntity
  8
0
370
    13
100
AcDbLine
 10
-15.95517266198223
 20
70.85621373167942
 30
0.0
 11
-17.95517266198226
 21
70.85621373167942
 31
0.0
  0
LINE
  5
15EA4
102
{ACAD_REACTORS
330
15EA5
102
}
330
1F
100
AcDbEntity
  8
0
370
    13
100
AcDbLine
 10
-20.45517266198225
 20
74.85621373167941
 30
0.0
 11
-17.95517266198226
 21
70.85621373167942
 31
0.0
  0
LWPOLYLINE
  5
15EA6
330
1F
100
AcDbEntity
  8
0
 62
     4
370
    13
100
AcDbPolyline
 90
        4
 70
     1
 43
0.0
 10
-3.95517266198226
 20
74.85621373167943
 10
-5.955172661982203
 20
74.85621373167943
 10
-5.955172661982203
 20
156.8562137316794
 10
-3.95517266198226
 20
156.8562137316794
  0
LWPOLYLINE
  5
15EB9
330
1F
100
AcDbEntity
  8
0
 62
     4
370
    13
100
AcDbPolyline
 90
        4
 70
     1
 43
0.0
 10
-13.95517266198231
 20
74.85621373167943
 10
-15.95517266198226
 20
74.85621373167943
 10
-15.95517266198226
 20
156.8562137316794
 10
-13.95517266198231
 20
156.8562137316794
  0
LINE
  5
15EBA
102
{ACAD_REACTORS
330
15EC9
102
}
330
1F
100
AcDbEntity
  8
0
370
    13
100
AcDbLine
 10
0.2448273380176715
 20
150.6062137316794
 30
0.0
 11
-2.505172661982214
 21
147.8562137316794
 31
0.0
  0
LINE
  5
15EBB
102
{ACAD_REACTORS
330
15EC9
102
}
330
1F
100
AcDbEntity
  8
0
370
    13
100
AcDbLine
 10
-13.05517266198228
 20
141.8562137316794
 30
0.0
 11
-13.05517266198228
 21
147.8562137316794
 31
0.0
  0
LINE
  5
15EBC
102
{ACAD_REACTORS
330
15EC9
102
}
330
1F
100
AcDbEntity
  8
0
370
    13
100
AcDbLine
 10
-13.45517266198226
 20
147.4562137316794
 30
0.0
 11
-2.505172661982214
 21
147.4562137316793
 31
0.0
  0
LINE
  5
15EBD
102
{ACAD_REACTORS
330
15EC9
102
}
330
1F
100
AcDbEntity
  8
0
370
    13
100
AcDbLine
 10
-13.45517266198226
 20
142.2562137316794
 30
0.0
 11
-2.505172661982328
 21
142.2562137316793
 31
0.0
  0
LINE
  5
15EBE
102
{ACAD_REACTORS
330
15EC9
102
}
330
1F
100
AcDbEntity
  8
0
370
    13
100
AcDbLine
 10
-2.505172661982328
 20
141.8562137316794
 30
0.0
 11
-2.505172661982214
 21
147.8562137316794
 31
0.0
  0
LINE
  5
15EBF
102
{ACAD_REACTORS
330
15EC9
102
}
330
1F
100
AcDbEntity
  8
0
370
    13
100
AcDbLine
 10
-13.45517266198226
 20
142.2562137316794
 30
0.0
 11
-13.45517266198226
 21
147.4562137316794
 31
0.0
  0
LINE
  5
15EC0
102
{ACAD_REACTORS
330
15EC9
102
}
330
1F
100
AcDbEntity
  8
0
370
    13
100
AcDbLine
 10
-13.05517266198228
 20
147.8562137316794
 30
0.0
 11
-2.505172661982214
 21
147.8562137316794
 31
0.0
  0
LINE
  5
15EC1
102
{ACAD_REACTORS
330
15EC9
102
}
330
1F
100
AcDbEntity
  8
0
370
    13
100
AcDbLine
 10
-13.45517266198226
 20
147.4562137316794
 30
0.0
 11
-13.05517266198228
 21
147.8562137316794
 31
0.0
  0
LINE
  5
15EC2
102
{ACAD_REACTORS
330
15EC9
102
}
330
1F
100
AcDbEntity
  8
0
370
    13
100
AcDbLine
 10
-2.505172661982328
 20
141.8562137316794
 30
0.0
 11
-13.05517266198228
 21
141.8562137316794
 31
0.0
  0
LINE
  5
15EC3
102
{ACAD_REACTORS
330
15EC9
102
}
330
1F
100
AcDbEntity
  8
0
370
    13
100
AcDbLine
 10
-13.45517266198226
 20
142.2562137316794
 30
0.0
 11
-13.05517266198228
 21
141.8562137316794
 31
0.0
  0
LINE
  5
15EC4
102
{ACAD_REACTORS
330
15EC9
102
}
330
1F
100
AcDbEntity
  8
0
370
    13
100
AcDbLine
 10
0.2448273380176715
 20
150.6062137316794
 30
0.0
 11
0.2448273380176715
 21
139.1062137316794
 31
0.0
  0
LINE
  5
15EC5
102
{ACAD_REACTORS
330
15EC9
102
}
330
1F
100
AcDbEntity
  8
0
370
    13
100
AcDbLine
 10
0.2448273380176715
 20
139.1062137316794
 30
0.0
 11
-2.505172661982328
 21
141.8562137316794
 31
0.0
  0
LINE
  5
15EC6
102
{ACAD_REACTORS
330
15EC9
102
}
330
1F
100
AcDbEntity
  8
0
370
    13
100
AcDbLine
 10
0.5448273380177398
 20
139.1062137316794
 30
0.0
 11
0.2448273380176715
 21
139.1062137316794
 31
0.0
  0
LINE
  5
15EC7
102
{ACAD_REACTORS
330
15EC9
102
}
330
1F
100
AcDbEntity
  8
0
370
    13
100
AcDbLine
 10
0.2448273380176715
 20
150.6062137316794
 30
0.0
 11
0.5448273380177398
 21
150.6062137316794
 31
0.0
  0
LINE
  5
15EC8
102
{ACAD_REACTORS
330
15EC9
102
}
330
1F
100
AcDbEntity
  8
0
370
    13
100
AcDbLine
 10
0.5448273380177398
 20
150.6062137316794
 30
0.0
 11
0.5448273380177398
 21
139.1062137316794
 31
0.0
  0
LINE
  5
15ECA
102
{ACAD_REACTORS
330
15ED9
102
}
330
1F
100
AcDbEntity
  8
0
370
    13
100
AcDbLine
 10
0.2448273380176715
 20
81.10621373167942
 30
0.0
 11
-2.505172661982328
 21
83.85621373167941
 31
0.0
  0
LINE
  5
15ECB
102
{ACAD_REACTORS
330
15ED9
102
}
330
1F
100
AcDbEntity
  8
0
370
    13
100
AcDbLine
 10
-13.05517266198228
 20
83.85621373167941
 30
0.0
 11
-13.05517266198228
 21
89.85621373167942
 31
0.0
  0
LINE
  5
15ECC
102
{ACAD_REACTORS
330
15ED9
102
}
330
1F
100
AcDbEntity
  8
0
370
    13
100
AcDbLine
 10
-13.45517266198226
 20
89.45621373167941
 30
0.0
 11
-2.505172661982214
 21
89.45621373167933
 31
0.0
  0
LINE
  5
15ECD
102
{ACAD_REACTORS
330
15ED9
102
}
330
1F
100
AcDbEntity
  8
0
370
    13
100
AcDbLine
 10
-13.45517266198226
 20
84.25621373167942
 30
0.0
 11
-2.505172661982328
 21
84.25621373167933
 31
0.0
  0
LINE
  5
15ECE
102
{ACAD_REACTORS
330
15ED9
102
}
330
1F
100
AcDbEntity
  8
0
370
    13
100
AcDbLine
 10
-2.505172661982328
 20
83.85621373167941
 30
0.0
 11
-2.505172661982214
 21
89.85621373167944
 31
0.0
  0
LINE
  5
15ECF
102
{ACAD_REACTORS
330
15ED9
102
}
330
1F
100
AcDbEntity
  8
0
370
    13
100
AcDbLine
 10
-13.45517266198226
 20
84.25621373167942
 30
0.0
 11
-13.45517266198226
 21
89.45621373167941
 31
0.0
  0
LINE
  5
15ED0
102
{ACAD_REACTORS
330
15ED9
102
}
330
1F
100
AcDbEntity
  8
0
370
    13
100
AcDbLine
 10
-13.05517266198228
 20
89.85621373167942
 30
0.0
 11
-2.505172661982214
 21
89.85621373167944
 31
0.0
  0
LINE
  5
15ED1
102
{ACAD_REACTORS
330
15ED9
102
}
330
1F
100
AcDbEntity
  8
0
370
    13
100
AcDbLine
 10
-13.45517266198226
 20
89.45621373167941
 30
0.0
 11
-13.05517266198228
 21
89.85621373167942
 31
0.0
  0
LINE
  5
15ED2
102
{ACAD_REACTORS
330
15ED9
102
}
330
1F
100
AcDbEntity
  8
0
370
    13
100
AcDbLine
 10
-2.505172661982328
 20
83.85621373167941
 30
0.0
 11
-13.05517266198228
 21
83.85621373167941
 31
0.0
  0
LINE
  5
15ED3
102
{ACAD_REACTORS
330
15ED9
102
}
330
1F
100
AcDbEntity
  8
0
370
    13
100
AcDbLine
 10
-13.45517266198226
 20
84.25621373167942
 30
0.0
 11
-13.05517266198228
 21
83.85621373167941
 31
0.0
  0
LINE
  5
15ED4
102
{ACAD_REACTORS
330
15ED9
102
}
330
1F
100
AcDbEntity
  8
0
370
    13
100
AcDbLine
 10
0.2448273380176715
 20
92.60621373167941
 30
0.0
 11
0.2448273380176715
 21
81.10621373167942
 31
0.0
  0
LINE
  5
15ED5
102
{ACAD_REACTORS
330
15ED9
102
}
330
1F
100
AcDbEntity
  8
0
370
    13
100
AcDbLine
 10
0.2448273380176715
 20
92.60621373167941
 30
0.0
 11
-2.505172661982214
 21
89.85621373167944
 31
0.0
  0
LINE
  5
15ED6
102
{ACAD_REACTORS
330
15ED9
102
}
330
1F
100
AcDbEntity
  8
0
370
    13
100
AcDbLine
 10
0.5448273380177398
 20
81.10621373167942
 30
0.0
 11
0.2448273380176715
 21
81.10621373167942
 31
0.0
  0
LINE
  5
15ED7
102
{ACAD_REACTORS
330
15ED9
102
}
330
1F
100
AcDbEntity
  8
0
370
    13
100
AcDbLine
 10
0.2448273380176715
 20
92.60621373167941
 30
0.0
 11
0.5448273380177398
 21
92.60621373167941
 31
0.0
  0
LINE
  5
15ED8
102
{ACAD_REACTORS
330
15ED9
102
}
330
1F
100
AcDbEntity
  8
0
370
    13
100
AcDbLine
 10
0.5448273380177398
 20
92.60621373167941
 30
0.0
 11
0.5448273380177398
 21
81.10621373167942
 31
0.0
  0
DIMENSION
  5
15EDA
330
1F
100
AcDbEntity
  8
寸法
370
    13
100
AcDbDimension
  2
*D13
 10
-20.45517266198225
 20
165.8562137316794
 30
0.0
 11
-9.95517266198226
 21
167.8562137316794
 31
0.0
 70
    32
 71
     5
 42
21.0
  3
ISO-25 1／10
100
AcDbAlignedDimension
 13
0.5448273380177398
 23
156.8562137316794
 33
0.0
 14
-20.45517266198225
 24
156.8562137316794
 34
0.0
 50
0.000000000000007
100
AcDbRotatedDimension
1001
ACAD
1000
DSTYLE
1002
{
1070
   279
1070
     1
1002
}
  0
LWPOLYLINE
  5
15EF9
330
1F
100
AcDbEntity
  8
0
370
    13
100
AcDbPolyline
 90
        4
 70
     1
 43
0.0
 10
-4.95517266198226
 20
95.35621373167941
 10
-3.95517266198226
 20
95.35621373167941
 10
-3.95517266198226
 20
136.3562137316794
 10
-4.95517266198226
 20
136.3562137316794
  0
LWPOLYLINE
  5
15EFA
330
1F
100
AcDbEntity
  8
0
 62
     4
370
    13
100
AcDbPolyline
 90
        4
 70
     1
 43
0.0
 10
230.0448273380177
 20
74.85621373167943
 10
232.0448273380177
 20
74.85621373167943
 10
232.0448273380177
 20
156.8562137316794
 10
230.0448273380177
 20
156.8562137316794
  0
LWPOLYLINE
  5
15EFB
330
1F
100
AcDbEntity
  8
0
 62
     4
370
    13
100
AcDbPolyline
 90
        4
 70
     1
 43
0.0
 10
220.0448273380177
 20
74.85621373167943
 10
222.0448273380176
 20
74.85621373167943
 10
222.0448273380176
 20
156.8562137316794
 10
220.0448273380177
 20
156.8562137316794
  0
LINE
  5
15EFC
102
{ACAD_REACTORS
330
15F47
102
}
330
1F
100
AcDbEntity
  8
0
370
    13
100
AcDbLine
 10
232.0448273380177
 20
160.8562137316794
 30
0.0
 11
232.0448273380177
 21
70.85621373167942
 31
0.0
  0
LINE
  5
15EFD
102
{ACAD_REACTORS
330
15F47
102
}
330
1F
100
AcDbEntity
  8
0
  6
ACAD_ISO07W100
 48
0.5
370
    13
100
AcDbLine
 10
234.0448273380177
 20
70.85621373167942
 30
0.0
 11
234.0448273380177
 21
160.8562137316794
 31
0.0
  0
LINE
  5
15EFE
102
{ACAD_REACTORS
330
15F47
102
}
330
1F
100
AcDbEntity
  8
0
370
    13
100
AcDbLine
 10
236.5448273380177
 20
74.85621373167941
 30
0.0
 11
236.5448273380177
 21
156.8562137316794
 31
0.0
  0
LINE
  5
15F00
102
{ACAD_REACTORS
330
15F46
102
}
330
1F
100
AcDbEntity
  8
0
370
    13
100
AcDbLine
 10
215.5448273380177
 20
156.8562137316794
 30
0.0
 11
215.5448273380177
 21
74.85621373167943
 31
0.0
  0
LINE
  5
15F01
102
{ACAD_REACTORS
330
15F46
102
}
330
1F
100
AcDbEntity
  8
0
  6
ACAD_ISO07W100
 48
0.5
370
    13
100
AcDbLine
 10
218.0448273380177
 20
160.8562137316794
 30
0.0
 11
218.0448273380177
 21
70.85621373167943
 31
0.0
  0
LINE
  5
15F02
102
{ACAD_REACTORS
330
15F46
102
}
330
1F
100
AcDbEntity
  8
0
370
    13
100
AcDbLine
 10
220.0448273380177
 20
70.85621373167943
 30
0.0
 11
220.0448273380177
 21
160.8562137316794
 31
0.0
  0
LINE
  5
15F03
102
{ACAD_REACTORS
330
15F49
102
}
330
1F
100
AcDbEntity
  8
0
370
    13
100
AcDbLine
 10
215.5448273380177
 20
92.60621373167941
 30
0.0
 11
215.5448273380177
 21
81.10621373167942
 31
0.0
  0
LINE
  5
15F04
102
{ACAD_REACTORS
330
15F49
102
}
330
1F
100
AcDbEntity
  8
0
370
    13
100
AcDbLine
 10
215.8448273380177
 20
92.60621373167941
 30
0.0
 11
215.5448273380177
 21
92.60621373167941
 31
0.0
  0
LINE
  5
15F05
102
{ACAD_REACTORS
330
15F49
102
}
330
1F
100
AcDbEntity
  8
0
370
    13
100
AcDbLine
 10
215.5448273380177
 20
81.10621373167942
 30
0.0
 11
215.8448273380177
 21
81.10621373167942
 31
0.0
  0
LINE
  5
15F06
102
{ACAD_REACTORS
330
15F49
102
}
330
1F
100
AcDbEntity
  8
0
370
    13
100
AcDbLine
 10
215.8448273380177
 20
92.60621373167941
 30
0.0
 11
218.5948273380176
 21
89.85621373167944
 31
0.0
  0
LINE
  5
15F07
102
{ACAD_REACTORS
330
15F49
102
}
330
1F
100
AcDbEntity
  8
0
370
    13
100
AcDbLine
 10
215.8448273380177
 20
92.60621373167941
 30
0.0
 11
215.8448273380177
 21
81.10621373167942
 31
0.0
  0
LINE
  5
15F08
102
{ACAD_REACTORS
330
15F49
102
}
330
1F
100
AcDbEntity
  8
0
370
    13
100
AcDbLine
 10
229.5448273380177
 20
84.25621373167942
 30
0.0
 11
229.1448273380177
 21
83.85621373167941
 31
0.0
  0
LINE
  5
15F09
102
{ACAD_REACTORS
330
15F49
102
}
330
1F
100
AcDbEntity
  8
0
370
    13
100
AcDbLine
 10
218.5948273380178
 20
83.85621373167941
 30
0.0
 11
229.1448273380177
 21
83.85621373167941
 31
0.0
  0
LINE
  5
15F0A
102
{ACAD_REACTORS
330
15F49
102
}
330
1F
100
AcDbEntity
  8
0
370
    13
100
AcDbLine
 10
229.5448273380177
 20
89.45621373167941
 30
0.0
 11
229.1448273380177
 21
89.85621373167942
 31
0.0
  0
LINE
  5
15F0B
102
{ACAD_REACTORS
330
15F49
102
}
330
1F
100
AcDbEntity
  8
0
370
    13
100
AcDbLine
 10
229.1448273380177
 20
89.85621373167942
 30
0.0
 11
218.5948273380176
 21
89.85621373167944
 31
0.0
  0
LINE
  5
15F0C
102
{ACAD_REACTORS
330
15F49
102
}
330
1F
100
AcDbEntity
  8
0
370
    13
100
AcDbLine
 10
229.5448273380177
 20
84.25621373167942
 30
0.0
 11
229.5448273380177
 21
89.45621373167941
 31
0.0
  0
LINE
  5
15F0D
102
{ACAD_REACTORS
330
15F49
102
}
330
1F
100
AcDbEntity
  8
0
370
    13
100
AcDbLine
 10
218.5948273380178
 20
83.85621373167941
 30
0.0
 11
218.5948273380176
 21
89.85621373167944
 31
0.0
  0
LINE
  5
15F0E
102
{ACAD_REACTORS
330
15F49
102
}
330
1F
100
AcDbEntity
  8
0
370
    13
100
AcDbLine
 10
229.5448273380177
 20
84.25621373167942
 30
0.0
 11
218.5948273380178
 21
84.25621373167933
 31
0.0
  0
LINE
  5
15F0F
102
{ACAD_REACTORS
330
15F49
102
}
330
1F
100
AcDbEntity
  8
0
370
    13
100
AcDbLine
 10
229.5448273380177
 20
89.45621373167941
 30
0.0
 11
218.5948273380176
 21
89.45621373167933
 31
0.0
  0
LINE
  5
15F10
102
{ACAD_REACTORS
330
15F49
102
}
330
1F
100
AcDbEntity
  8
0
370
    13
100
AcDbLine
 10
229.1448273380177
 20
83.85621373167941
 30
0.0
 11
229.1448273380177
 21
89.85621373167942
 31
0.0
  0
LINE
  5
15F11
102
{ACAD_REACTORS
330
15F49
102
}
330
1F
100
AcDbEntity
  8
0
370
    13
100
AcDbLine
 10
215.8448273380177
 20
81.10621373167942
 30
0.0
 11
218.5948273380178
 21
83.85621373167941
 31
0.0
  0
LINE
  5
15F12
102
{ACAD_REACTORS
330
15F47
102
}
330
1F
100
AcDbEntity
  8
0
370
    13
100
AcDbLine
 10
236.5448273380177
 20
74.85621373167941
 30
0.0
 11
234.0448273380177
 21
70.85621373167942
 31
0.0
  0
LINE
  5
15F13
102
{ACAD_REACTORS
330
15F47
102
}
330
1F
100
AcDbEntity
  8
0
370
    13
100
AcDbLine
 10
232.0448273380177
 20
70.85621373167942
 30
0.0
 11
234.0448273380177
 21
70.85621373167942
 31
0.0
  0
LINE
  5
15F14
102
{ACAD_REACTORS
330
15F47
102
}
330
1F
100
AcDbEntity
  8
0
  6
ACAD_ISO07W100
 48
0.5
370
    13
100
AcDbLine
 10
232.0448273380177
 20
73.85621373167942
 30
0.0
 11
234.0448273380177
 21
73.85621373167942
 31
0.0
  0
LWPOLYLINE
  5
15F15
330
1F
100
AcDbEntity
  8
0
 48
0.5
370
    13
100
AcDbPolyline
 90
        4
 70
     1
 43
0.0
 10
221.0448273380177
 20
91.35621373167941
 10
232.0448273380177
 20
91.35621373167941
 10
232.0448273380177
 20
81.85621373167942
 10
221.0448273380177
 20
81.85621373167942
  0
LINE
  5
15F16
102
{ACAD_REACTORS
330
15F46
102
}
330
1F
100
AcDbEntity
  8
0
370
    13
100
AcDbLine
 10
215.5448273380177
 20
74.85621373167943
 30
0.0
 11
218.0448273380177
 21
70.85621373167943
 31
0.0
  0
LINE
  5
15F17
102
{ACAD_REACTORS
330
15F46
102
}
330
1F
100
AcDbEntity
  8
0
370
    13
100
AcDbLine
 10
218.0448273380177
 20
70.85621373167943
 30
0.0
 11
220.0448273380177
 21
70.85621373167943
 31
0.0
  0
LINE
  5
15F18
102
{ACAD_REACTORS
330
15F46
102
}
330
1F
100
AcDbEntity
  8
0
  6
ACAD_ISO07W100
370
    13
100
AcDbLine
 10
218.0448273380177
 20
73.85621373167943
 30
0.0
 11
220.0448273380177
 21
73.85621373167943
 31
0.0
  0
LWPOLYLINE
  5
15F19
330
1F
100
AcDbEntity
  8
0
370
    13
100
AcDbPolyline
 90
        4
 70
     1
 43
0.0
 10
220.0448273380177
 20
95.35621373167941
 10
221.0448273380177
 20
95.35621373167941
 10
221.0448273380177
 20
136.3562137316794
 10
220.0448273380177
 20
136.3562137316794
  0
LINE
  5
15F1A
102
{ACAD_REACTORS
330
15F48
102
}
330
1F
100
AcDbEntity
  8
0
370
    13
100
AcDbLine
 10
215.5448273380177
 20
150.6062137316794
 30
0.0
 11
215.5448273380177
 21
139.1062137316794
 31
0.0
  0
LINE
  5
15F1B
102
{ACAD_REACTORS
330
15F48
102
}
330
1F
100
AcDbEntity
  8
0
370
    13
100
AcDbLine
 10
215.8448273380177
 20
150.6062137316794
 30
0.0
 11
215.5448273380177
 21
150.6062137316794
 31
0.0
  0
LINE
  5
15F1C
102
{ACAD_REACTORS
330
15F48
102
}
330
1F
100
AcDbEntity
  8
0
370
    13
100
AcDbLine
 10
215.5448273380177
 20
139.1062137316794
 30
0.0
 11
215.8448273380177
 21
139.1062137316794
 31
0.0
  0
LINE
  5
15F1D
102
{ACAD_REACTORS
330
15F48
102
}
330
1F
100
AcDbEntity
  8
0
370
    13
100
AcDbLine
 10
215.8448273380177
 20
139.1062137316794
 30
0.0
 11
218.5948273380178
 21
141.8562137316794
 31
0.0
  0
LINE
  5
15F1E
102
{ACAD_REACTORS
330
15F48
102
}
330
1F
100
AcDbEntity
  8
0
370
    13
100
AcDbLine
 10
215.8448273380177
 20
150.6062137316794
 30
0.0
 11
218.5948273380176
 21
147.8562137316794
 31
0.0
  0
LINE
  5
15F1F
102
{ACAD_REACTORS
330
15F48
102
}
330
1F
100
AcDbEntity
  8
0
370
    13
100
AcDbLine
 10
229.5448273380177
 20
142.2562137316794
 30
0.0
 11
229.1448273380177
 21
141.8562137316794
 31
0.0
  0
LINE
  5
15F20
102
{ACAD_REACTORS
330
15F48
102
}
330
1F
100
AcDbEntity
  8
0
370
    13
100
AcDbLine
 10
218.5948273380178
 20
141.8562137316794
 30
0.0
 11
229.1448273380177
 21
141.8562137316794
 31
0.0
  0
LINE
  5
15F21
102
{ACAD_REACTORS
330
15F48
102
}
330
1F
100
AcDbEntity
  8
0
370
    13
100
AcDbLine
 10
229.5448273380177
 20
147.4562137316794
 30
0.0
 11
229.1448273380177
 21
147.8562137316794
 31
0.0
  0
LINE
  5
15F22
102
{ACAD_REACTORS
330
15F48
102
}
330
1F
100
AcDbEntity
  8
0
370
    13
100
AcDbLine
 10
229.1448273380177
 20
147.8562137316794
 30
0.0
 11
218.5948273380176
 21
147.8562137316794
 31
0.0
  0
LINE
  5
15F23
102
{ACAD_REACTORS
330
15F48
102
}
330
1F
100
AcDbEntity
  8
0
370
    13
100
AcDbLine
 10
229.5448273380177
 20
142.2562137316794
 30
0.0
 11
229.5448273380177
 21
147.4562137316794
 31
0.0
  0
LINE
  5
15F24
102
{ACAD_REACTORS
330
15F48
102
}
330
1F
100
AcDbEntity
  8
0
370
    13
100
AcDbLine
 10
218.5948273380178
 20
141.8562137316794
 30
0.0
 11
218.5948273380176
 21
147.8562137316794
 31
0.0
  0
LINE
  5
15F25
102
{ACAD_REACTORS
330
15F48
102
}
330
1F
100
AcDbEntity
  8
0
370
    13
100
AcDbLine
 10
229.5448273380177
 20
142.2562137316794
 30
0.0
 11
218.5948273380178
 21
142.2562137316793
 31
0.0
  0
LINE
  5
15F26
102
{ACAD_REACTORS
330
15F48
102
}
330
1F
100
AcDbEntity
  8
0
370
    13
100
AcDbLine
 10
229.5448273380177
 20
147.4562137316794
 30
0.0
 11
218.5948273380176
 21
147.4562137316793
 31
0.0
  0
LINE
  5
15F27
102
{ACAD_REACTORS
330
15F48
102
}
330
1F
100
AcDbEntity
  8
0
370
    13
100
AcDbLine
 10
229.1448273380177
 20
141.8562137316794
 30
0.0
 11
229.1448273380177
 21
147.8562137316794
 31
0.0
  0
LINE
  5
15F28
102
{ACAD_REACTORS
330
15F48
102
}
330
1F
100
AcDbEntity
  8
0
370
    13
100
AcDbLine
 10
215.8448273380177
 20
150.6062137316794
 30
0.0
 11
215.8448273380177
 21
139.1062137316794
 31
0.0
  0
LWPOLYLINE
  5
15F29
330
1F
100
AcDbEntity
  8
0
 48
0.5
370
    13
100
AcDbPolyline
 90
        4
 70
     1
 43
0.0
 10
221.0448273380177
 20
140.3562137316794
 10
232.0448273380177
 20
140.3562137316794
 10
232.0448273380177
 20
149.8562137316794
 10
221.0448273380177
 20
149.8562137316794
  0
DIMENSION
  5
15F2A
330
1F
100
AcDbEntity
  8
寸法
370
    13
100
AcDbDimension
  2
*D14
 10
236.5448273380177
 20
165.8562137316794
 30
0.0
 11
226.0448273380177
 21
167.8562137316794
 31
0.0
 70
    32
 71
     5
 42
21.0
  3
ISO-25 1／10
100
AcDbAlignedDimension
 13
215.5448273380177
 23
156.8562137316794
 33
0.0
 14
236.5448273380177
 24
156.8562137316794
 34
0.0
 50
180.0
100
AcDbRotatedDimension
1001
ACAD
1000
DSTYLE
1002
{
1070
   279
1070
     1
1002
}
  0
LINE
  5
15F2B
102
{ACAD_REACTORS
330
15F47
102
}
330
1F
100
AcDbEntity
  8
0
370
    13
100
AcDbLine
 10
236.5448273380177
 20
156.8562137316794
 30
0.0
 11
234.0448273380177
 21
160.8562137316794
 31
0.0
  0
LINE
  5
15F2C
102
{ACAD_REACTORS
330
15F47
102
}
330
1F
100
AcDbEntity
  8
0
370
    13
100
AcDbLine
 10
234.0448273380177
 20
160.8562137316794
 30
0.0
 11
232.0448273380177
 21
160.8562137316794
 31
0.0
  0
LINE
  5
15F2D
102
{ACAD_REACTORS
330
15F47
102
}
330
1F
100
AcDbEntity
  8
0
  6
ACAD_ISO07W100
370
    13
100
AcDbLine
 10
234.0448273380177
 20
157.8562137316794
 30
0.0
 11
232.0448273380177
 21
157.8562137316794
 31
0.0
  0
LINE
  5
15F2E
102
{ACAD_REACTORS
330
15F46
102
}
330
1F
100
AcDbEntity
  8
0
370
    13
100
AcDbLine
 10
215.5448273380177
 20
156.8562137316794
 30
0.0
 11
218.0448273380177
 21
160.8562137316794
 31
0.0
  0
LINE
  5
15F2F
102
{ACAD_REACTORS
330
15F46
102
}
330
1F
100
AcDbEntity
  8
0
370
    13
100
AcDbLine
 10
220.0448273380177
 20
160.8562137316794
 30
0.0
 11
218.0448273380177
 21
160.8562137316794
 31
0.0
  0
LINE
  5
15F30
102
{ACAD_REACTORS
330
15F46
102
}
330
1F
100
AcDbEntity
  8
0
  6
ACAD_ISO07W100
 48
0.5
370
    13
100
AcDbLine
 10
220.0448273380177
 20
157.8562137316794
 30
0.0
 11
218.0448273380177
 21
157.8562137316794
 31
0.0
  0
LWPOLYLINE
  5
15F4A
330
1F
100
AcDbEntity
  8
0
370
    13
100
AcDbPolyline
 90
        4
 70
     1
 43
0.0
 10
232.0448273380177
 20
149.8562137316794
 10
221.0448273380177
 20
149.8562137316794
 10
221.0448273380177
 20
81.85621373167942
 10
232.0448273380177
 20
81.85621373167942
  0
CIRCLE
  5
15F4B
102
{ACAD_REACTORS
330
15F6E
102
}
330
1F
100
AcDbEntity
  8
0
370
    13
100
AcDbCircle
 10
226.5448273380177
 20
131.8562137316794
 30
0.0
 40
4.5
  0
LWPOLYLINE
  5
15F59
102
{ACAD_REACTORS
330
15F6E
102
}
330
1F
100
AcDbEntity
  8
0
370
    13
100
AcDbPolyline
 90
        6
 70
     1
 43
0.0
 10
227.9871350303254
 20
134.3543639349037
 10
229.4294427226331
 20
131.8562137316794
 10
227.9871350303254
 20
129.358063528455
 10
225.10251964571
 20
129.358063528455
 10
223.6602119534023
 20
131.8562137316794
 10
225.10251964571
 20
134.3543639349037
  0
LWPOLYLINE
  5
15F7C
102
{ACAD_REACTORS
330
15F7E
102
}
330
1F
100
AcDbEntity
  8
0
370
    13
100
AcDbPolyline
 90
        6
 70
     1
 43
0.0
 10
227.9871350303254
 20
97.35806352845509
 10
229.4294427226331
 20
99.85621373167942
 10
227.9871350303254
 20
102.3543639349037
 10
225.10251964571
 20
102.3543639349037
 10
223.6602119534023
 20
99.85621373167942
 10
225.10251964571
 20
97.35806352845509
  0
CIRCLE
  5
15F7D
102
{ACAD_REACTORS
330
15F7E
102
}
330
1F
100
AcDbEntity
  8
0
370
    13
100
AcDbCircle
 10
226.5448273380177
 20
99.85621373167942
 30
0.0
 40
4.5
  0
DIMENSION
  5
15F97
330
1F
100
AcDbEntity
  8
寸法
370
    13
100
AcDbDimension
  2
*D15
 10
45.54482733801772
 20
192.8562137316794
 30
0.0
 11
43.54482733801769
 21
203.3562137316794
 31
0.0
 70
    32
 71
     5
 42
21.00000000000002
  3
ISO-25 1／10
100
AcDbAlignedDimension
 13
54.54482733801771
 23
213.8562137316794
 33
0.0
 14
54.54482733801771
 24
192.8562137316794
 34
0.0
 50
90.0
100
AcDbRotatedDimension
1001
ACAD
1000
DSTYLE
1002
{
1070
   279
1070
     1
1002
}
  0
ENDSEC
  0
SECTION
  2
OBJECTS
  0
DICTIONARY
  5
C
330
0
100
AcDbDictionary
281
     1
  3
ACAD_GROUP
350
D
  3
ACAD_LAYOUT
350
1A
  3
ACAD_MLINESTYLE
350
17
  3
ACAD_PLOTSETTINGS
350
19
  3
ACAD_PLOTSTYLENAME
350
E
  3
AcadDim
350
577D
  3
AcDbVariableDictionary
350
1CE2
  3
DWGPROPS
350
15FC3
  0
DICTIONARY
  5
44
330
2
100
AcDbDictionary
280
     1
281
     1
  3
ACAD_LAYERFILTERS
360
45
  0
DICTIONARY
  5
D
102
{ACAD_REACTORS
330
C
102
}
330
C
100
AcDbDictionary
281
     1
  3
*A1
350
1B78
  3
*A2
350
102DA
  3
*A3
350
30AF
  3
*A4
350
812B
  3
*A5
350
13146
  3
*A6
350
B2B7
  3
*A7
350
102EA
  3
*A8
350
4EEB
  3
*A9
350
1DC1
  3
*A10
350
10315
  3
*A11
350
1DBF
  3
*A12
350
2F55
  3
*A13
350
11AAC
  3
*A14
350
10316
  3
*A15
350
10CE6
  3
*A16
350
13141
  3
*A17
350
107DA
  3
*A18
350
8ABB
  3
*A19
350
11C3A
  3
*A20
350
11A91
  3
*A21
350
10317
  3
*A22
350
3AAE
  3
*A23
350
10318
  3
*A24
350
11C86
  3
*A25
350
26A5
  3
*A26
350
10319
  3
*A27
350
BE44
  3
*A28
350
AC07
  3
*A29
350
132F4
  3
*A30
350
1031A
  3
*A31
350
1031B
  3
*A32
350
12402
  3
*A33
350
51DC
  3
*A34
350
10C8E
  3
*A35
350
10C8D
  3
*A36
350
5137
  3
*A37
350
C09E
  3
*A38
350
102EB
  3
*A39
350
2F5A
  3
*A40
350
1CED
  3
*A41
350
8121
  3
*A42
350
11CFC
  3
*A43
350
B605
  3
*A44
350
2F57
  3
*A45
350
1313C
  3
*A46
350
102DB
  3
*A47
350
13147
  3
*A48
350
1031C
  3
*A49
350
127BF
  3
*A50
350
1031D
  3
*A51
350
1083F
  3
*A52
350
511F
  3
*A53
350
13341
  3
*A54
350
1E45
  3
*A55
350
4EF7
  3
*A56
350
362A
  3
*A57
350
5238
  3
*A58
350
1031E
  3
*A59
350
3AAB
  3
*A60
350
13148
  3
*A61
350
1031F
  3
*A62
350
AB82
  3
*A63
350
127C0
  3
*A64
350
10320
  3
*A65
350
26AE
  3
*A66
350
11CFD
  3
*A67
350
AB87
  3
*A68
350
3215
  3
*A69
350
B2BD
  3
*A70
350
10323
  3
*A71
350
10CE5
  3
*A72
350
B4EF
  3
*A73
350
811C
  3
*A74
350
B60C
  3
*A75
350
2F4A
  3
*A76
350
8137
  3
*A77
350
AED3
  3
*A78
350
127C1
  3
*A79
350
1030A
  3
*A80
350
11AA4
  3
*A81
350
1099D
  3
*A82
350
8138
  3
*A83
350
B60A
  3
*A84
350
4EE7
  3
*A85
350
2F4B
  3
*A86
350
AC04
  3
*A87
350
11AA5
  3
*A88
350
106A8
  3
*A89
350
1347F
  3
*A90
350
C034
  3
*A91
350
B4F0
  3
*A92
350
26A8
  3
*A93
350
A76C
  3
*A94
350
B608
  3
*A95
350
11A92
  3
*A96
350
BE43
  3
*A97
350
5355
  3
*A98
350
A5EF
  3
*A99
350
102F3
  3
*A100
350
A7E7
  3
*A101
350
10D33
  3
*A102
350
13480
  3
*A103
350
C033
  3
*A104
350
10324
  3
*A105
350
B4F1
  3
*A106
350
B54C
  3
*A107
350
8118
  3
*A108
350
B2B6
  3
*A109
350
BE47
  3
*A110
350
52F2
  3
*A111
350
11BB1
  3
*A112
350
132F2
  3
*A113
350
5352
  3
*A114
350
102F2
  3
*A115
350
B2C9
  3
*A116
350
523B
  3
*A117
350
1CE9
  3
*A118
350
8130
  3
*A119
350
A5E5
  3
*A120
350
102ED
  3
*A121
350
4EDC
  3
*A122
350
80FF
  3
*A123
350
10308
  3
*A124
350
102DC
  3
*A125
350
4EE4
  3
*A126
350
8139
  3
*A127
350
8AB7
  3
*A128
350
10D35
  3
*A129
350
11B46
  3
*A130
350
26A9
  3
*A131
350
8ABD
  3
*A132
350
10325
  3
*A133
350
1099E
  3
*A134
350
26AB
  3
*A135
350
33A0
  3
*A136
350
8125
  3
*A137
350
2F59
  3
*A138
350
127C2
  3
*A139
350
132EE
  3
*A140
350
13481
  3
*A141
350
3AA6
  3
*A142
350
13149
  3
*A143
350
8107
  3
*A144
350
11A94
  3
*A145
350
4EE5
  3
*A146
350
102DD
  3
*A147
350
10CE8
  3
*A148
350
3D21
  3
*A149
350
B2C1
  3
*A150
350
813A
  3
*A151
350
50C4
  3
*A152
350
13482
  3
*A153
350
4EE2
  3
*A154
350
10D34
  3
*A155
350
1314A
  3
*A156
350
813B
  3
*A157
350
10D7F
  3
*A158
350
B609
  3
*A159
350
102FC
  3
*A160
350
52F6
  3
*A161
350
813C
  3
*A162
350
11B49
  3
*A163
350
3622
  3
*A164
350
A75C
  3
*A165
350
1099F
  3
*A166
350
1B7C
  3
*A167
350
14E62
  3
*A168
350
8114
  3
*A169
350
1314B
  3
*A170
350
1229A
  3
*A171
350
11A95
  3
*A172
350
14E63
  3
*A173
350
14E64
  3
*A174
350
14E65
  3
*A175
350
14E66
  3
*A176
350
10301
  3
*A177
350
1229C
  3
*A178
350
54A5
  3
*A179
350
102DE
  3
*A180
350
4EF2
  3
*A181
350
14E67
  3
*A182
350
8104
  3
*A183
350
52F8
  3
*A184
350
11CFE
  3
*A185
350
1DBD
  3
*A186
350
812F
  3
*A187
350
14E68
  3
*A188
350
1032C
  3
*A189
350
14E69
  3
*A190
350
811E
  3
*A191
350
14E6A
  3
*A192
350
14E6B
  3
*A193
350
BE3F
  3
*A194
350
33ED
  3
*A195
350
14E6C
  3
*A196
350
C032
  3
*A197
350
3AAA
  3
*A198
350
14E6D
  3
*A199
350
4EF5
  3
*A200
350
1032B
  3
*A201
350
2F58
  3
*A202
350
54A9
  3
*A203
350
14E6E
  3
*A204
350
523A
  3
*A205
350
14E6F
  3
*A206
350
10327
  3
*A207
350
14E70
  3
*A208
350
14E71
  3
*A209
350
107AC
  3
*A210
350
14E72
  3
*A211
350
14E73
  3
*A212
350
13143
  3
*A213
350
11C3C
  3
*A214
350
2F54
  3
*A215
350
127C3
  3
*A216
350
14E74
  3
*A217
350
14E75
  3
*A218
350
11A96
  3
*A219
350
A5E4
  3
*A220
350
8111
  3
*A221
350
564F
  3
*A222
350
1314C
  3
*A223
350
8120
  3
*A224
350
102DF
  3
*A225
350
14E76
  3
*A226
350
13483
  3
*A227
350
14E77
  3
*A228
350
11CFF
  3
*A229
350
14E78
  3
*A230
350
11BB9
  3
*A231
350
B2BF
  3
*A232
350
14E79
  3
*A233
350
14E7A
  3
*A234
350
14E7B
  3
*A235
350
102E0
  3
*A236
350
14E7C
  3
*A237
350
11C3B
  3
*A238
350
13484
  3
*A239
350
14E7D
  3
*A240
350
3D22
  3
*A241
350
106AB
  3
*A242
350
14E7E
  3
*A243
350
10BE5
  3
*A244
350
4EE9
  3
*A245
350
127C7
  3
*A246
350
8535
  3
*A247
350
11A97
  3
*A248
350
10305
  3
*A249
350
14E7F
  3
*A250
350
26B3
  3
*A251
350
2F50
  3
*A252
350
11D00
  3
*A253
350
3D1F
  3
*A254
350
14E80
  3
*A255
350
14E81
  3
*A256
350
14E82
  3
*A257
350
106B0
  3
*A258
350
AD8F
  3
*A259
350
10CE7
  3
*A260
350
127CA
  3
*A261
350
14E83
  3
*A262
350
102FF
  3
*A263
350
564E
  3
*A264
350
4EEE
  3
*A265
350
8AB6
  3
*A266
350
8122
  3
*A267
350
14E84
  3
*A268
350
812A
  3
*A269
350
14E85
  3
*A270
350
14E86
  3
*A271
350
14E87
  3
*A272
350
30BB
  3
*A273
350
102EC
  3
*A274
350
14E88
  3
*A275
350
AB86
  3
*A276
350
12908
  3
*A277
350
14E89
  3
*A278
350
B370
  3
*A279
350
5239
  3
*A280
350
4EF1
  3
*A281
350
109A0
  3
*A282
350
339E
  3
*A283
350
14E8A
  3
*A284
350
2829
  3
*A285
350
14E8B
  3
*A286
350
14E8C
  3
*A287
350
4EE3
  3
*A288
350
14E8D
  3
*A289
350
14E8E
  3
*A290
350
5359
  3
*A291
350
BE46
  3
*A292
350
1314D
  3
*A293
350
14E8F
  3
*A294
350
14E90
  3
*A295
350
11E49
  3
*A296
350
50F6
  3
*A297
350
A7E4
  3
*A298
350
B2C4
  3
*A299
350
13485
  3
*A300
350
14E91
  3
*A301
350
B2BA
  3
*A302
350
14E92
  3
*A303
350
A7EC
  3
*A304
350
14E93
  3
*A305
350
3AB0
  3
*A306
350
26A6
  3
*A307
350
109A1
  3
*A308
350
14E94
  3
*A309
350
14E95
  3
*A310
350
14E96
  3
*A311
350
4EEA
  3
*A312
350
8123
  3
*A313
350
14E97
  3
*A314
350
2F4C
  3
*A315
350
A75A
  3
*A316
350
14E98
  3
*A317
350
11AA6
  3
*A318
350
B36F
  3
*A319
350
1314E
  3
*A320
350
11E4A
  3
*A321
350
26AC
  3
*A322
350
14E99
  3
*A323
350
1030E
  3
*A324
350
A999
  3
*A325
350
A7E5
  3
*A326
350
812D
  3
*A327
350
14E9A
  3
*A328
350
14E9B
  3
*A329
350
14E9C
  3
*A330
350
BE4D
  3
*A331
350
11BB4
  3
*A332
350
AC78
  3
*A333
350
14E9D
  3
*A334
350
106AE
  3
*A335
350
B2C2
  3
*A336
350
BE48
  3
*A337
350
13142
  3
*A338
350
12909
  3
*A339
350
109A2
  3
*A340
350
14E9E
  3
*A341
350
14E9F
  3
*A342
350
14EA0
  3
*A343
350
A5B7
  3
*A344
350
10326
  3
*A345
350
14EA1
  3
*A346
350
102EF
  3
*A347
350
1314F
  3
*A348
350
14EA2
  3
*A349
350
4F49
  3
*A350
350
26AA
  3
*A351
350
5655
  3
*A352
350
C0A0
  3
*A353
350
14EA3
  3
*A354
350
3AB1
  3
*A355
350
14EA4
  3
*A356
350
14EA5
  3
*A357
350
10D81
  3
*A358
350
14EA6
  3
*A359
350
14EA7
  3
*A360
350
124E7
  3
*A361
350
136CA
  3
*A362
350
102F4
  3
*A363
350
14EA8
  3
*A364
350
4EF3
  3
*A365
350
3D90
  3
*A366
350
1290A
  3
*A367
350
33DC
  3
*A368
350
30B6
  3
*A369
350
14EA9
  3
*A370
350
14EAA
  3
*A371
350
511E
  3
*A372
350
14EAB
  3
*A373
350
B371
  3
*A374
350
A598
  3
*A375
350
11A98
  3
*A376
350
14EAC
  3
*A377
350
14EAD
  3
*A378
350
511D
  3
*A379
350
339F
  3
*A380
350
8ABA
  3
*A381
350
1290B
  3
*A382
350
10CE9
  3
*A383
350
813D
  3
*A384
350
1229D
  3
*A385
350
125AA
  3
*A386
350
136CB
  3
*A387
350
3D20
  3
*A388
350
4EDD
  3
*A389
350
33E8
  3
*A390
350
2781
  3
*A391
350
866E
  3
*A392
350
564B
  3
*A393
350
109A3
  3
*A394
350
109A4
  3
*A395
350
10A21
  3
*A396
350
C030
  3
*A397
350
4EF9
  3
*A398
350
1030C
  3
*A399
350
10A22
  3
*A400
350
277D
  3
*A401
350
132F3
  3
*A402
350
13150
  3
*A403
350
11A99
  3
*A404
350
10A97
  3
*A405
350
8117
  3
*A406
350
10B0C
  3
*A407
350
844B
  3
*A408
350
4EED
  3
*A409
350
10B2C
  3
*A410
350
136CC
  3
*A411
350
102F5
  3
*A412
350
12682
  3
*A413
350
1290C
  3
*A414
350
11E4B
  3
*A415
350
8ABF
  3
*A416
350
810F
  3
*A417
350
3AA7
  3
*A418
350
812C
  3
*A419
350
5650
  3
*A420
350
10B44
  3
*A421
350
BE40
  3
*A422
350
8AB8
  3
*A423
350
102E1
  3
*A424
350
104C6
  3
*A425
350
811F
  3
*A426
350
BE49
  3
*A427
350
B54E
  3
*A428
350
13151
  3
*A429
350
8AC2
  3
*A430
350
10B45
  3
*A431
350
54AA
  3
*A432
350
2F53
  3
*A433
350
10BC4
  3
*A434
350
33E0
  3
*A435
350
102FB
  3
*A436
350
B2C7
  3
*A437
350
10BC5
  3
*A438
350
8109
  3
*A439
350
2F52
  3
*A440
350
102F0
  3
*A441
350
13152
  3
*A442
350
11BBA
  3
*A443
350
10BFC
  3
*A444
350
AD92
  3
*A445
350
8106
  3
*A446
350
102E2
  3
*A447
350
BE4A
  3
*A448
350
BE45
  3
*A449
350
26A7
  3
*A450
350
811A
  3
*A451
350
810B
  3
*A452
350
11A9A
  3
*A453
350
11A9B
  3
*A454
350
11A9C
  3
*A455
350
1313D
  3
*A456
350
B550
  3
*A457
350
8136
  3
*A458
350
11A9D
  3
*A459
350
1290D
  3
*A460
350
136CD
  3
*A461
350
11E4C
  3
*A462
350
11A9E
  3
*A463
350
4EE6
  3
*A464
350
11A9F
  3
*A465
350
4EEC
  3
*A466
350
10C2B
  3
*A467
350
11AA0
  3
*A468
350
A99A
  3
*A469
350
104C7
  3
*A470
350
13153
  3
*A471
350
3AA9
  3
*A472
350
102F7
  3
*A473
350
10C2A
  3
*A474
350
1BC5
  3
*A475
350
1BC2
  3
*A476
350
B2C5
  3
*A477
350
11AA1
  3
*A478
350
8115
  3
*A479
350
13144
  3
*A480
350
5195
  3
*A481
350
5358
  3
*A482
350
52F5
  3
*A483
350
3534
  3
*A484
350
136CE
  3
*A485
350
10302
  3
*A486
350
26AF
  3
*A487
350
B2B5
  3
*A488
350
10309
  3
*A489
350
11AA2
  3
*A490
350
106AA
  3
*A491
350
A99D
  3
*A492
350
11AA3
  3
*A493
350
102F9
  3
*A494
350
1531C
  3
*A495
350
1531F
  3
*A496
350
136CF
  3
*A497
350
A75B
  3
*A498
350
153B0
  3
*A499
350
C02A
  3
*A500
350
52F7
  3
*A501
350
8100
  3
*A502
350
153B3
  3
*A503
350
8132
  3
*A504
350
A6E7
  3
*A505
350
102FD
  3
*A506
350
153B4
  3
*A507
350
153B9
  3
*A508
350
132EF
  3
*A509
350
8101
  3
*A510
350
153BC
  3
*A511
350
13154
  3
*A512
350
8133
  3
*A513
350
282E
  3
*A514
350
154C9
  3
*A515
350
154CA
  3
*A516
350
154D8
  3
*A517
350
B54D
  3
*A518
350
11AA9
  3
*A519
350
154E5
  3
*A520
350
154F8
  3
*A521
350
136D0
  3
*A522
350
4EE0
  3
*A523
350
106A7
  3
*A524
350
15519
  3
*A525
350
AC05
  3
*A526
350
10329
  3
*A527
350
1554D
  3
*A528
350
15566
  3
*A529
350
15589
  3
*A530
350
10C8F
  3
*A531
350
155B2
  3
*A532
350
1290E
  3
*A533
350
10300
  3
*A534
350
102E3
  3
*A535
350
106B2
  3
*A536
350
155CF
  3
*A537
350
11AA7
  3
*A538
350
107C3
  3
*A539
350
4EDE
  3
*A540
350
52FA
  3
*A541
350
11E4D
  3
*A542
350
11E4E
  3
*A543
350
11E50
  3
*A544
350
54A8
  3
*A545
350
102E4
  3
*A546
350
8110
  3
*A547
350
BE41
  3
*A548
350
8108
  3
*A549
350
1290F
  3
*A550
350
B2BE
  3
*A551
350
564D
  3
*A552
350
8517
  3
*A553
350
106AC
  3
*A554
350
11EFB
  3
*A555
350
11EFC
  3
*A556
350
5649
  3
*A557
350
127BE
  3
*A558
350
51AD
  3
*A559
350
136D3
  3
*A560
350
A59D
  3
*A561
350
11AA8
  3
*A562
350
AED2
  3
*A563
350
52F3
  3
*A564
350
1E5C
  3
*A565
350
1229F
  3
*A566
350
11F8D
  3
*A567
350
4EEF
  3
*A568
350
102E5
  3
*A569
350
C02F
  3
*A570
350
102FE
  3
*A571
350
10304
  3
*A572
350
12298
  3
*A573
350
B60D
  3
*A574
350
C031
  3
*A575
350
B2C8
  3
*A576
350
11B47
  3
*A577
350
12299
  3
*A578
350
13155
  3
*A579
350
106AF
  3
*A580
350
51DD
  3
*A581
350
106A9
  3
*A582
350
155EA
  3
*A583
350
54A7
  3
*A584
350
155EF
  3
*A585
350
10306
  3
*A586
350
155F4
  3
*A587
350
155F9
  3
*A588
350
1229E
  3
*A589
350
AECF
  3
*A590
350
3AAF
  3
*A591
350
BE42
  3
*A592
350
1313E
  3
*A593
350
13156
  3
*A594
350
3623
  3
*A595
350
B2C0
  3
*A596
350
102F1
  3
*A597
350
2766
  3
*A598
350
1CD1
  3
*A599
350
3AAD
  3
*A600
350
2F51
  3
*A601
350
102E6
  3
*A602
350
8102
  3
*A603
350
C1D6
  3
*A604
350
AED0
  3
*A605
350
2F4F
  3
*A606
350
102F6
  3
*A607
350
ADFD
  3
*A608
350
10C90
  3
*A609
350
844E
  3
*A610
350
12A4D
  3
*A611
350
A99C
  3
*A612
350
1076F
  3
*A613
350
8126
  3
*A614
350
10C44
  3
*A615
350
4EDF
  3
*A616
350
811D
  3
*A617
350
576B
  3
*A618
350
106AD
  3
*A619
350
136D4
  3
*A620
350
10D7D
  3
*A621
350
2F56
  3
*A622
350
5357
  3
*A623
350
11A90
  3
*A624
350
52F1
  3
*A625
350
1077F
  3
*A626
350
2837
  3
*A627
350
3535
  3
*A628
350
ADE2
  3
*A629
350
C02D
  3
*A630
350
AB84
  3
*A631
350
132F0
  3
*A632
350
B607
  3
*A633
350
4F2F
  3
*A634
350
C1D7
  3
*A635
350
1032A
  3
*A636
350
10D31
  3
*A637
350
A99B
  3
*A638
350
2F4D
  3
*A639
350
AED1
  3
*A640
350
12A4E
  3
*A641
350
8AC1
  3
*A642
350
C02E
  3
*A643
350
8131
  3
*A644
350
106A6
  3
*A645
350
C02C
  3
*A646
350
11B48
  3
*A647
350
A7E6
  3
*A648
350
13157
  3
*A649
350
1DBC
  3
*A650
350
10303
  3
*A651
350
11AAB
  3
*A652
350
A697
  3
*A653
350
B2BB
  3
*A654
350
B36E
  3
*A655
350
B60E
  3
*A656
350
4EE8
  3
*A657
350
11C42
  3
*A658
350
BE4B
  3
*A659
350
102EE
  3
*A660
350
AC06
  3
*A661
350
324D
  3
*A662
350
BE4C
  3
*A663
350
3AAC
  3
*A664
350
C02B
  3
*A665
350
3AA8
  3
*A666
350
1E4A
  3
*A667
350
8AB9
  3
*A668
350
102E9
  3
*A669
350
5356
  3
*A670
350
813E
  3
*A671
350
11C38
  3
*A672
350
4EF0
  3
*A673
350
8103
  3
*A674
350
2F5C
  3
*A675
350
13158
  3
*A676
350
102FA
  3
*A677
350
52F4
  3
*A678
350
564C
  3
*A679
350
51DB
  3
*A680
350
B606
  3
*A681
350
86D3
  3
*A682
350
54A3
  3
*A683
350
B60B
  3
*A684
350
10764
  3
*A685
350
122A1
  3
*A686
350
2F5B
  3
*A687
350
C09F
  3
*A688
350
124EA
  3
*A689
350
10D32
  3
*A690
350
810A
  3
*A691
350
811B
  3
*A692
350
10328
  3
*A693
350
10307
  3
*A694
350
4EDA
  3
*A695
350
810D
  3
*A696
350
812E
  3
*A697
350
8AB5
  3
*A698
350
102E7
  3
*A699
350
12A4F
  3
*A700
350
12A50
  3
*A701
350
10C8C
  3
*A702
350
4EF8
  3
*A703
350
12A51
  3
*A704
350
12A52
  3
*A705
350
12A53
  3
*A706
350
8127
  3
*A707
350
8135
  3
*A708
350
102E8
  3
*A709
350
B2BC
  3
*A710
350
33F2
  3
*A711
350
AB85
  3
*A712
350
1030F
  3
*A713
350
4EE1
  3
*A714
350
4ED9
  3
*A715
350
523C
  3
*A716
350
12A54
  3
*A717
350
8ABE
  3
*A718
350
26B2
  3
*A719
350
4EF6
  3
*A720
350
AC08
  3
*A721
350
8113
  3
*A722
350
10795
  3
*A723
350
B2C6
  3
*A724
350
1313B
  3
*A725
350
1DC0
  3
*A726
350
15902
  3
*A727
350
1313F
  3
*A728
350
10321
  3
*A729
350
15903
  3
*A730
350
B4ED
  3
*A731
350
15904
  3
*A732
350
15905
  3
*A733
350
15923
  3
*A734
350
10310
  3
*A735
350
15924
  3
*A736
350
15925
  3
*A737
350
15A39
  3
*A738
350
15A3A
  3
*A739
350
15A3B
  3
*A740
350
15A3C
  3
*A741
350
8124
  3
*A742
350
B54F
  3
*A743
350
15A3D
  3
*A744
350
15A3E
  3
*A745
350
2F48
  3
*A746
350
15B3B
  3
*A747
350
15B45
  3
*A748
350
15BCC
  3
*A749
350
15C02
  3
*A750
350
15C03
  3
*A751
350
15D14
  3
*A752
350
15D15
  3
*A753
350
15D16
  3
*A754
350
132F1
  3
*A755
350
8105
  3
*A756
350
33E7
  3
*A757
350
13159
  3
*A758
350
15D17
  3
*A759
350
15E25
  3
*A760
350
15E26
  3
*A761
350
15E27
  3
*A762
350
15E28
  3
*A763
350
15E56
  3
*A764
350
15EA5
  3
*A765
350
15EC9
  3
*A766
350
15ED9
  3
*A767
350
26B0
  3
*A768
350
1030D
  3
*A769
350
15F46
  3
*A770
350
1315A
  3
*A771
350
15F47
  3
*A772
350
15F48
  3
*A773
350
15F49
  3
*A774
350
15F6E
  3
*A775
350
15F7E
  3
*A776
350
1315B
  3
*A777
350
1315C
  3
*A778
350
102D9
  3
*A779
350
10BC6
  3
*A780
350
3D1E
  3
*A781
350
8128
  3
*A782
350
10322
  3
*A783
350
C1D5
  3
*A784
350
1259F
  3
*A785
350
13140
  3
*A786
350
1DBE
  3
*A787
350
10D7E
  3
*A788
350
1315D
  3
*A789
350
8134
  3
*A790
350
4EF4
  3
*A791
350
2785
  3
*A792
350
1030B
  3
*A793
350
8553
  3
*A794
350
10C43
  3
*A795
350
54A6
  3
*A796
350
1315E
  3
*A797
350
B2B9
  3
*A798
350
8129
  3
*A799
350
8119
  3
*A800
350
B2C3
  3
*A801
350
10311
  3
*A802
350
810C
  3
*A803
350
8AC0
  3
*A804
350
8116
  3
*A805
350
A59E
  3
*A806
350
810E
  3
*A807
350
11C85
  3
*A808
350
102D8
  3
*A809
350
2F4E
  3
*A810
350
B4EE
  3
*A811
350
26AD
  3
*A812
350
4EDB
  3
*A813
350
11AAA
  3
*A814
350
10D80
  3
*A815
350
52F9
  3
*A816
350
C09D
  3
*A817
350
10312
  3
*A818
350
10313
  3
*A819
350
3D6A
  3
*A820
350
10BCC
  3
*A821
350
102F8
  3
*A822
350
13145
  3
*A823
350
813F
  3
*A824
350
B2B8
  3
*A825
350
2F49
  3
*A826
350
10314
  3
*A827
350
26B1
  3
*A828
350
8112
  3
*A829
350
10825
  3
*A830
350
122A0
  3
*A831
350
11C92
  3
*A832
350
2878
  3
*A833
350
8ABC
  0
DICTIONARY
  5
1A
102
{ACAD_REACTORS
330
C
102
}
330
C
100
AcDbDictionary
281
     1
  3
Layout1
350
1E
  3
Layout2
350
26
  3
Model
350
22
  0
DICTIONARY
  5
17
102
{ACAD_REACTORS
330
C
102
}
330
C
100
AcDbDictionary
281
     1
  3
Standard
350
18
  0
DICTIONARY
  5
19
102
{ACAD_REACTORS
330
C
102
}
330
C
100
AcDbDictionary
281
     1
  0
ACDBDICTIONARYWDFLT
  5
E
102
{ACAD_REACTORS
330
C
102
}
330
C
100
AcDbDictionary
281
     1
  3
Normal
350
F
100
AcDbDictionaryWithDefault
340
F
  0
XRECORD
  5
577D
102
{ACAD_REACTORS
330
C
102
}
330
C
100
AcDbXrecord
280
     1
 90
   990106
  3

 60
     0
 61
     0
 62
     1
 63
     3
 64
     0
 65
     0
 66
     0
 67
     3
 68
     1
 69
     0
 70
     4
 71
     1
 72
     0
 40
0.0
170
     1
  0
DICTIONARY
  5
1CE2
102
{ACAD_REACTORS
330
C
102
}
330
C
100
AcDbDictionary
281
     1
  3
SORTENTS
350
1CE3
  0
XRECORD
  5
15FC3
102
{ACAD_REACTORS
330
C
102
}
330
C
100
AcDbXrecord
280
     1
  1
DWGPROPS COOKIE
  2

  3

  4

  6

  7

  8

  9

300
=
301
=
302
=
303
=
304
=
305
=
306
=
307
=
308
=
309
=
 40
0.6773731018518518
 41
2458285.470922916
 42
2460405.719466134
  1

 90
        0
  0
DICTIONARY
  5
45
102
{ACAD_REACTORS
330
44
102
}
330
44
100
AcDbDictionary
280
     1
281
     1
  3
-100
360
46
  3
-50
360
47
  3
-ben
360
48
  3
-H
360
49
  3
-T
360
4A
  3
$
360
4B
  3
$0$
360
4C
  3
0
360
4D
  3
0-
360
4E
  3
00
360
4F
  3
01
360
50
  3
01KUTAI
360
51
  3
01全体計画平面図
360
52
  3
02現況平面図
360
53
  3
03撤去平面図
360
54
  3
04造成平面図
360
55
  3
05
360
56
  3
05施設平面図
360
57
  3
06
360
58
  3
06siki
360
59
  3
06siki2
360
5A
  3
06排水平面図
360
5B
  3
07
360
5C
  3
07給水平面図
360
5D
  3
0割付平面図
360
5E
  3
0潅水平面
360
5F
  3
0計画平面
360
60
  3
0高木植栽
360
61
  3
0施設平面
360
62
  3
0床内
360
63
  3
0床壁
360
64
  3
0照明配置図
360
65
  3
0詳細図
360
66
  3
0植栽基盤
360
67
  3
0全体工区区分図
360
68
  3
0総合図off
360
69
  3
0総合図枠
360
6A
  3
0低木
360
6B
  3
0排水平面
360
6C
  3
0平詳枠
360
6D
  3
0擁壁平面図
360
6E
  3
1
360
6F
  3
10
360
70
  3
100
360
71
  3
10植栽平面図
360
72
  3
11
360
73
  3
1111
360
74
  3
11寸法図
360
75
  3
12
360
76
  3
19
360
77
  3
１Ｆ床伏OFF
360
78
  3
1階
360
79
  3
1床
360
7A
  3
1芯
360
7B
  3
1芯線
360
7C
  3
20
360
7D
  3
21
360
7E
  3
250
360
7F
  3
2fmiage
360
80
  3
2躯体
360
81
  3
2断面
360
82
  3
2壁
360
83
  3
300
360
84
  3
32
360
85
  3
333
360
86
  3
37
360
87
  3
3D
360
88
  3
3開口
360
89
  3
3見掛り
360
8A
  3
3天井内
360
8B
  3
41
360
8C
  3
4仕上げ
360
8D
  3
4天井
360
8E
  3
5
360
8F
  3
50
360
90
  3
50off
360
91
  3
51-52
360
92
  3
555
360
93
  3
5寸法
360
94
  3
5文字
360
95
  3
6
360
96
  3
66-躯体図
360
97
  3
66躯体図
360
98
  3
6記号
360
99
  3
6文字
360
9A
  3
6保留
360
9B
  3
767
360
9C
  3
767SE13-0...$
360
9D
  3
767SE13-07-99$0$
360
9E
  3
7記号
360
9F
  3
8
360
A0
  3
8寸法
360
A1
  3
8設備
360
A2
  3
9文字
360
A3
  3
9目地
360
A4
  3
A
360
A5
  3
A-
360
A6
  3
A(枠･表)を表示
360
A7
  3
A01
360
A8
  3
A1.DEMO-KEY NOTE
360
A9
  3
A2. CONS-KEY NOTE
360
AA
  3
A21
360
AB
  3
A3
360
AC
  3
A3. RCP-LAYER
360
AD
  3
A3D. RCP_DEMO-KEY NOTE
360
AE
  3
A4. P&T- KEY NOTE
360
AF
  3
A4D. EL_DEMO-KEY NOTE
360
B0
  3
A5. FINISH-KEY NOTE
360
B1
  3
A6. FURN-KEY NOTE
360
B2
  3
aa
360
B3
  3
aaa
360
B4
  3
AB棟
360
B5
  3
ＡＢ棟
360
B6
  3
ACTIVE
360
B7
  3
ACTIVE2
360
B8
  3
ALC
360
B9
  3
ALL
360
BA
  3
all選択
360
BB
  3
AMENAGEMENT
360
BC
  3
AQ
360
BD
  3
ARBOL
360
BE
  3
AREA
360
BF
  3
AREA-SG
360
C0
  3
AS1
360
C1
  3
aハッチング
360
C2
  3
A空調
360
C3
  3
B
360
C4
  3
B(基準)を表示
360
C5
  3
B2
360
C6
  3
B3
360
C7
  3
BAL
360
C8
  3
baru
360
C9
  3
baru2
360
CA
  3
BASE
360
CB
  3
bb
360
CC
  3
bbbb
360
CD
  3
beam
360
CE
  3
blocchi
360
CF
  3
blue
360
D0
  3
BSM
360
D1
  3
b階段
360
D2
  3
B電気
360
D3
  3
c
360
D4
  3
c-block
360
D5
  3
c-block-2
360
D6
  3
C(寸･文･記)を表示
360
D7
  3
cajetin
360
D8
  3
cc
360
D9
  3
CD06
360
DA
  3
ＣＤ棟
360
DB
  3
ceiling
360
DC
  3
CEILINGS XREF
360
DD
  3
CEL
360
DE
  3
che
360
DF
  3
chika
360
E0
  3
CLG
360
E1
  3
COL
360
E2
  3
cold beam
360
E3
  3
colu
360
E4
  3
com
360
E5
  3
con
360
E6
  3
CRG
360
E7
  3
cyan
360
E8
  3
C衛生
360
E9
  3
C街区関連
360
EA
  3
c雑金物
360
EB
  3
C打計画図
360
EC
  3
D
360
ED
  3
D(表現補助)を表示
360
EE
  3
Ｄ・墓地　施設平面
360
EF
  3
D16
360
F0
  3
DASHED
360
F1
  3
DASHED2
360
F2
  3
DEMO
360
F3
  3
DEMOLITION
360
F4
  3
detail
360
F5
  3
details
360
F6
  3
DHED
360
F7
  3
Dim
360
F8
  3
disegno
360
F9
  3
DOORS
360
FA
  3
DR
360
FB
  3
DT
360
FC
  3
d外構
360
FD
  3
Ｄ街区低木
360
FE
  3
D割付平面
360
FF
  3
Ｄ給水設備
360
100
  3
Ｄ計画高平面
360
101
  3
Ｄ計画平面
360
102
  3
Ｄ工事区分
360
103
  3
Ｄ高木植栽
360
104
  3
Ｄ施設平面
360
105
  3
Ｄ照明設備
360
106
  3
Ｄ低木
360
107
  3
Ｄ電気設備
360
108
  3
Ｄ土壌改良
360
109
  3
Ｄ排水平面
360
10A
  3
D舗装平面
360
10B
  3
Ｄ墓地施設平面
360
10C
  3
D墓地排水
360
10D
  3
E
360
10E
  3
E(点線系)を表示
360
10F
  3
EEEE
360
110
  3
EISEI
360
111
  3
elec
360
112
  3
ERAS1F
360
113
  3
existing
360
114
  3
Exit
360
115
  3
F
360
116
  3
F(断面)を表示
360
117
  3
F1
360
118
  3
face4
360
119
  3
FC_CLADDING
360
11A
  3
FENCE
360
11B
  3
FF
360
11C
  3
FH
360
11D
  3
FILTER1
360
11E
  3
fini
360
11F
  3
finish
360
120
  3
FIRE
360
121
  3
fixture
360
122
  3
fl
360
123
  3
Floor
360
124
  3
FLOOR PLAN
360
125
  3
fr
360
126
  3
freeze
360
127
  3
FRZ
360
128
  3
Fugou
360
129
  3
FUGOU-TATEGU
360
12A
  3
FUKI
360
12B
  3
FURN
360
12C
  3
FURNITURE
360
12D
  3
FUSE_00
360
12E
  3
G
360
12F
  3
G(開口)を表示
360
130
  3
GAIKOU
360
131
  3
gel
360
132
  3
gen
360
133
  3
gondora
360
134
  3
green
360
135
  3
GRID
360
136
  3
gris
360
137
  3
H
360
138
  3
H-
360
139
  3
H-SIN
360
13A
  3
H(見掛)を表示
360
13B
  3
HA
360
13C
  3
haikin
360
13D
  3
HAISEN
360
13E
  3
HARI
360
13F
  3
hasira
360
140
  3
HATCH
360
141
  3
HCP
360
142
  3
HEISHO
360
143
  3
HEISHO2
360
144
  3
HIDDEN
360
145
  3
HOJO
360
146
  3
hollywood
360
147
  3
HOTEL
360
148
  3
huse
360
149
  3
HYOKI
360
14A
  3
HYOUKI
360
14B
  3
i
360
14C
  3
I(二次部材系))を表示
360
14D
  3
I2
360
14E
  3
i2cl
360
14F
  3
i5
360
150
  3
i9
360
151
  3
in
360
152
  3
INSERT図
360
153
  3
ISSUE
360
154
  3
J
360
155
  3
K
360
156
  3
KABE
360
157
  3
KABESHIN
360
158
  3
KAGU
360
159
  3
key
360
15A
  3
KI
360
15B
  3
KIGO
360
15C
  3
KIJUN
360
15D
  3
kiso
360
15E
  3
KSIN
360
15F
  3
kui
360
160
  3
KUTAI
360
161
  3
L
360
162
  3
LEGEND
360
163
  3
LGS
360
164
  3
light
360
165
  3
LIST
360
166
  3
lixo
360
167
  3
LOCK
360
168
  3
LTA
360
169
  3
Ｌ建具
360
16A
  3
M
360
16B
  3
MA
360
16C
  3
MACONNERIE
360
16D
  3
magenta
360
16E
  3
magenta-bleu
360
16F
  3
maji
360
170
  3
MAJIKIRI
360
171
  3
marco
360
172
  3
MB
360
173
  3
meji
360
174
  3
merceologico
360
175
  3
MILL
360
176
  3
MILLWORK
360
177
  3
miwa
360
178
  3
MOJI
360
179
  3
MOJI100
360
17A
  3
N
360
17B
  3
N-
360
17C
  3
NAM
360
17D
  3
NEW
360
17E
  3
NHK
360
17F
  3
no xref
360
180
  3
note
360
181
  3
NUM
360
182
  3
NUMB
360
183
  3
O
360
184
  3
OF
360
185
  3
OFF
360
186
  3
on
360
187
  3
option 1
360
188
  3
option 2
360
189
  3
OUTLINE
360
18A
  3
P
360
18B
  3
pa
360
18C
  3
PALFOND
360
18D
  3
PAT
360
18E
  3
PC
360
18F
  3
PISO
360
190
  3
PLAN
360
191
  3
PLMB
360
192
  3
plot
360
193
  3
PLUMB
360
194
  3
PNL
360
195
  3
power
360
196
  3
PRT
360
197
  3
q
360
198
  3
R
360
199
  3
rack
360
19A
  3
RC
360
19B
  3
RCP
360
19C
  3
rm
360
19D
  3
RMTAGS
360
19E
  3
RNUM
360
19F
  3
ROOM
360
1A0
  3
roomno
360
1A1
  3
rouge
360
1A2
  3
rtkl
360
1A3
  3
S
360
1A4
  3
saciencewold
360
1A5
  3
SETUBI
360
1A6
  3
SHITU
360
1A7
  3
SHITUMEI
360
1A8
  3
SIAG
360
1A9
  3
SIAG-N
360
1AA
  3
SIAG3
360
1AB
  3
sin
360
1AC
  3
Sinm
360
1AD
  3
SITA
360
1AE
  3
siyah
360
1AF
  3
SS
360
1B0
  3
ST
360
1B1
  3
STA
360
1B2
  3
stairs
360
1B3
  3
SUGA5
360
1B4
  3
SUNP
360
1B5
  3
SUNP100
360
1B6
  3
T
360
1B7
  3
TAKASA
360
1B8
  3
TATE161
360
1B9
  3
TATEGU
360
1BA
  3
ten
360
1BB
  3
TENJYOU
360
1BC
  3
TENJYOUNAI
360
1BD
  3
test
360
1BE
  3
text
360
1BF
  3
thaw
360
1C0
  3
TITL
360
1C1
  3
tnjyou
360
1C2
  3
tori
360
1C3
  3
TORISHIN
360
1C4
  3
tr
360
1C5
  3
TSIN
360
1C6
  3
TXT
360
1C7
  3
UNFREEZ
360
1C8
  3
UNROCK
360
1C9
  3
wada
360
1CA
  3
waku
360
1CB
  3
X
360
1CC
  3
X(敷地)を表示
360
1CD
  3
xref
360
1CE
  3
YAJI
360
1CF
  3
yellow
360
1D0
  3
YUKA
360
1D1
  3
yその他
360
1D2
  3
Z
360
1D3
  3
ZATU
360
1D4
  3
z図枠
360
1D5
  3
к
360
1D6
  3
перегородки
360
1D7
  3
イベント給水
360
1D8
  3
ガラス
360
1D9
  3
キ-プラン
360
1DA
  3
キープラン
360
1DB
  3
さーくる
360
1DC
  3
シェルター
360
1DD
  3
すべてに反映
360
1DE
  3
スロープ
360
1DF
  3
タイル割付平面図
360
1E0
  3
ﾃｷｽﾄのみ表示
360
1E1
  3
ハッチング
360
1E2
  3
フリーズ
360
1E3
  3
フリーズof
360
1E4
  3
ﾌﾘｰｽﾞ画層非表示
360
1E5
  3
ﾌﾘｰｽﾞ画面非表示
360
1E6
  3
ﾌﾘｰｽﾞ解除
360
1E7
  3
フリーズ解除
360
1E8
  3
ﾌﾟﾚｾﾞﾝ枠
360
1E9
  3
マーク
360
1EA
  3
ﾒｲﾝﾌﾟﾗｻﾞ
360
1EB
  3
レベル
360
1EC
  3
ロック
360
1ED
  3
一括非表示
360
1EE
  3
一般図
360
1EF
  3
印刷
360
1F0
  3
荏原機器
360
1F1
  3
荏原機器基礎
360
1F2
  3
衛生設備図
360
1F3
  3
黄色
360
1F4
  3
下階
360
1F5
  3
下地
360
1F6
  3
外構
360
1F7
  3
外部参照－建築
360
1F8
  3
外部参照除く
360
1F9
  3
割り付け平面図
360
1FA
  3
割付平面図
360
1FB
  3
潅水平面
360
1FC
  3
基
360
1FD
  3
基準
360
1FE
  3
基準階
360
1FF
  3
基礎OFF
360
200
  3
基礎伏
360
201
  3
基礎伏図
360
202
  3
基盤改良平面図
360
203
  3
既存杭
360
204
  3
機器
360
205
  3
機器基礎
360
206
  3
記号
360
207
  3
給水設備平面図
360
208
  3
給水平面
360
209
  3
区画
360
20A
  3
躯体
360
20B
  3
躯体図
360
20C
  3
空調jv
360
20D
  3
空調設備図
360
20E
  3
郡川
360
20F
  3
型枠計画図
360
210
  3
計画高平面図
360
211
  3
計画平面
360
212
  3
計画平面図
360
213
  3
劇場ﾌﾟﾗｻﾞ
360
214
  3
劇場棟
360
215
  3
建具
360
216
  3
建築接地図
360
217
  3
見上げ
360
218
  3
現在非表示画層
360
219
  3
光天井
360
21A
  3
公園
360
21B
  3
工事区分図
360
21C
  3
工事区分図AB
360
21D
  3
工事区分図CD
360
21E
  3
高さ
360
21F
  3
高木植栽平面
360
220
  3
高木平面図
360
221
  3
座席のみ
360
222
  3
作業
360
223
  3
参考
360
224
  3
山止根切計画図
360
225
  3
仕
360
226
  3
仕上
360
227
  3
仕上図
360
228
  3
使用中
360
229
  3
施設配置図
360
22A
  3
施設平面
360
22B
  3
施設平面図
360
22C
  3
紫
360
22D
  3
床伏図
360
22E
  3
昇降機
360
22F
  3
照明
360
230
  3
照明Ｃ１
360
231
  3
照明Ｃ２
360
232
  3
照明配置図
360
233
  3
詳細
360
234
  3
詳細図
360
235
  3
上階躯体図
360
236
  3
植栽
360
237
  3
植栽基盤平面
360
238
  3
植栽現況
360
239
  3
植栽高木AB
360
23A
  3
植栽高木CD
360
23B
  3
植栽低木AB
360
23C
  3
植栽低木ＣＤ
360
23D
  3
色番号8
360
23E
  3
申請用
360
23F
  3
芯
360
240
  3
芯関係
360
241
  3
水
360
242
  3
水色
360
243
  3
寸法
360
244
  3
製作
360
245
  3
製作-躯体
360
246
  3
製作-建築
360
247
  3
製作-昇降機
360
248
  3
青
360
249
  3
設備
360
24A
  3
設備プロット
360
24B
  3
全階平面図
360
24C
  3
総合仮設図
360
24D
  3
総合図
360
24E
  3
足場計画図
360
24F
  3
地下埋設
360
250
  3
中野
360
251
  3
低木植栽平面
360
252
  3
低木平面図
360
253
  3
鉄骨
360
254
  3
鉄骨建方計画図
360
255
  3
天井インサート図
360
256
  3
天井総合図
360
257
  3
天井伏図
360
258
  3
天伏
360
259
  3
電気設備図
360
25A
  3
土壌改良
360
25B
  3
土木計画平面図
360
25C
  3
道路
360
25D
  3
道路関係図
360
25E
  3
排水
360
25F
  3
排水設備平面図
360
260
  3
排水平面
360
261
  3
配管
360
262
  3
非表示
360
263
  3
非表示ﾚｲﾔｰ
360
264
  3
表示
360
265
  3
表示・非表示
360
266
  3
表示2
360
267
  3
分割枠
360
268
  3
平面詳細図
360
269
  3
平面図
360
26A
  3
平面総合図
360
26B
  3
変更分
360
26C
  3
舗装平面
360
26D
  3
舗装平面C1
360
26E
  3
舗装平面C2
360
26F
  3
舗装平面図
360
270
  3
法規チェック－区画
360
271
  3
法規チェック－範囲
360
272
  3
鳳文字入力
360
273
  3
防災
360
274
  3
名称
360
275
  3
面積
360
276
  3
擁壁平面図
360
277
  3
用途色塗
360
278
  3
立面図
360
279
  3
梁
360
27A
  3
緑
360
27B
  0
GROUP
  5
1B78
102
{ACAD_REACTORS
330
D
102
}
330
D
100
AcDbGroup
300

 70
     1
 71
     1
  0
GROUP
  5
102DA
102
{ACAD_REACTORS
330
D
102
}
330
D
100
AcDbGroup
300

 70
     1
 71
     1
  0
GROUP
  5
30AF
102
{ACAD_REACTORS
330
D
102
}
330
D
100
AcDbGroup
300

 70
     1
 71
     1
  0
GROUP
  5
812B
102
{ACAD_REACTORS
330
D
102
}
330
D
100
AcDbGroup
300

 70
     1
 71
     1
  0
GROUP
  5
13146
102
{ACAD_REACTORS
330
D
102
}
330
D
100
AcDbGroup
300

 70
     1
 71
     1
  0
GROUP
  5
B2B7
102
{ACAD_REACTORS
330
D
102
}
330
D
100
AcDbGroup
300

 70
     1
 71
     1
  0
GROUP
  5
102EA
102
{ACAD_REACTORS
330
D
102
}
330
D
100
AcDbGroup
300

 70
     1
 71
     1
  0
GROUP
  5
4EEB
102
{ACAD_REACTORS
330
D
102
}
330
D
100
AcDbGroup
300

 70
     1
 71
     1
  0
GROUP
  5
1DC1
102
{ACAD_REACTORS
330
D
102
}
330
D
100
AcDbGroup
300

 70
     1
 71
     1
  0
GROUP
  5
10315
102
{ACAD_REACTORS
330
D
102
}
330
D
100
AcDbGroup
300

 70
     1
 71
     1
  0
GROUP
  5
1DBF
102
{ACAD_REACTORS
330
D
102
}
330
D
100
AcDbGroup
300

 70
     1
 71
     1
  0
GROUP
  5
2F55
102
{ACAD_REACTORS
330
D
102
}
330
D
100
AcDbGroup
300

 70
     1
 71
     1
  0
GROUP
  5
11AAC
102
{ACAD_REACTORS
330
D
102
}
330
D
100
AcDbGroup
300

 70
     1
 71
     1
  0
GROUP
  5
10316
102
{ACAD_REACTORS
330
D
102
}
330
D
100
AcDbGroup
300

 70
     1
 71
     1
  0
GROUP
  5
10CE6
102
{ACAD_REACTORS
330
D
102
}
330
D
100
AcDbGroup
300

 70
     1
 71
     1
  0
GROUP
  5
13141
102
{ACAD_REACTORS
330
D
102
}
330
D
100
AcDbGroup
300

 70
     1
 71
     1
  0
GROUP
  5
107DA
102
{ACAD_REACTORS
330
D
102
}
330
D
100
AcDbGroup
300

 70
     1
 71
     1
  0
GROUP
  5
8ABB
102
{ACAD_REACTORS
330
D
102
}
330
D
100
AcDbGroup
300

 70
     1
 71
     1
  0
GROUP
  5
11C3A
102
{ACAD_REACTORS
330
D
102
}
330
D
100
AcDbGroup
300

 70
     1
 71
     1
  0
GROUP
  5
11A91
102
{ACAD_REACTORS
330
D
102
}
330
D
100
AcDbGroup
300

 70
     1
 71
     1
  0
GROUP
  5
10317
102
{ACAD_REACTORS
330
D
102
}
330
D
100
AcDbGroup
300

 70
     1
 71
     1
  0
GROUP
  5
3AAE
102
{ACAD_REACTORS
330
D
102
}
330
D
100
AcDbGroup
300

 70
     1
 71
     1
  0
GROUP
  5
10318
102
{ACAD_REACTORS
330
D
102
}
330
D
100
AcDbGroup
300

 70
     1
 71
     1
  0
GROUP
  5
11C86
102
{ACAD_REACTORS
330
D
102
}
330
D
100
AcDbGroup
300

 70
     1
 71
     1
  0
GROUP
  5
26A5
102
{ACAD_REACTORS
330
D
102
}
330
D
100
AcDbGroup
300

 70
     1
 71
     1
  0
GROUP
  5
10319
102
{ACAD_REACTORS
330
D
102
}
330
D
100
AcDbGroup
300

 70
     1
 71
     1
  0
GROUP
  5
BE44
102
{ACAD_REACTORS
330
D
102
}
330
D
100
AcDbGroup
300

 70
     1
 71
     1
  0
GROUP
  5
AC07
102
{ACAD_REACTORS
330
D
102
}
330
D
100
AcDbGroup
300

 70
     1
 71
     1
  0
GROUP
  5
132F4
102
{ACAD_REACTORS
330
D
102
}
330
D
100
AcDbGroup
300

 70
     1
 71
     1
  0
GROUP
  5
1031A
102
{ACAD_REACTORS
330
D
102
}
330
D
100
AcDbGroup
300

 70
     1
 71
     1
  0
GROUP
  5
1031B
102
{ACAD_REACTORS
330
D
102
}
330
D
100
AcDbGroup
300

 70
     1
 71
     1
  0
GROUP
  5
12402
102
{ACAD_REACTORS
330
D
102
}
330
D
100
AcDbGroup
300

 70
     1
 71
     1
  0
GROUP
  5
51DC
102
{ACAD_REACTORS
330
D
102
}
330
D
100
AcDbGroup
300

 70
     1
 71
     1
  0
GROUP
  5
10C8E
102
{ACAD_REACTORS
330
D
102
}
330
D
100
AcDbGroup
300

 70
     1
 71
     1
  0
GROUP
  5
10C8D
102
{ACAD_REACTORS
330
D
102
}
330
D
100
AcDbGroup
300

 70
     1
 71
     1
  0
GROUP
  5
5137
102
{ACAD_REACTORS
330
D
102
}
330
D
100
AcDbGroup
300

 70
     1
 71
     1
  0
GROUP
  5
C09E
102
{ACAD_REACTORS
330
D
102
}
330
D
100
AcDbGroup
300

 70
     1
 71
     1
  0
GROUP
  5
102EB
102
{ACAD_REACTORS
330
D
102
}
330
D
100
AcDbGroup
300

 70
     1
 71
     1
  0
GROUP
  5
2F5A
102
{ACAD_REACTORS
330
D
102
}
330
D
100
AcDbGroup
300

 70
     1
 71
     1
  0
GROUP
  5
1CED
102
{ACAD_REACTORS
330
D
102
}
330
D
100
AcDbGroup
300

 70
     1
 71
     1
  0
GROUP
  5
8121
102
{ACAD_REACTORS
330
D
102
}
330
D
100
AcDbGroup
300

 70
     1
 71
     1
  0
GROUP
  5
11CFC
102
{ACAD_REACTORS
330
D
102
}
330
D
100
AcDbGroup
300

 70
     1
 71
     1
  0
GROUP
  5
B605
102
{ACAD_REACTORS
330
D
102
}
330
D
100
AcDbGroup
300

 70
     1
 71
     1
  0
GROUP
  5
2F57
102
{ACAD_REACTORS
330
D
102
}
330
D
100
AcDbGroup
300

 70
     1
 71
     1
  0
GROUP
  5
1313C
102
{ACAD_REACTORS
330
D
102
}
330
D
100
AcDbGroup
300

 70
     1
 71
     1
  0
GROUP
  5
102DB
102
{ACAD_REACTORS
330
D
102
}
330
D
100
AcDbGroup
300

 70
     1
 71
     1
  0
GROUP
  5
13147
102
{ACAD_REACTORS
330
D
102
}
330
D
100
AcDbGroup
300

 70
     1
 71
     1
  0
GROUP
  5
1031C
102
{ACAD_REACTORS
330
D
102
}
330
D
100
AcDbGroup
300

 70
     1
 71
     1
  0
GROUP
  5
127BF
102
{ACAD_REACTORS
330
D
102
}
330
D
100
AcDbGroup
300

 70
     1
 71
     1
  0
GROUP
  5
1031D
102
{ACAD_REACTORS
330
D
102
}
330
D
100
AcDbGroup
300

 70
     1
 71
     1
  0
GROUP
  5
1083F
102
{ACAD_REACTORS
330
D
102
}
330
D
100
AcDbGroup
300

 70
     1
 71
     1
  0
GROUP
  5
511F
102
{ACAD_REACTORS
330
D
102
}
330
D
100
AcDbGroup
300

 70
     1
 71
     1
  0
GROUP
  5
13341
102
{ACAD_REACTORS
330
D
102
}
330
D
100
AcDbGroup
300

 70
     1
 71
     1
  0
GROUP
  5
1E45
102
{ACAD_REACTORS
330
D
102
}
330
D
100
AcDbGroup
300

 70
     1
 71
     1
  0
GROUP
  5
4EF7
102
{ACAD_REACTORS
330
D
102
}
330
D
100
AcDbGroup
300

 70
     1
 71
     1
  0
GROUP
  5
362A
102
{ACAD_REACTORS
330
D
102
}
330
D
100
AcDbGroup
300

 70
     1
 71
     1
  0
GROUP
  5
5238
102
{ACAD_REACTORS
330
D
102
}
330
D
100
AcDbGroup
300

 70
     1
 71
     1
  0
GROUP
  5
1031E
102
{ACAD_REACTORS
330
D
102
}
330
D
100
AcDbGroup
300

 70
     1
 71
     1
  0
GROUP
  5
3AAB
102
{ACAD_REACTORS
330
D
102
}
330
D
100
AcDbGroup
300

 70
     1
 71
     1
  0
GROUP
  5
13148
102
{ACAD_REACTORS
330
D
102
}
330
D
100
AcDbGroup
300

 70
     1
 71
     1
  0
GROUP
  5
1031F
102
{ACAD_REACTORS
330
D
102
}
330
D
100
AcDbGroup
300

 70
     1
 71
     1
  0
GROUP
  5
AB82
102
{ACAD_REACTORS
330
D
102
}
330
D
100
AcDbGroup
300

 70
     1
 71
     1
  0
GROUP
  5
127C0
102
{ACAD_REACTORS
330
D
102
}
330
D
100
AcDbGroup
300

 70
     1
 71
     1
  0
GROUP
  5
10320
102
{ACAD_REACTORS
330
D
102
}
330
D
100
AcDbGroup
300

 70
     1
 71
     1
  0
GROUP
  5
26AE
102
{ACAD_REACTORS
330
D
102
}
330
D
100
AcDbGroup
300

 70
     1
 71
     1
  0
GROUP
  5
11CFD
102
{ACAD_REACTORS
330
D
102
}
330
D
100
AcDbGroup
300

 70
     1
 71
     1
  0
GROUP
  5
AB87
102
{ACAD_REACTORS
330
D
102
}
330
D
100
AcDbGroup
300

 70
     1
 71
     1
  0
GROUP
  5
3215
102
{ACAD_REACTORS
330
D
102
}
330
D
100
AcDbGroup
300

 70
     1
 71
     1
  0
GROUP
  5
B2BD
102
{ACAD_REACTORS
330
D
102
}
330
D
100
AcDbGroup
300

 70
     1
 71
     1
  0
GROUP
  5
10323
102
{ACAD_REACTORS
330
D
102
}
330
D
100
AcDbGroup
300

 70
     1
 71
     1
  0
GROUP
  5
10CE5
102
{ACAD_REACTORS
330
D
102
}
330
D
100
AcDbGroup
300

 70
     1
 71
     1
  0
GROUP
  5
B4EF
102
{ACAD_REACTORS
330
D
102
}
330
D
100
AcDbGroup
300

 70
     1
 71
     1
  0
GROUP
  5
811C
102
{ACAD_REACTORS
330
D
102
}
330
D
100
AcDbGroup
300

 70
     1
 71
     1
  0
GROUP
  5
B60C
102
{ACAD_REACTORS
330
D
102
}
330
D
100
AcDbGroup
300

 70
     1
 71
     1
  0
GROUP
  5
2F4A
102
{ACAD_REACTORS
330
D
102
}
330
D
100
AcDbGroup
300

 70
     1
 71
     1
  0
GROUP
  5
8137
102
{ACAD_REACTORS
330
D
102
}
330
D
100
AcDbGroup
300

 70
     1
 71
     1
  0
GROUP
  5
AED3
102
{ACAD_REACTORS
330
D
102
}
330
D
100
AcDbGroup
300

 70
     1
 71
     1
  0
GROUP
  5
127C1
102
{ACAD_REACTORS
330
D
102
}
330
D
100
AcDbGroup
300

 70
     1
 71
     1
  0
GROUP
  5
1030A
102
{ACAD_REACTORS
330
D
102
}
330
D
100
AcDbGroup
300

 70
     1
 71
     1
  0
GROUP
  5
11AA4
102
{ACAD_REACTORS
330
D
102
}
330
D
100
AcDbGroup
300

 70
     1
 71
     1
  0
GROUP
  5
1099D
102
{ACAD_REACTORS
330
D
102
}
330
D
100
AcDbGroup
300

 70
     1
 71
     1
  0
GROUP
  5
8138
102
{ACAD_REACTORS
330
D
102
}
330
D
100
AcDbGroup
300

 70
     1
 71
     1
  0
GROUP
  5
B60A
102
{ACAD_REACTORS
330
D
102
}
330
D
100
AcDbGroup
300

 70
     1
 71
     1
  0
GROUP
  5
4EE7
102
{ACAD_REACTORS
330
D
102
}
330
D
100
AcDbGroup
300

 70
     1
 71
     1
  0
GROUP
  5
2F4B
102
{ACAD_REACTORS
330
D
102
}
330
D
100
AcDbGroup
300

 70
     1
 71
     1
  0
GROUP
  5
AC04
102
{ACAD_REACTORS
330
D
102
}
330
D
100
AcDbGroup
300

 70
     1
 71
     1
  0
GROUP
  5
11AA5
102
{ACAD_REACTORS
330
D
102
}
330
D
100
AcDbGroup
300

 70
     1
 71
     1
  0
GROUP
  5
106A8
102
{ACAD_REACTORS
330
D
102
}
330
D
100
AcDbGroup
300

 70
     1
 71
     1
  0
GROUP
  5
1347F
102
{ACAD_REACTORS
330
D
102
}
330
D
100
AcDbGroup
300

 70
     1
 71
     1
  0
GROUP
  5
C034
102
{ACAD_REACTORS
330
D
102
}
330
D
100
AcDbGroup
300

 70
     1
 71
     1
  0
GROUP
  5
B4F0
102
{ACAD_REACTORS
330
D
102
}
330
D
100
AcDbGroup
300

 70
     1
 71
     1
  0
GROUP
  5
26A8
102
{ACAD_REACTORS
330
D
102
}
330
D
100
AcDbGroup
300

 70
     1
 71
     1
  0
GROUP
  5
A76C
102
{ACAD_REACTORS
330
D
102
}
330
D
100
AcDbGroup
300

 70
     1
 71
     1
  0
GROUP
  5
B608
102
{ACAD_REACTORS
330
D
102
}
330
D
100
AcDbGroup
300

 70
     1
 71
     1
  0
GROUP
  5
11A92
102
{ACAD_REACTORS
330
D
102
}
330
D
100
AcDbGroup
300

 70
     1
 71
     1
  0
GROUP
  5
BE43
102
{ACAD_REACTORS
330
D
102
}
330
D
100
AcDbGroup
300

 70
     1
 71
     1
  0
GROUP
  5
5355
102
{ACAD_REACTORS
330
D
102
}
330
D
100
AcDbGroup
300

 70
     1
 71
     1
  0
GROUP
  5
A5EF
102
{ACAD_REACTORS
330
D
102
}
330
D
100
AcDbGroup
300

 70
     1
 71
     1
  0
GROUP
  5
102F3
102
{ACAD_REACTORS
330
D
102
}
330
D
100
AcDbGroup
300

 70
     1
 71
     1
  0
GROUP
  5
A7E7
102
{ACAD_REACTORS
330
D
102
}
330
D
100
AcDbGroup
300

 70
     1
 71
     1
  0
GROUP
  5
10D33
102
{ACAD_REACTORS
330
D
102
}
330
D
100
AcDbGroup
300

 70
     1
 71
     1
  0
GROUP
  5
13480
102
{ACAD_REACTORS
330
D
102
}
330
D
100
AcDbGroup
300

 70
     1
 71
     1
  0
GROUP
  5
C033
102
{ACAD_REACTORS
330
D
102
}
330
D
100
AcDbGroup
300

 70
     1
 71
     1
  0
GROUP
  5
10324
102
{ACAD_REACTORS
330
D
102
}
330
D
100
AcDbGroup
300

 70
     1
 71
     1
  0
GROUP
  5
B4F1
102
{ACAD_REACTORS
330
D
102
}
330
D
100
AcDbGroup
300

 70
     1
 71
     1
  0
GROUP
  5
B54C
102
{ACAD_REACTORS
330
D
102
}
330
D
100
AcDbGroup
300

 70
     1
 71
     1
  0
GROUP
  5
8118
102
{ACAD_REACTORS
330
D
102
}
330
D
100
AcDbGroup
300

 70
     1
 71
     1
  0
GROUP
  5
B2B6
102
{ACAD_REACTORS
330
D
102
}
330
D
100
AcDbGroup
300

 70
     1
 71
     1
  0
GROUP
  5
BE47
102
{ACAD_REACTORS
330
D
102
}
330
D
100
AcDbGroup
300

 70
     1
 71
     1
  0
GROUP
  5
52F2
102
{ACAD_REACTORS
330
D
102
}
330
D
100
AcDbGroup
300

 70
     1
 71
     1
  0
GROUP
  5
11BB1
102
{ACAD_REACTORS
330
D
102
}
330
D
100
AcDbGroup
300

 70
     1
 71
     1
  0
GROUP
  5
132F2
102
{ACAD_REACTORS
330
D
102
}
330
D
100
AcDbGroup
300

 70
     1
 71
     1
  0
GROUP
  5
5352
102
{ACAD_REACTORS
330
D
102
}
330
D
100
AcDbGroup
300

 70
     1
 71
     1
  0
GROUP
  5
102F2
102
{ACAD_REACTORS
330
D
102
}
330
D
100
AcDbGroup
300

 70
     1
 71
     1
  0
GROUP
  5
B2C9
102
{ACAD_REACTORS
330
D
102
}
330
D
100
AcDbGroup
300

 70
     1
 71
     1
  0
GROUP
  5
523B
102
{ACAD_REACTORS
330
D
102
}
330
D
100
AcDbGroup
300

 70
     1
 71
     1
  0
GROUP
  5
1CE9
102
{ACAD_REACTORS
330
D
102
}
330
D
100
AcDbGroup
300

 70
     1
 71
     1
  0
GROUP
  5
8130
102
{ACAD_REACTORS
330
D
102
}
330
D
100
AcDbGroup
300

 70
     1
 71
     1
  0
GROUP
  5
A5E5
102
{ACAD_REACTORS
330
D
102
}
330
D
100
AcDbGroup
300

 70
     1
 71
     1
  0
GROUP
  5
102ED
102
{ACAD_REACTORS
330
D
102
}
330
D
100
AcDbGroup
300

 70
     1
 71
     1
  0
GROUP
  5
4EDC
102
{ACAD_REACTORS
330
D
102
}
330
D
100
AcDbGroup
300

 70
     1
 71
     1
  0
GROUP
  5
80FF
102
{ACAD_REACTORS
330
D
102
}
330
D
100
AcDbGroup
300

 70
     1
 71
     1
  0
GROUP
  5
10308
102
{ACAD_REACTORS
330
D
102
}
330
D
100
AcDbGroup
300

 70
     1
 71
     1
  0
GROUP
  5
102DC
102
{ACAD_REACTORS
330
D
102
}
330
D
100
AcDbGroup
300

 70
     1
 71
     1
  0
GROUP
  5
4EE4
102
{ACAD_REACTORS
330
D
102
}
330
D
100
AcDbGroup
300

 70
     1
 71
     1
  0
GROUP
  5
8139
102
{ACAD_REACTORS
330
D
102
}
330
D
100
AcDbGroup
300

 70
     1
 71
     1
  0
GROUP
  5
8AB7
102
{ACAD_REACTORS
330
D
102
}
330
D
100
AcDbGroup
300

 70
     1
 71
     1
  0
GROUP
  5
10D35
102
{ACAD_REACTORS
330
D
102
}
330
D
100
AcDbGroup
300

 70
     1
 71
     1
  0
GROUP
  5
11B46
102
{ACAD_REACTORS
330
D
102
}
330
D
100
AcDbGroup
300

 70
     1
 71
     1
  0
GROUP
  5
26A9
102
{ACAD_REACTORS
330
D
102
}
330
D
100
AcDbGroup
300

 70
     1
 71
     1
  0
GROUP
  5
8ABD
102
{ACAD_REACTORS
330
D
102
}
330
D
100
AcDbGroup
300

 70
     1
 71
     1
  0
GROUP
  5
10325
102
{ACAD_REACTORS
330
D
102
}
330
D
100
AcDbGroup
300

 70
     1
 71
     1
  0
GROUP
  5
1099E
102
{ACAD_REACTORS
330
D
102
}
330
D
100
AcDbGroup
300

 70
     1
 71
     1
  0
GROUP
  5
26AB
102
{ACAD_REACTORS
330
D
102
}
330
D
100
AcDbGroup
300

 70
     1
 71
     1
  0
GROUP
  5
33A0
102
{ACAD_REACTORS
330
D
102
}
330
D
100
AcDbGroup
300

 70
     1
 71
     1
  0
GROUP
  5
8125
102
{ACAD_REACTORS
330
D
102
}
330
D
100
AcDbGroup
300

 70
     1
 71
     1
  0
GROUP
  5
2F59
102
{ACAD_REACTORS
330
D
102
}
330
D
100
AcDbGroup
300

 70
     1
 71
     1
  0
GROUP
  5
127C2
102
{ACAD_REACTORS
330
D
102
}
330
D
100
AcDbGroup
300

 70
     1
 71
     1
  0
GROUP
  5
132EE
102
{ACAD_REACTORS
330
D
102
}
330
D
100
AcDbGroup
300

 70
     1
 71
     1
  0
GROUP
  5
13481
102
{ACAD_REACTORS
330
D
102
}
330
D
100
AcDbGroup
300

 70
     1
 71
     1
  0
GROUP
  5
3AA6
102
{ACAD_REACTORS
330
D
102
}
330
D
100
AcDbGroup
300

 70
     1
 71
     1
  0
GROUP
  5
13149
102
{ACAD_REACTORS
330
D
102
}
330
D
100
AcDbGroup
300

 70
     1
 71
     1
  0
GROUP
  5
8107
102
{ACAD_REACTORS
330
D
102
}
330
D
100
AcDbGroup
300

 70
     1
 71
     1
  0
GROUP
  5
11A94
102
{ACAD_REACTORS
330
D
102
}
330
D
100
AcDbGroup
300

 70
     1
 71
     1
  0
GROUP
  5
4EE5
102
{ACAD_REACTORS
330
D
102
}
330
D
100
AcDbGroup
300

 70
     1
 71
     1
  0
GROUP
  5
102DD
102
{ACAD_REACTORS
330
D
102
}
330
D
100
AcDbGroup
300

 70
     1
 71
     1
  0
GROUP
  5
10CE8
102
{ACAD_REACTORS
330
D
102
}
330
D
100
AcDbGroup
300

 70
     1
 71
     1
  0
GROUP
  5
3D21
102
{ACAD_REACTORS
330
D
102
}
330
D
100
AcDbGroup
300

 70
     1
 71
     1
  0
GROUP
  5
B2C1
102
{ACAD_REACTORS
330
D
102
}
330
D
100
AcDbGroup
300

 70
     1
 71
     1
  0
GROUP
  5
813A
102
{ACAD_REACTORS
330
D
102
}
330
D
100
AcDbGroup
300

 70
     1
 71
     1
  0
GROUP
  5
50C4
102
{ACAD_REACTORS
330
D
102
}
330
D
100
AcDbGroup
300

 70
     1
 71
     1
  0
GROUP
  5
13482
102
{ACAD_REACTORS
330
D
102
}
330
D
100
AcDbGroup
300

 70
     1
 71
     1
  0
GROUP
  5
4EE2
102
{ACAD_REACTORS
330
D
102
}
330
D
100
AcDbGroup
300

 70
     1
 71
     1
  0
GROUP
  5
10D34
102
{ACAD_REACTORS
330
D
102
}
330
D
100
AcDbGroup
300

 70
     1
 71
     1
  0
GROUP
  5
1314A
102
{ACAD_REACTORS
330
D
102
}
330
D
100
AcDbGroup
300

 70
     1
 71
     1
  0
GROUP
  5
813B
102
{ACAD_REACTORS
330
D
102
}
330
D
100
AcDbGroup
300

 70
     1
 71
     1
  0
GROUP
  5
10D7F
102
{ACAD_REACTORS
330
D
102
}
330
D
100
AcDbGroup
300

 70
     1
 71
     1
  0
GROUP
  5
B609
102
{ACAD_REACTORS
330
D
102
}
330
D
100
AcDbGroup
300

 70
     1
 71
     1
  0
GROUP
  5
102FC
102
{ACAD_REACTORS
330
D
102
}
330
D
100
AcDbGroup
300

 70
     1
 71
     1
  0
GROUP
  5
52F6
102
{ACAD_REACTORS
330
D
102
}
330
D
100
AcDbGroup
300

 70
     1
 71
     1
  0
GROUP
  5
813C
102
{ACAD_REACTORS
330
D
102
}
330
D
100
AcDbGroup
300

 70
     1
 71
     1
  0
GROUP
  5
11B49
102
{ACAD_REACTORS
330
D
102
}
330
D
100
AcDbGroup
300

 70
     1
 71
     1
  0
GROUP
  5
3622
102
{ACAD_REACTORS
330
D
102
}
330
D
100
AcDbGroup
300

 70
     1
 71
     1
  0
GROUP
  5
A75C
102
{ACAD_REACTORS
330
D
102
}
330
D
100
AcDbGroup
300

 70
     1
 71
     1
  0
GROUP
  5
1099F
102
{ACAD_REACTORS
330
D
102
}
330
D
100
AcDbGroup
300

 70
     1
 71
     1
  0
GROUP
  5
1B7C
102
{ACAD_REACTORS
330
D
102
}
330
D
100
AcDbGroup
300

 70
     1
 71
     1
  0
GROUP
  5
14E62
102
{ACAD_REACTORS
330
D
102
}
330
D
100
AcDbGroup
300

 70
     1
 71
     1
  0
GROUP
  5
8114
102
{ACAD_REACTORS
330
D
102
}
330
D
100
AcDbGroup
300

 70
     1
 71
     1
  0
GROUP
  5
1314B
102
{ACAD_REACTORS
330
D
102
}
330
D
100
AcDbGroup
300

 70
     1
 71
     1
  0
GROUP
  5
1229A
102
{ACAD_REACTORS
330
D
102
}
330
D
100
AcDbGroup
300

 70
     1
 71
     1
  0
GROUP
  5
11A95
102
{ACAD_REACTORS
330
D
102
}
330
D
100
AcDbGroup
300

 70
     1
 71
     1
  0
GROUP
  5
14E63
102
{ACAD_REACTORS
330
D
102
}
330
D
100
AcDbGroup
300

 70
     1
 71
     1
  0
GROUP
  5
14E64
102
{ACAD_REACTORS
330
D
102
}
330
D
100
AcDbGroup
300

 70
     1
 71
     1
  0
GROUP
  5
14E65
102
{ACAD_REACTORS
330
D
102
}
330
D
100
AcDbGroup
300

 70
     1
 71
     1
  0
GROUP
  5
14E66
102
{ACAD_REACTORS
330
D
102
}
330
D
100
AcDbGroup
300

 70
     1
 71
     1
  0
GROUP
  5
10301
102
{ACAD_REACTORS
330
D
102
}
330
D
100
AcDbGroup
300

 70
     1
 71
     1
  0
GROUP
  5
1229C
102
{ACAD_REACTORS
330
D
102
}
330
D
100
AcDbGroup
300

 70
     1
 71
     1
  0
GROUP
  5
54A5
102
{ACAD_REACTORS
330
D
102
}
330
D
100
AcDbGroup
300

 70
     1
 71
     1
  0
GROUP
  5
102DE
102
{ACAD_REACTORS
330
D
102
}
330
D
100
AcDbGroup
300

 70
     1
 71
     1
  0
GROUP
  5
4EF2
102
{ACAD_REACTORS
330
D
102
}
330
D
100
AcDbGroup
300

 70
     1
 71
     1
  0
GROUP
  5
14E67
102
{ACAD_REACTORS
330
D
102
}
330
D
100
AcDbGroup
300

 70
     1
 71
     1
  0
GROUP
  5
8104
102
{ACAD_REACTORS
330
D
102
}
330
D
100
AcDbGroup
300

 70
     1
 71
     1
  0
GROUP
  5
52F8
102
{ACAD_REACTORS
330
D
102
}
330
D
100
AcDbGroup
300

 70
     1
 71
     1
  0
GROUP
  5
11CFE
102
{ACAD_REACTORS
330
D
102
}
330
D
100
AcDbGroup
300

 70
     1
 71
     1
  0
GROUP
  5
1DBD
102
{ACAD_REACTORS
330
D
102
}
330
D
100
AcDbGroup
300

 70
     1
 71
     1
  0
GROUP
  5
812F
102
{ACAD_REACTORS
330
D
102
}
330
D
100
AcDbGroup
300

 70
     1
 71
     1
  0
GROUP
  5
14E68
102
{ACAD_REACTORS
330
D
102
}
330
D
100
AcDbGroup
300

 70
     1
 71
     1
  0
GROUP
  5
1032C
102
{ACAD_REACTORS
330
D
102
}
330
D
100
AcDbGroup
300

 70
     1
 71
     1
  0
GROUP
  5
14E69
102
{ACAD_REACTORS
330
D
102
}
330
D
100
AcDbGroup
300

 70
     1
 71
     1
  0
GROUP
  5
811E
102
{ACAD_REACTORS
330
D
102
}
330
D
100
AcDbGroup
300

 70
     1
 71
     1
  0
GROUP
  5
14E6A
102
{ACAD_REACTORS
330
D
102
}
330
D
100
AcDbGroup
300

 70
     1
 71
     1
  0
GROUP
  5
14E6B
102
{ACAD_REACTORS
330
D
102
}
330
D
100
AcDbGroup
300

 70
     1
 71
     1
  0
GROUP
  5
BE3F
102
{ACAD_REACTORS
330
D
102
}
330
D
100
AcDbGroup
300

 70
     1
 71
     1
  0
GROUP
  5
33ED
102
{ACAD_REACTORS
330
D
102
}
330
D
100
AcDbGroup
300

 70
     1
 71
     1
  0
GROUP
  5
14E6C
102
{ACAD_REACTORS
330
D
102
}
330
D
100
AcDbGroup
300

 70
     1
 71
     1
  0
GROUP
  5
C032
102
{ACAD_REACTORS
330
D
102
}
330
D
100
AcDbGroup
300

 70
     1
 71
     1
  0
GROUP
  5
3AAA
102
{ACAD_REACTORS
330
D
102
}
330
D
100
AcDbGroup
300

 70
     1
 71
     1
  0
GROUP
  5
14E6D
102
{ACAD_REACTORS
330
D
102
}
330
D
100
AcDbGroup
300

 70
     1
 71
     1
  0
GROUP
  5
4EF5
102
{ACAD_REACTORS
330
D
102
}
330
D
100
AcDbGroup
300

 70
     1
 71
     1
  0
GROUP
  5
1032B
102
{ACAD_REACTORS
330
D
102
}
330
D
100
AcDbGroup
300

 70
     1
 71
     1
  0
GROUP
  5
2F58
102
{ACAD_REACTORS
330
D
102
}
330
D
100
AcDbGroup
300

 70
     1
 71
     1
  0
GROUP
  5
54A9
102
{ACAD_REACTORS
330
D
102
}
330
D
100
AcDbGroup
300

 70
     1
 71
     1
  0
GROUP
  5
14E6E
102
{ACAD_REACTORS
330
D
102
}
330
D
100
AcDbGroup
300

 70
     1
 71
     1
  0
GROUP
  5
523A
102
{ACAD_REACTORS
330
D
102
}
330
D
100
AcDbGroup
300

 70
     1
 71
     1
  0
GROUP
  5
14E6F
102
{ACAD_REACTORS
330
D
102
}
330
D
100
AcDbGroup
300

 70
     1
 71
     1
  0
GROUP
  5
10327
102
{ACAD_REACTORS
330
D
102
}
330
D
100
AcDbGroup
300

 70
     1
 71
     1
  0
GROUP
  5
14E70
102
{ACAD_REACTORS
330
D
102
}
330
D
100
AcDbGroup
300

 70
     1
 71
     1
  0
GROUP
  5
14E71
102
{ACAD_REACTORS
330
D
102
}
330
D
100
AcDbGroup
300

 70
     1
 71
     1
  0
GROUP
  5
107AC
102
{ACAD_REACTORS
330
D
102
}
330
D
100
AcDbGroup
300

 70
     1
 71
     1
  0
GROUP
  5
14E72
102
{ACAD_REACTORS
330
D
102
}
330
D
100
AcDbGroup
300

 70
     1
 71
     1
  0
GROUP
  5
14E73
102
{ACAD_REACTORS
330
D
102
}
330
D
100
AcDbGroup
300

 70
     1
 71
     1
  0
GROUP
  5
13143
102
{ACAD_REACTORS
330
D
102
}
330
D
100
AcDbGroup
300

 70
     1
 71
     1
  0
GROUP
  5
11C3C
102
{ACAD_REACTORS
330
D
102
}
330
D
100
AcDbGroup
300

 70
     1
 71
     1
  0
GROUP
  5
2F54
102
{ACAD_REACTORS
330
D
102
}
330
D
100
AcDbGroup
300

 70
     1
 71
     1
  0
GROUP
  5
127C3
102
{ACAD_REACTORS
330
D
102
}
330
D
100
AcDbGroup
300

 70
     1
 71
     1
  0
GROUP
  5
14E74
102
{ACAD_REACTORS
330
D
102
}
330
D
100
AcDbGroup
300

 70
     1
 71
     1
  0
GROUP
  5
14E75
102
{ACAD_REACTORS
330
D
102
}
330
D
100
AcDbGroup
300

 70
     1
 71
     1
  0
GROUP
  5
11A96
102
{ACAD_REACTORS
330
D
102
}
330
D
100
AcDbGroup
300

 70
     1
 71
     1
  0
GROUP
  5
A5E4
102
{ACAD_REACTORS
330
D
102
}
330
D
100
AcDbGroup
300

 70
     1
 71
     1
  0
GROUP
  5
8111
102
{ACAD_REACTORS
330
D
102
}
330
D
100
AcDbGroup
300

 70
     1
 71
     1
  0
GROUP
  5
564F
102
{ACAD_REACTORS
330
D
102
}
330
D
100
AcDbGroup
300

 70
     1
 71
     1
  0
GROUP
  5
1314C
102
{ACAD_REACTORS
330
D
102
}
330
D
100
AcDbGroup
300

 70
     1
 71
     1
  0
GROUP
  5
8120
102
{ACAD_REACTORS
330
D
102
}
330
D
100
AcDbGroup
300

 70
     1
 71
     1
  0
GROUP
  5
102DF
102
{ACAD_REACTORS
330
D
102
}
330
D
100
AcDbGroup
300

 70
     1
 71
     1
  0
GROUP
  5
14E76
102
{ACAD_REACTORS
330
D
102
}
330
D
100
AcDbGroup
300

 70
     1
 71
     1
  0
GROUP
  5
13483
102
{ACAD_REACTORS
330
D
102
}
330
D
100
AcDbGroup
300

 70
     1
 71
     1
  0
GROUP
  5
14E77
102
{ACAD_REACTORS
330
D
102
}
330
D
100
AcDbGroup
300

 70
     1
 71
     1
  0
GROUP
  5
11CFF
102
{ACAD_REACTORS
330
D
102
}
330
D
100
AcDbGroup
300

 70
     1
 71
     1
  0
GROUP
  5
14E78
102
{ACAD_REACTORS
330
D
102
}
330
D
100
AcDbGroup
300

 70
     1
 71
     1
  0
GROUP
  5
11BB9
102
{ACAD_REACTORS
330
D
102
}
330
D
100
AcDbGroup
300

 70
     1
 71
     1
  0
GROUP
  5
B2BF
102
{ACAD_REACTORS
330
D
102
}
330
D
100
AcDbGroup
300

 70
     1
 71
     1
  0
GROUP
  5
14E79
102
{ACAD_REACTORS
330
D
102
}
330
D
100
AcDbGroup
300

 70
     1
 71
     1
  0
GROUP
  5
14E7A
102
{ACAD_REACTORS
330
D
102
}
330
D
100
AcDbGroup
300

 70
     1
 71
     1
  0
GROUP
  5
14E7B
102
{ACAD_REACTORS
330
D
102
}
330
D
100
AcDbGroup
300

 70
     1
 71
     1
  0
GROUP
  5
102E0
102
{ACAD_REACTORS
330
D
102
}
330
D
100
AcDbGroup
300

 70
     1
 71
     1
  0
GROUP
  5
14E7C
102
{ACAD_REACTORS
330
D
102
}
330
D
100
AcDbGroup
300

 70
     1
 71
     1
  0
GROUP
  5
11C3B
102
{ACAD_REACTORS
330
D
102
}
330
D
100
AcDbGroup
300

 70
     1
 71
     1
  0
GROUP
  5
13484
102
{ACAD_REACTORS
330
D
102
}
330
D
100
AcDbGroup
300

 70
     1
 71
     1
  0
GROUP
  5
14E7D
102
{ACAD_REACTORS
330
D
102
}
330
D
100
AcDbGroup
300

 70
     1
 71
     1
  0
GROUP
  5
3D22
102
{ACAD_REACTORS
330
D
102
}
330
D
100
AcDbGroup
300

 70
     1
 71
     1
  0
GROUP
  5
106AB
102
{ACAD_REACTORS
330
D
102
}
330
D
100
AcDbGroup
300

 70
     1
 71
     1
  0
GROUP
  5
14E7E
102
{ACAD_REACTORS
330
D
102
}
330
D
100
AcDbGroup
300

 70
     1
 71
     1
  0
GROUP
  5
10BE5
102
{ACAD_REACTORS
330
D
102
}
330
D
100
AcDbGroup
300

 70
     1
 71
     1
  0
GROUP
  5
4EE9
102
{ACAD_REACTORS
330
D
102
}
330
D
100
AcDbGroup
300

 70
     1
 71
     1
  0
GROUP
  5
127C7
102
{ACAD_REACTORS
330
D
102
}
330
D
100
AcDbGroup
300

 70
     1
 71
     1
  0
GROUP
  5
8535
102
{ACAD_REACTORS
330
D
102
}
330
D
100
AcDbGroup
300

 70
     1
 71
     1
  0
GROUP
  5
11A97
102
{ACAD_REACTORS
330
D
102
}
330
D
100
AcDbGroup
300

 70
     1
 71
     1
  0
GROUP
  5
10305
102
{ACAD_REACTORS
330
D
102
}
330
D
100
AcDbGroup
300

 70
     1
 71
     1
  0
GROUP
  5
14E7F
102
{ACAD_REACTORS
330
D
102
}
330
D
100
AcDbGroup
300

 70
     1
 71
     1
  0
GROUP
  5
26B3
102
{ACAD_REACTORS
330
D
102
}
330
D
100
AcDbGroup
300

 70
     1
 71
     1
  0
GROUP
  5
2F50
102
{ACAD_REACTORS
330
D
102
}
330
D
100
AcDbGroup
300

 70
     1
 71
     1
  0
GROUP
  5
11D00
102
{ACAD_REACTORS
330
D
102
}
330
D
100
AcDbGroup
300

 70
     1
 71
     1
  0
GROUP
  5
3D1F
102
{ACAD_REACTORS
330
D
102
}
330
D
100
AcDbGroup
300

 70
     1
 71
     1
  0
GROUP
  5
14E80
102
{ACAD_REACTORS
330
D
102
}
330
D
100
AcDbGroup
300

 70
     1
 71
     1
  0
GROUP
  5
14E81
102
{ACAD_REACTORS
330
D
102
}
330
D
100
AcDbGroup
300

 70
     1
 71
     1
  0
GROUP
  5
14E82
102
{ACAD_REACTORS
330
D
102
}
330
D
100
AcDbGroup
300

 70
     1
 71
     1
  0
GROUP
  5
106B0
102
{ACAD_REACTORS
330
D
102
}
330
D
100
AcDbGroup
300

 70
     1
 71
     1
  0
GROUP
  5
AD8F
102
{ACAD_REACTORS
330
D
102
}
330
D
100
AcDbGroup
300

 70
     1
 71
     1
  0
GROUP
  5
10CE7
102
{ACAD_REACTORS
330
D
102
}
330
D
100
AcDbGroup
300

 70
     1
 71
     1
  0
GROUP
  5
127CA
102
{ACAD_REACTORS
330
D
102
}
330
D
100
AcDbGroup
300

 70
     1
 71
     1
  0
GROUP
  5
14E83
102
{ACAD_REACTORS
330
D
102
}
330
D
100
AcDbGroup
300

 70
     1
 71
     1
  0
GROUP
  5
102FF
102
{ACAD_REACTORS
330
D
102
}
330
D
100
AcDbGroup
300

 70
     1
 71
     1
  0
GROUP
  5
564E
102
{ACAD_REACTORS
330
D
102
}
330
D
100
AcDbGroup
300

 70
     1
 71
     1
  0
GROUP
  5
4EEE
102
{ACAD_REACTORS
330
D
102
}
330
D
100
AcDbGroup
300

 70
     1
 71
     1
  0
GROUP
  5
8AB6
102
{ACAD_REACTORS
330
D
102
}
330
D
100
AcDbGroup
300

 70
     1
 71
     1
  0
GROUP
  5
8122
102
{ACAD_REACTORS
330
D
102
}
330
D
100
AcDbGroup
300

 70
     1
 71
     1
  0
GROUP
  5
14E84
102
{ACAD_REACTORS
330
D
102
}
330
D
100
AcDbGroup
300

 70
     1
 71
     1
  0
GROUP
  5
812A
102
{ACAD_REACTORS
330
D
102
}
330
D
100
AcDbGroup
300

 70
     1
 71
     1
  0
GROUP
  5
14E85
102
{ACAD_REACTORS
330
D
102
}
330
D
100
AcDbGroup
300

 70
     1
 71
     1
  0
GROUP
  5
14E86
102
{ACAD_REACTORS
330
D
102
}
330
D
100
AcDbGroup
300

 70
     1
 71
     1
  0
GROUP
  5
14E87
102
{ACAD_REACTORS
330
D
102
}
330
D
100
AcDbGroup
300

 70
     1
 71
     1
  0
GROUP
  5
30BB
102
{ACAD_REACTORS
330
D
102
}
330
D
100
AcDbGroup
300

 70
     1
 71
     1
  0
GROUP
  5
102EC
102
{ACAD_REACTORS
330
D
102
}
330
D
100
AcDbGroup
300

 70
     1
 71
     1
  0
GROUP
  5
14E88
102
{ACAD_REACTORS
330
D
102
}
330
D
100
AcDbGroup
300

 70
     1
 71
     1
  0
GROUP
  5
AB86
102
{ACAD_REACTORS
330
D
102
}
330
D
100
AcDbGroup
300

 70
     1
 71
     1
  0
GROUP
  5
12908
102
{ACAD_REACTORS
330
D
102
}
330
D
100
AcDbGroup
300

 70
     1
 71
     1
  0
GROUP
  5
14E89
102
{ACAD_REACTORS
330
D
102
}
330
D
100
AcDbGroup
300

 70
     1
 71
     1
  0
GROUP
  5
B370
102
{ACAD_REACTORS
330
D
102
}
330
D
100
AcDbGroup
300

 70
     1
 71
     1
  0
GROUP
  5
5239
102
{ACAD_REACTORS
330
D
102
}
330
D
100
AcDbGroup
300

 70
     1
 71
     1
  0
GROUP
  5
4EF1
102
{ACAD_REACTORS
330
D
102
}
330
D
100
AcDbGroup
300

 70
     1
 71
     1
  0
GROUP
  5
109A0
102
{ACAD_REACTORS
330
D
102
}
330
D
100
AcDbGroup
300

 70
     1
 71
     1
  0
GROUP
  5
339E
102
{ACAD_REACTORS
330
D
102
}
330
D
100
AcDbGroup
300

 70
     1
 71
     1
  0
GROUP
  5
14E8A
102
{ACAD_REACTORS
330
D
102
}
330
D
100
AcDbGroup
300

 70
     1
 71
     1
  0
GROUP
  5
2829
102
{ACAD_REACTORS
330
D
102
}
330
D
100
AcDbGroup
300

 70
     1
 71
     1
  0
GROUP
  5
14E8B
102
{ACAD_REACTORS
330
D
102
}
330
D
100
AcDbGroup
300

 70
     1
 71
     1
  0
GROUP
  5
14E8C
102
{ACAD_REACTORS
330
D
102
}
330
D
100
AcDbGroup
300

 70
     1
 71
     1
  0
GROUP
  5
4EE3
102
{ACAD_REACTORS
330
D
102
}
330
D
100
AcDbGroup
300

 70
     1
 71
     1
  0
GROUP
  5
14E8D
102
{ACAD_REACTORS
330
D
102
}
330
D
100
AcDbGroup
300

 70
     1
 71
     1
  0
GROUP
  5
14E8E
102
{ACAD_REACTORS
330
D
102
}
330
D
100
AcDbGroup
300

 70
     1
 71
     1
  0
GROUP
  5
5359
102
{ACAD_REACTORS
330
D
102
}
330
D
100
AcDbGroup
300

 70
     1
 71
     1
  0
GROUP
  5
BE46
102
{ACAD_REACTORS
330
D
102
}
330
D
100
AcDbGroup
300

 70
     1
 71
     1
  0
GROUP
  5
1314D
102
{ACAD_REACTORS
330
D
102
}
330
D
100
AcDbGroup
300

 70
     1
 71
     1
  0
GROUP
  5
14E8F
102
{ACAD_REACTORS
330
D
102
}
330
D
100
AcDbGroup
300

 70
     1
 71
     1
  0
GROUP
  5
14E90
102
{ACAD_REACTORS
330
D
102
}
330
D
100
AcDbGroup
300

 70
     1
 71
     1
  0
GROUP
  5
11E49
102
{ACAD_REACTORS
330
D
102
}
330
D
100
AcDbGroup
300

 70
     1
 71
     1
  0
GROUP
  5
50F6
102
{ACAD_REACTORS
330
D
102
}
330
D
100
AcDbGroup
300

 70
     1
 71
     1
  0
GROUP
  5
A7E4
102
{ACAD_REACTORS
330
D
102
}
330
D
100
AcDbGroup
300

 70
     1
 71
     1
  0
GROUP
  5
B2C4
102
{ACAD_REACTORS
330
D
102
}
330
D
100
AcDbGroup
300

 70
     1
 71
     1
  0
GROUP
  5
13485
102
{ACAD_REACTORS
330
D
102
}
330
D
100
AcDbGroup
300

 70
     1
 71
     1
  0
GROUP
  5
14E91
102
{ACAD_REACTORS
330
D
102
}
330
D
100
AcDbGroup
300

 70
     1
 71
     1
  0
GROUP
  5
B2BA
102
{ACAD_REACTORS
330
D
102
}
330
D
100
AcDbGroup
300

 70
     1
 71
     1
  0
GROUP
  5
14E92
102
{ACAD_REACTORS
330
D
102
}
330
D
100
AcDbGroup
300

 70
     1
 71
     1
  0
GROUP
  5
A7EC
102
{ACAD_REACTORS
330
D
102
}
330
D
100
AcDbGroup
300

 70
     1
 71
     1
  0
GROUP
  5
14E93
102
{ACAD_REACTORS
330
D
102
}
330
D
100
AcDbGroup
300

 70
     1
 71
     1
  0
GROUP
  5
3AB0
102
{ACAD_REACTORS
330
D
102
}
330
D
100
AcDbGroup
300

 70
     1
 71
     1
  0
GROUP
  5
26A6
102
{ACAD_REACTORS
330
D
102
}
330
D
100
AcDbGroup
300

 70
     1
 71
     1
  0
GROUP
  5
109A1
102
{ACAD_REACTORS
330
D
102
}
330
D
100
AcDbGroup
300

 70
     1
 71
     1
  0
GROUP
  5
14E94
102
{ACAD_REACTORS
330
D
102
}
330
D
100
AcDbGroup
300

 70
     1
 71
     1
  0
GROUP
  5
14E95
102
{ACAD_REACTORS
330
D
102
}
330
D
100
AcDbGroup
300

 70
     1
 71
     1
  0
GROUP
  5
14E96
102
{ACAD_REACTORS
330
D
102
}
330
D
100
AcDbGroup
300

 70
     1
 71
     1
  0
GROUP
  5
4EEA
102
{ACAD_REACTORS
330
D
102
}
330
D
100
AcDbGroup
300

 70
     1
 71
     1
  0
GROUP
  5
8123
102
{ACAD_REACTORS
330
D
102
}
330
D
100
AcDbGroup
300

 70
     1
 71
     1
  0
GROUP
  5
14E97
102
{ACAD_REACTORS
330
D
102
}
330
D
100
AcDbGroup
300

 70
     1
 71
     1
  0
GROUP
  5
2F4C
102
{ACAD_REACTORS
330
D
102
}
330
D
100
AcDbGroup
300

 70
     1
 71
     1
  0
GROUP
  5
A75A
102
{ACAD_REACTORS
330
D
102
}
330
D
100
AcDbGroup
300

 70
     1
 71
     1
  0
GROUP
  5
14E98
102
{ACAD_REACTORS
330
D
102
}
330
D
100
AcDbGroup
300

 70
     1
 71
     1
  0
GROUP
  5
11AA6
102
{ACAD_REACTORS
330
D
102
}
330
D
100
AcDbGroup
300

 70
     1
 71
     1
  0
GROUP
  5
B36F
102
{ACAD_REACTORS
330
D
102
}
330
D
100
AcDbGroup
300

 70
     1
 71
     1
  0
GROUP
  5
1314E
102
{ACAD_REACTORS
330
D
102
}
330
D
100
AcDbGroup
300

 70
     1
 71
     1
  0
GROUP
  5
11E4A
102
{ACAD_REACTORS
330
D
102
}
330
D
100
AcDbGroup
300

 70
     1
 71
     1
  0
GROUP
  5
26AC
102
{ACAD_REACTORS
330
D
102
}
330
D
100
AcDbGroup
300

 70
     1
 71
     1
  0
GROUP
  5
14E99
102
{ACAD_REACTORS
330
D
102
}
330
D
100
AcDbGroup
300

 70
     1
 71
     1
  0
GROUP
  5
1030E
102
{ACAD_REACTORS
330
D
102
}
330
D
100
AcDbGroup
300

 70
     1
 71
     1
  0
GROUP
  5
A999
102
{ACAD_REACTORS
330
D
102
}
330
D
100
AcDbGroup
300

 70
     1
 71
     1
  0
GROUP
  5
A7E5
102
{ACAD_REACTORS
330
D
102
}
330
D
100
AcDbGroup
300

 70
     1
 71
     1
  0
GROUP
  5
812D
102
{ACAD_REACTORS
330
D
102
}
330
D
100
AcDbGroup
300

 70
     1
 71
     1
  0
GROUP
  5
14E9A
102
{ACAD_REACTORS
330
D
102
}
330
D
100
AcDbGroup
300

 70
     1
 71
     1
  0
GROUP
  5
14E9B
102
{ACAD_REACTORS
330
D
102
}
330
D
100
AcDbGroup
300

 70
     1
 71
     1
  0
GROUP
  5
14E9C
102
{ACAD_REACTORS
330
D
102
}
330
D
100
AcDbGroup
300

 70
     1
 71
     1
  0
GROUP
  5
BE4D
102
{ACAD_REACTORS
330
D
102
}
330
D
100
AcDbGroup
300

 70
     1
 71
     1
  0
GROUP
  5
11BB4
102
{ACAD_REACTORS
330
D
102
}
330
D
100
AcDbGroup
300

 70
     1
 71
     1
  0
GROUP
  5
AC78
102
{ACAD_REACTORS
330
D
102
}
330
D
100
AcDbGroup
300

 70
     1
 71
     1
  0
GROUP
  5
14E9D
102
{ACAD_REACTORS
330
D
102
}
330
D
100
AcDbGroup
300

 70
     1
 71
     1
  0
GROUP
  5
106AE
102
{ACAD_REACTORS
330
D
102
}
330
D
100
AcDbGroup
300

 70
     1
 71
     1
  0
GROUP
  5
B2C2
102
{ACAD_REACTORS
330
D
102
}
330
D
100
AcDbGroup
300

 70
     1
 71
     1
  0
GROUP
  5
BE48
102
{ACAD_REACTORS
330
D
102
}
330
D
100
AcDbGroup
300

 70
     1
 71
     1
  0
GROUP
  5
13142
102
{ACAD_REACTORS
330
D
102
}
330
D
100
AcDbGroup
300

 70
     1
 71
     1
  0
GROUP
  5
12909
102
{ACAD_REACTORS
330
D
102
}
330
D
100
AcDbGroup
300

 70
     1
 71
     1
  0
GROUP
  5
109A2
102
{ACAD_REACTORS
330
D
102
}
330
D
100
AcDbGroup
300

 70
     1
 71
     1
  0
GROUP
  5
14E9E
102
{ACAD_REACTORS
330
D
102
}
330
D
100
AcDbGroup
300

 70
     1
 71
     1
  0
GROUP
  5
14E9F
102
{ACAD_REACTORS
330
D
102
}
330
D
100
AcDbGroup
300

 70
     1
 71
     1
  0
GROUP
  5
14EA0
102
{ACAD_REACTORS
330
D
102
}
330
D
100
AcDbGroup
300

 70
     1
 71
     1
  0
GROUP
  5
A5B7
102
{ACAD_REACTORS
330
D
102
}
330
D
100
AcDbGroup
300

 70
     1
 71
     1
  0
GROUP
  5
10326
102
{ACAD_REACTORS
330
D
102
}
330
D
100
AcDbGroup
300

 70
     1
 71
     1
  0
GROUP
  5
14EA1
102
{ACAD_REACTORS
330
D
102
}
330
D
100
AcDbGroup
300

 70
     1
 71
     1
  0
GROUP
  5
102EF
102
{ACAD_REACTORS
330
D
102
}
330
D
100
AcDbGroup
300

 70
     1
 71
     1
  0
GROUP
  5
1314F
102
{ACAD_REACTORS
330
D
102
}
330
D
100
AcDbGroup
300

 70
     1
 71
     1
  0
GROUP
  5
14EA2
102
{ACAD_REACTORS
330
D
102
}
330
D
100
AcDbGroup
300

 70
     1
 71
     1
  0
GROUP
  5
4F49
102
{ACAD_REACTORS
330
D
102
}
330
D
100
AcDbGroup
300

 70
     1
 71
     1
  0
GROUP
  5
26AA
102
{ACAD_REACTORS
330
D
102
}
330
D
100
AcDbGroup
300

 70
     1
 71
     1
  0
GROUP
  5
5655
102
{ACAD_REACTORS
330
D
102
}
330
D
100
AcDbGroup
300

 70
     1
 71
     1
  0
GROUP
  5
C0A0
102
{ACAD_REACTORS
330
D
102
}
330
D
100
AcDbGroup
300

 70
     1
 71
     1
  0
GROUP
  5
14EA3
102
{ACAD_REACTORS
330
D
102
}
330
D
100
AcDbGroup
300

 70
     1
 71
     1
  0
GROUP
  5
3AB1
102
{ACAD_REACTORS
330
D
102
}
330
D
100
AcDbGroup
300

 70
     1
 71
     1
  0
GROUP
  5
14EA4
102
{ACAD_REACTORS
330
D
102
}
330
D
100
AcDbGroup
300

 70
     1
 71
     1
  0
GROUP
  5
14EA5
102
{ACAD_REACTORS
330
D
102
}
330
D
100
AcDbGroup
300

 70
     1
 71
     1
  0
GROUP
  5
10D81
102
{ACAD_REACTORS
330
D
102
}
330
D
100
AcDbGroup
300

 70
     1
 71
     1
  0
GROUP
  5
14EA6
102
{ACAD_REACTORS
330
D
102
}
330
D
100
AcDbGroup
300

 70
     1
 71
     1
  0
GROUP
  5
14EA7
102
{ACAD_REACTORS
330
D
102
}
330
D
100
AcDbGroup
300

 70
     1
 71
     1
  0
GROUP
  5
124E7
102
{ACAD_REACTORS
330
D
102
}
330
D
100
AcDbGroup
300

 70
     1
 71
     1
  0
GROUP
  5
136CA
102
{ACAD_REACTORS
330
D
102
}
330
D
100
AcDbGroup
300

 70
     1
 71
     1
  0
GROUP
  5
102F4
102
{ACAD_REACTORS
330
D
102
}
330
D
100
AcDbGroup
300

 70
     1
 71
     1
  0
GROUP
  5
14EA8
102
{ACAD_REACTORS
330
D
102
}
330
D
100
AcDbGroup
300

 70
     1
 71
     1
  0
GROUP
  5
4EF3
102
{ACAD_REACTORS
330
D
102
}
330
D
100
AcDbGroup
300

 70
     1
 71
     1
  0
GROUP
  5
3D90
102
{ACAD_REACTORS
330
D
102
}
330
D
100
AcDbGroup
300

 70
     1
 71
     1
  0
GROUP
  5
1290A
102
{ACAD_REACTORS
330
D
102
}
330
D
100
AcDbGroup
300

 70
     1
 71
     1
  0
GROUP
  5
33DC
102
{ACAD_REACTORS
330
D
102
}
330
D
100
AcDbGroup
300

 70
     1
 71
     1
  0
GROUP
  5
30B6
102
{ACAD_REACTORS
330
D
102
}
330
D
100
AcDbGroup
300

 70
     1
 71
     1
  0
GROUP
  5
14EA9
102
{ACAD_REACTORS
330
D
102
}
330
D
100
AcDbGroup
300

 70
     1
 71
     1
  0
GROUP
  5
14EAA
102
{ACAD_REACTORS
330
D
102
}
330
D
100
AcDbGroup
300

 70
     1
 71
     1
  0
GROUP
  5
511E
102
{ACAD_REACTORS
330
D
102
}
330
D
100
AcDbGroup
300

 70
     1
 71
     1
  0
GROUP
  5
14EAB
102
{ACAD_REACTORS
330
D
102
}
330
D
100
AcDbGroup
300

 70
     1
 71
     1
  0
GROUP
  5
B371
102
{ACAD_REACTORS
330
D
102
}
330
D
100
AcDbGroup
300

 70
     1
 71
     1
  0
GROUP
  5
A598
102
{ACAD_REACTORS
330
D
102
}
330
D
100
AcDbGroup
300

 70
     1
 71
     1
  0
GROUP
  5
11A98
102
{ACAD_REACTORS
330
D
102
}
330
D
100
AcDbGroup
300

 70
     1
 71
     1
  0
GROUP
  5
14EAC
102
{ACAD_REACTORS
330
D
102
}
330
D
100
AcDbGroup
300

 70
     1
 71
     1
  0
GROUP
  5
14EAD
102
{ACAD_REACTORS
330
D
102
}
330
D
100
AcDbGroup
300

 70
     1
 71
     1
  0
GROUP
  5
511D
102
{ACAD_REACTORS
330
D
102
}
330
D
100
AcDbGroup
300

 70
     1
 71
     1
  0
GROUP
  5
339F
102
{ACAD_REACTORS
330
D
102
}
330
D
100
AcDbGroup
300

 70
     1
 71
     1
  0
GROUP
  5
8ABA
102
{ACAD_REACTORS
330
D
102
}
330
D
100
AcDbGroup
300

 70
     1
 71
     1
  0
GROUP
  5
1290B
102
{ACAD_REACTORS
330
D
102
}
330
D
100
AcDbGroup
300

 70
     1
 71
     1
  0
GROUP
  5
10CE9
102
{ACAD_REACTORS
330
D
102
}
330
D
100
AcDbGroup
300

 70
     1
 71
     1
  0
GROUP
  5
813D
102
{ACAD_REACTORS
330
D
102
}
330
D
100
AcDbGroup
300

 70
     1
 71
     1
  0
GROUP
  5
1229D
102
{ACAD_REACTORS
330
D
102
}
330
D
100
AcDbGroup
300

 70
     1
 71
     1
  0
GROUP
  5
125AA
102
{ACAD_REACTORS
330
D
102
}
330
D
100
AcDbGroup
300

 70
     1
 71
     1
  0
GROUP
  5
136CB
102
{ACAD_REACTORS
330
D
102
}
330
D
100
AcDbGroup
300

 70
     1
 71
     1
  0
GROUP
  5
3D20
102
{ACAD_REACTORS
330
D
102
}
330
D
100
AcDbGroup
300

 70
     1
 71
     1
  0
GROUP
  5
4EDD
102
{ACAD_REACTORS
330
D
102
}
330
D
100
AcDbGroup
300

 70
     1
 71
     1
  0
GROUP
  5
33E8
102
{ACAD_REACTORS
330
D
102
}
330
D
100
AcDbGroup
300

 70
     1
 71
     1
  0
GROUP
  5
2781
102
{ACAD_REACTORS
330
D
102
}
330
D
100
AcDbGroup
300

 70
     1
 71
     1
  0
GROUP
  5
866E
102
{ACAD_REACTORS
330
D
102
}
330
D
100
AcDbGroup
300

 70
     1
 71
     1
  0
GROUP
  5
564B
102
{ACAD_REACTORS
330
D
102
}
330
D
100
AcDbGroup
300

 70
     1
 71
     1
  0
GROUP
  5
109A3
102
{ACAD_REACTORS
330
D
102
}
330
D
100
AcDbGroup
300

 70
     1
 71
     1
  0
GROUP
  5
109A4
102
{ACAD_REACTORS
330
D
102
}
330
D
100
AcDbGroup
300

 70
     1
 71
     1
  0
GROUP
  5
10A21
102
{ACAD_REACTORS
330
D
102
}
330
D
100
AcDbGroup
300

 70
     1
 71
     1
  0
GROUP
  5
C030
102
{ACAD_REACTORS
330
D
102
}
330
D
100
AcDbGroup
300

 70
     1
 71
     1
  0
GROUP
  5
4EF9
102
{ACAD_REACTORS
330
D
102
}
330
D
100
AcDbGroup
300

 70
     1
 71
     1
  0
GROUP
  5
1030C
102
{ACAD_REACTORS
330
D
102
}
330
D
100
AcDbGroup
300

 70
     1
 71
     1
  0
GROUP
  5
10A22
102
{ACAD_REACTORS
330
D
102
}
330
D
100
AcDbGroup
300

 70
     1
 71
     1
  0
GROUP
  5
277D
102
{ACAD_REACTORS
330
D
102
}
330
D
100
AcDbGroup
300

 70
     1
 71
     1
  0
GROUP
  5
132F3
102
{ACAD_REACTORS
330
D
102
}
330
D
100
AcDbGroup
300

 70
     1
 71
     1
  0
GROUP
  5
13150
102
{ACAD_REACTORS
330
D
102
}
330
D
100
AcDbGroup
300

 70
     1
 71
     1
  0
GROUP
  5
11A99
102
{ACAD_REACTORS
330
D
102
}
330
D
100
AcDbGroup
300

 70
     1
 71
     1
  0
GROUP
  5
10A97
102
{ACAD_REACTORS
330
D
102
}
330
D
100
AcDbGroup
300

 70
     1
 71
     1
  0
GROUP
  5
8117
102
{ACAD_REACTORS
330
D
102
}
330
D
100
AcDbGroup
300

 70
     1
 71
     1
  0
GROUP
  5
10B0C
102
{ACAD_REACTORS
330
D
102
}
330
D
100
AcDbGroup
300

 70
     1
 71
     1
  0
GROUP
  5
844B
102
{ACAD_REACTORS
330
D
102
}
330
D
100
AcDbGroup
300

 70
     1
 71
     1
  0
GROUP
  5
4EED
102
{ACAD_REACTORS
330
D
102
}
330
D
100
AcDbGroup
300

 70
     1
 71
     1
  0
GROUP
  5
10B2C
102
{ACAD_REACTORS
330
D
102
}
330
D
100
AcDbGroup
300

 70
     1
 71
     1
  0
GROUP
  5
136CC
102
{ACAD_REACTORS
330
D
102
}
330
D
100
AcDbGroup
300

 70
     1
 71
     1
  0
GROUP
  5
102F5
102
{ACAD_REACTORS
330
D
102
}
330
D
100
AcDbGroup
300

 70
     1
 71
     1
  0
GROUP
  5
12682
102
{ACAD_REACTORS
330
D
102
}
330
D
100
AcDbGroup
300

 70
     1
 71
     1
  0
GROUP
  5
1290C
102
{ACAD_REACTORS
330
D
102
}
330
D
100
AcDbGroup
300

 70
     1
 71
     1
  0
GROUP
  5
11E4B
102
{ACAD_REACTORS
330
D
102
}
330
D
100
AcDbGroup
300

 70
     1
 71
     1
  0
GROUP
  5
8ABF
102
{ACAD_REACTORS
330
D
102
}
330
D
100
AcDbGroup
300

 70
     1
 71
     1
  0
GROUP
  5
810F
102
{ACAD_REACTORS
330
D
102
}
330
D
100
AcDbGroup
300

 70
     1
 71
     1
  0
GROUP
  5
3AA7
102
{ACAD_REACTORS
330
D
102
}
330
D
100
AcDbGroup
300

 70
     1
 71
     1
  0
GROUP
  5
812C
102
{ACAD_REACTORS
330
D
102
}
330
D
100
AcDbGroup
300

 70
     1
 71
     1
  0
GROUP
  5
5650
102
{ACAD_REACTORS
330
D
102
}
330
D
100
AcDbGroup
300

 70
     1
 71
     1
  0
GROUP
  5
10B44
102
{ACAD_REACTORS
330
D
102
}
330
D
100
AcDbGroup
300

 70
     1
 71
     1
  0
GROUP
  5
BE40
102
{ACAD_REACTORS
330
D
102
}
330
D
100
AcDbGroup
300

 70
     1
 71
     1
  0
GROUP
  5
8AB8
102
{ACAD_REACTORS
330
D
102
}
330
D
100
AcDbGroup
300

 70
     1
 71
     1
  0
GROUP
  5
102E1
102
{ACAD_REACTORS
330
D
102
}
330
D
100
AcDbGroup
300

 70
     1
 71
     1
  0
GROUP
  5
104C6
102
{ACAD_REACTORS
330
D
102
}
330
D
100
AcDbGroup
300

 70
     1
 71
     1
  0
GROUP
  5
811F
102
{ACAD_REACTORS
330
D
102
}
330
D
100
AcDbGroup
300

 70
     1
 71
     1
  0
GROUP
  5
BE49
102
{ACAD_REACTORS
330
D
102
}
330
D
100
AcDbGroup
300

 70
     1
 71
     1
  0
GROUP
  5
B54E
102
{ACAD_REACTORS
330
D
102
}
330
D
100
AcDbGroup
300

 70
     1
 71
     1
  0
GROUP
  5
13151
102
{ACAD_REACTORS
330
D
102
}
330
D
100
AcDbGroup
300

 70
     1
 71
     1
  0
GROUP
  5
8AC2
102
{ACAD_REACTORS
330
D
102
}
330
D
100
AcDbGroup
300

 70
     1
 71
     1
  0
GROUP
  5
10B45
102
{ACAD_REACTORS
330
D
102
}
330
D
100
AcDbGroup
300

 70
     1
 71
     1
  0
GROUP
  5
54AA
102
{ACAD_REACTORS
330
D
102
}
330
D
100
AcDbGroup
300

 70
     1
 71
     1
  0
GROUP
  5
2F53
102
{ACAD_REACTORS
330
D
102
}
330
D
100
AcDbGroup
300

 70
     1
 71
     1
  0
GROUP
  5
10BC4
102
{ACAD_REACTORS
330
D
102
}
330
D
100
AcDbGroup
300

 70
     1
 71
     1
  0
GROUP
  5
33E0
102
{ACAD_REACTORS
330
D
102
}
330
D
100
AcDbGroup
300

 70
     1
 71
     1
  0
GROUP
  5
102FB
102
{ACAD_REACTORS
330
D
102
}
330
D
100
AcDbGroup
300

 70
     1
 71
     1
  0
GROUP
  5
B2C7
102
{ACAD_REACTORS
330
D
102
}
330
D
100
AcDbGroup
300

 70
     1
 71
     1
  0
GROUP
  5
10BC5
102
{ACAD_REACTORS
330
D
102
}
330
D
100
AcDbGroup
300

 70
     1
 71
     1
  0
GROUP
  5
8109
102
{ACAD_REACTORS
330
D
102
}
330
D
100
AcDbGroup
300

 70
     1
 71
     1
  0
GROUP
  5
2F52
102
{ACAD_REACTORS
330
D
102
}
330
D
100
AcDbGroup
300

 70
     1
 71
     1
  0
GROUP
  5
102F0
102
{ACAD_REACTORS
330
D
102
}
330
D
100
AcDbGroup
300

 70
     1
 71
     1
  0
GROUP
  5
13152
102
{ACAD_REACTORS
330
D
102
}
330
D
100
AcDbGroup
300

 70
     1
 71
     1
  0
GROUP
  5
11BBA
102
{ACAD_REACTORS
330
D
102
}
330
D
100
AcDbGroup
300

 70
     1
 71
     1
  0
GROUP
  5
10BFC
102
{ACAD_REACTORS
330
D
102
}
330
D
100
AcDbGroup
300

 70
     1
 71
     1
  0
GROUP
  5
AD92
102
{ACAD_REACTORS
330
D
102
}
330
D
100
AcDbGroup
300

 70
     1
 71
     1
  0
GROUP
  5
8106
102
{ACAD_REACTORS
330
D
102
}
330
D
100
AcDbGroup
300

 70
     1
 71
     1
  0
GROUP
  5
102E2
102
{ACAD_REACTORS
330
D
102
}
330
D
100
AcDbGroup
300

 70
     1
 71
     1
  0
GROUP
  5
BE4A
102
{ACAD_REACTORS
330
D
102
}
330
D
100
AcDbGroup
300

 70
     1
 71
     1
  0
GROUP
  5
BE45
102
{ACAD_REACTORS
330
D
102
}
330
D
100
AcDbGroup
300

 70
     1
 71
     1
  0
GROUP
  5
26A7
102
{ACAD_REACTORS
330
D
102
}
330
D
100
AcDbGroup
300

 70
     1
 71
     1
  0
GROUP
  5
811A
102
{ACAD_REACTORS
330
D
102
}
330
D
100
AcDbGroup
300

 70
     1
 71
     1
  0
GROUP
  5
810B
102
{ACAD_REACTORS
330
D
102
}
330
D
100
AcDbGroup
300

 70
     1
 71
     1
  0
GROUP
  5
11A9A
102
{ACAD_REACTORS
330
D
102
}
330
D
100
AcDbGroup
300

 70
     1
 71
     1
  0
GROUP
  5
11A9B
102
{ACAD_REACTORS
330
D
102
}
330
D
100
AcDbGroup
300

 70
     1
 71
     1
  0
GROUP
  5
11A9C
102
{ACAD_REACTORS
330
D
102
}
330
D
100
AcDbGroup
300

 70
     1
 71
     1
  0
GROUP
  5
1313D
102
{ACAD_REACTORS
330
D
102
}
330
D
100
AcDbGroup
300

 70
     1
 71
     1
  0
GROUP
  5
B550
102
{ACAD_REACTORS
330
D
102
}
330
D
100
AcDbGroup
300

 70
     1
 71
     1
  0
GROUP
  5
8136
102
{ACAD_REACTORS
330
D
102
}
330
D
100
AcDbGroup
300

 70
     1
 71
     1
  0
GROUP
  5
11A9D
102
{ACAD_REACTORS
330
D
102
}
330
D
100
AcDbGroup
300

 70
     1
 71
     1
  0
GROUP
  5
1290D
102
{ACAD_REACTORS
330
D
102
}
330
D
100
AcDbGroup
300

 70
     1
 71
     1
  0
GROUP
  5
136CD
102
{ACAD_REACTORS
330
D
102
}
330
D
100
AcDbGroup
300

 70
     1
 71
     1
  0
GROUP
  5
11E4C
102
{ACAD_REACTORS
330
D
102
}
330
D
100
AcDbGroup
300

 70
     1
 71
     1
  0
GROUP
  5
11A9E
102
{ACAD_REACTORS
330
D
102
}
330
D
100
AcDbGroup
300

 70
     1
 71
     1
  0
GROUP
  5
4EE6
102
{ACAD_REACTORS
330
D
102
}
330
D
100
AcDbGroup
300

 70
     1
 71
     1
  0
GROUP
  5
11A9F
102
{ACAD_REACTORS
330
D
102
}
330
D
100
AcDbGroup
300

 70
     1
 71
     1
  0
GROUP
  5
4EEC
102
{ACAD_REACTORS
330
D
102
}
330
D
100
AcDbGroup
300

 70
     1
 71
     1
  0
GROUP
  5
10C2B
102
{ACAD_REACTORS
330
D
102
}
330
D
100
AcDbGroup
300

 70
     1
 71
     1
  0
GROUP
  5
11AA0
102
{ACAD_REACTORS
330
D
102
}
330
D
100
AcDbGroup
300

 70
     1
 71
     1
  0
GROUP
  5
A99A
102
{ACAD_REACTORS
330
D
102
}
330
D
100
AcDbGroup
300

 70
     1
 71
     1
  0
GROUP
  5
104C7
102
{ACAD_REACTORS
330
D
102
}
330
D
100
AcDbGroup
300

 70
     1
 71
     1
  0
GROUP
  5
13153
102
{ACAD_REACTORS
330
D
102
}
330
D
100
AcDbGroup
300

 70
     1
 71
     1
  0
GROUP
  5
3AA9
102
{ACAD_REACTORS
330
D
102
}
330
D
100
AcDbGroup
300

 70
     1
 71
     1
  0
GROUP
  5
102F7
102
{ACAD_REACTORS
330
D
102
}
330
D
100
AcDbGroup
300

 70
     1
 71
     1
  0
GROUP
  5
10C2A
102
{ACAD_REACTORS
330
D
102
}
330
D
100
AcDbGroup
300

 70
     1
 71
     1
  0
GROUP
  5
1BC5
102
{ACAD_REACTORS
330
D
102
}
330
D
100
AcDbGroup
300

 70
     1
 71
     1
  0
GROUP
  5
1BC2
102
{ACAD_REACTORS
330
D
102
}
330
D
100
AcDbGroup
300

 70
     1
 71
     1
  0
GROUP
  5
B2C5
102
{ACAD_REACTORS
330
D
102
}
330
D
100
AcDbGroup
300

 70
     1
 71
     1
  0
GROUP
  5
11AA1
102
{ACAD_REACTORS
330
D
102
}
330
D
100
AcDbGroup
300

 70
     1
 71
     1
  0
GROUP
  5
8115
102
{ACAD_REACTORS
330
D
102
}
330
D
100
AcDbGroup
300

 70
     1
 71
     1
  0
GROUP
  5
13144
102
{ACAD_REACTORS
330
D
102
}
330
D
100
AcDbGroup
300

 70
     1
 71
     1
  0
GROUP
  5
5195
102
{ACAD_REACTORS
330
D
102
}
330
D
100
AcDbGroup
300

 70
     1
 71
     1
  0
GROUP
  5
5358
102
{ACAD_REACTORS
330
D
102
}
330
D
100
AcDbGroup
300

 70
     1
 71
     1
  0
GROUP
  5
52F5
102
{ACAD_REACTORS
330
D
102
}
330
D
100
AcDbGroup
300

 70
     1
 71
     1
  0
GROUP
  5
3534
102
{ACAD_REACTORS
330
D
102
}
330
D
100
AcDbGroup
300

 70
     1
 71
     1
  0
GROUP
  5
136CE
102
{ACAD_REACTORS
330
D
102
}
330
D
100
AcDbGroup
300

 70
     1
 71
     1
  0
GROUP
  5
10302
102
{ACAD_REACTORS
330
D
102
}
330
D
100
AcDbGroup
300

 70
     1
 71
     1
  0
GROUP
  5
26AF
102
{ACAD_REACTORS
330
D
102
}
330
D
100
AcDbGroup
300

 70
     1
 71
     1
  0
GROUP
  5
B2B5
102
{ACAD_REACTORS
330
D
102
}
330
D
100
AcDbGroup
300

 70
     1
 71
     1
  0
GROUP
  5
10309
102
{ACAD_REACTORS
330
D
102
}
330
D
100
AcDbGroup
300

 70
     1
 71
     1
  0
GROUP
  5
11AA2
102
{ACAD_REACTORS
330
D
102
}
330
D
100
AcDbGroup
300

 70
     1
 71
     1
  0
GROUP
  5
106AA
102
{ACAD_REACTORS
330
D
102
}
330
D
100
AcDbGroup
300

 70
     1
 71
     1
  0
GROUP
  5
A99D
102
{ACAD_REACTORS
330
D
102
}
330
D
100
AcDbGroup
300

 70
     1
 71
     1
  0
GROUP
  5
11AA3
102
{ACAD_REACTORS
330
D
102
}
330
D
100
AcDbGroup
300

 70
     1
 71
     1
  0
GROUP
  5
102F9
102
{ACAD_REACTORS
330
D
102
}
330
D
100
AcDbGroup
300

 70
     1
 71
     1
  0
GROUP
  5
1531C
102
{ACAD_REACTORS
330
D
102
}
330
D
100
AcDbGroup
300

 70
     1
 71
     1
  0
GROUP
  5
1531F
102
{ACAD_REACTORS
330
D
102
}
330
D
100
AcDbGroup
300

 70
     1
 71
     1
  0
GROUP
  5
136CF
102
{ACAD_REACTORS
330
D
102
}
330
D
100
AcDbGroup
300

 70
     1
 71
     1
  0
GROUP
  5
A75B
102
{ACAD_REACTORS
330
D
102
}
330
D
100
AcDbGroup
300

 70
     1
 71
     1
  0
GROUP
  5
153B0
102
{ACAD_REACTORS
330
D
102
}
330
D
100
AcDbGroup
300

 70
     1
 71
     1
  0
GROUP
  5
C02A
102
{ACAD_REACTORS
330
D
102
}
330
D
100
AcDbGroup
300

 70
     1
 71
     1
  0
GROUP
  5
52F7
102
{ACAD_REACTORS
330
D
102
}
330
D
100
AcDbGroup
300

 70
     1
 71
     1
  0
GROUP
  5
8100
102
{ACAD_REACTORS
330
D
102
}
330
D
100
AcDbGroup
300

 70
     1
 71
     1
  0
GROUP
  5
153B3
102
{ACAD_REACTORS
330
D
102
}
330
D
100
AcDbGroup
300

 70
     1
 71
     1
  0
GROUP
  5
8132
102
{ACAD_REACTORS
330
D
102
}
330
D
100
AcDbGroup
300

 70
     1
 71
     1
  0
GROUP
  5
A6E7
102
{ACAD_REACTORS
330
D
102
}
330
D
100
AcDbGroup
300

 70
     1
 71
     1
  0
GROUP
  5
102FD
102
{ACAD_REACTORS
330
D
102
}
330
D
100
AcDbGroup
300

 70
     1
 71
     1
  0
GROUP
  5
153B4
102
{ACAD_REACTORS
330
D
102
}
330
D
100
AcDbGroup
300

 70
     1
 71
     1
  0
GROUP
  5
153B9
102
{ACAD_REACTORS
330
D
102
}
330
D
100
AcDbGroup
300

 70
     1
 71
     1
  0
GROUP
  5
132EF
102
{ACAD_REACTORS
330
D
102
}
330
D
100
AcDbGroup
300

 70
     1
 71
     1
  0
GROUP
  5
8101
102
{ACAD_REACTORS
330
D
102
}
330
D
100
AcDbGroup
300

 70
     1
 71
     1
  0
GROUP
  5
153BC
102
{ACAD_REACTORS
330
D
102
}
330
D
100
AcDbGroup
300

 70
     1
 71
     1
  0
GROUP
  5
13154
102
{ACAD_REACTORS
330
D
102
}
330
D
100
AcDbGroup
300

 70
     1
 71
     1
  0
GROUP
  5
8133
102
{ACAD_REACTORS
330
D
102
}
330
D
100
AcDbGroup
300

 70
     1
 71
     1
  0
GROUP
  5
282E
102
{ACAD_REACTORS
330
D
102
}
330
D
100
AcDbGroup
300

 70
     1
 71
     1
  0
GROUP
  5
154C9
102
{ACAD_REACTORS
330
D
102
}
330
D
100
AcDbGroup
300

 70
     1
 71
     1
  0
GROUP
  5
154CA
102
{ACAD_REACTORS
330
D
102
}
330
D
100
AcDbGroup
300

 70
     1
 71
     1
  0
GROUP
  5
154D8
102
{ACAD_REACTORS
330
D
102
}
330
D
100
AcDbGroup
300

 70
     1
 71
     1
  0
GROUP
  5
B54D
102
{ACAD_REACTORS
330
D
102
}
330
D
100
AcDbGroup
300

 70
     1
 71
     1
  0
GROUP
  5
11AA9
102
{ACAD_REACTORS
330
D
102
}
330
D
100
AcDbGroup
300

 70
     1
 71
     1
  0
GROUP
  5
154E5
102
{ACAD_REACTORS
330
D
102
}
330
D
100
AcDbGroup
300

 70
     1
 71
     1
  0
GROUP
  5
154F8
102
{ACAD_REACTORS
330
D
102
}
330
D
100
AcDbGroup
300

 70
     1
 71
     1
  0
GROUP
  5
136D0
102
{ACAD_REACTORS
330
D
102
}
330
D
100
AcDbGroup
300

 70
     1
 71
     1
  0
GROUP
  5
4EE0
102
{ACAD_REACTORS
330
D
102
}
330
D
100
AcDbGroup
300

 70
     1
 71
     1
  0
GROUP
  5
106A7
102
{ACAD_REACTORS
330
D
102
}
330
D
100
AcDbGroup
300

 70
     1
 71
     1
  0
GROUP
  5
15519
102
{ACAD_REACTORS
330
D
102
}
330
D
100
AcDbGroup
300

 70
     1
 71
     1
  0
GROUP
  5
AC05
102
{ACAD_REACTORS
330
D
102
}
330
D
100
AcDbGroup
300

 70
     1
 71
     1
  0
GROUP
  5
10329
102
{ACAD_REACTORS
330
D
102
}
330
D
100
AcDbGroup
300

 70
     1
 71
     1
  0
GROUP
  5
1554D
102
{ACAD_REACTORS
330
D
102
}
330
D
100
AcDbGroup
300

 70
     1
 71
     1
  0
GROUP
  5
15566
102
{ACAD_REACTORS
330
D
102
}
330
D
100
AcDbGroup
300

 70
     1
 71
     1
  0
GROUP
  5
15589
102
{ACAD_REACTORS
330
D
102
}
330
D
100
AcDbGroup
300

 70
     1
 71
     1
  0
GROUP
  5
10C8F
102
{ACAD_REACTORS
330
D
102
}
330
D
100
AcDbGroup
300

 70
     1
 71
     1
  0
GROUP
  5
155B2
102
{ACAD_REACTORS
330
D
102
}
330
D
100
AcDbGroup
300

 70
     1
 71
     1
  0
GROUP
  5
1290E
102
{ACAD_REACTORS
330
D
102
}
330
D
100
AcDbGroup
300

 70
     1
 71
     1
  0
GROUP
  5
10300
102
{ACAD_REACTORS
330
D
102
}
330
D
100
AcDbGroup
300

 70
     1
 71
     1
  0
GROUP
  5
102E3
102
{ACAD_REACTORS
330
D
102
}
330
D
100
AcDbGroup
300

 70
     1
 71
     1
  0
GROUP
  5
106B2
102
{ACAD_REACTORS
330
D
102
}
330
D
100
AcDbGroup
300

 70
     1
 71
     1
  0
GROUP
  5
155CF
102
{ACAD_REACTORS
330
D
102
}
330
D
100
AcDbGroup
300

 70
     1
 71
     1
  0
GROUP
  5
11AA7
102
{ACAD_REACTORS
330
D
102
}
330
D
100
AcDbGroup
300

 70
     1
 71
     1
  0
GROUP
  5
107C3
102
{ACAD_REACTORS
330
D
102
}
330
D
100
AcDbGroup
300

 70
     1
 71
     1
  0
GROUP
  5
4EDE
102
{ACAD_REACTORS
330
D
102
}
330
D
100
AcDbGroup
300

 70
     1
 71
     1
  0
GROUP
  5
52FA
102
{ACAD_REACTORS
330
D
102
}
330
D
100
AcDbGroup
300

 70
     1
 71
     1
  0
GROUP
  5
11E4D
102
{ACAD_REACTORS
330
D
102
}
330
D
100
AcDbGroup
300

 70
     1
 71
     1
  0
GROUP
  5
11E4E
102
{ACAD_REACTORS
330
D
102
}
330
D
100
AcDbGroup
300

 70
     1
 71
     1
  0
GROUP
  5
11E50
102
{ACAD_REACTORS
330
D
102
}
330
D
100
AcDbGroup
300

 70
     1
 71
     1
  0
GROUP
  5
54A8
102
{ACAD_REACTORS
330
D
102
}
330
D
100
AcDbGroup
300

 70
     1
 71
     1
  0
GROUP
  5
102E4
102
{ACAD_REACTORS
330
D
102
}
330
D
100
AcDbGroup
300

 70
     1
 71
     1
  0
GROUP
  5
8110
102
{ACAD_REACTORS
330
D
102
}
330
D
100
AcDbGroup
300

 70
     1
 71
     1
  0
GROUP
  5
BE41
102
{ACAD_REACTORS
330
D
102
}
330
D
100
AcDbGroup
300

 70
     1
 71
     1
  0
GROUP
  5
8108
102
{ACAD_REACTORS
330
D
102
}
330
D
100
AcDbGroup
300

 70
     1
 71
     1
  0
GROUP
  5
1290F
102
{ACAD_REACTORS
330
D
102
}
330
D
100
AcDbGroup
300

 70
     1
 71
     1
  0
GROUP
  5
B2BE
102
{ACAD_REACTORS
330
D
102
}
330
D
100
AcDbGroup
300

 70
     1
 71
     1
  0
GROUP
  5
564D
102
{ACAD_REACTORS
330
D
102
}
330
D
100
AcDbGroup
300

 70
     1
 71
     1
  0
GROUP
  5
8517
102
{ACAD_REACTORS
330
D
102
}
330
D
100
AcDbGroup
300

 70
     1
 71
     1
  0
GROUP
  5
106AC
102
{ACAD_REACTORS
330
D
102
}
330
D
100
AcDbGroup
300

 70
     1
 71
     1
  0
GROUP
  5
11EFB
102
{ACAD_REACTORS
330
D
102
}
330
D
100
AcDbGroup
300

 70
     1
 71
     1
  0
GROUP
  5
11EFC
102
{ACAD_REACTORS
330
D
102
}
330
D
100
AcDbGroup
300

 70
     1
 71
     1
  0
GROUP
  5
5649
102
{ACAD_REACTORS
330
D
102
}
330
D
100
AcDbGroup
300

 70
     1
 71
     1
  0
GROUP
  5
127BE
102
{ACAD_REACTORS
330
D
102
}
330
D
100
AcDbGroup
300

 70
     1
 71
     1
  0
GROUP
  5
51AD
102
{ACAD_REACTORS
330
D
102
}
330
D
100
AcDbGroup
300

 70
     1
 71
     1
  0
GROUP
  5
136D3
102
{ACAD_REACTORS
330
D
102
}
330
D
100
AcDbGroup
300

 70
     1
 71
     1
  0
GROUP
  5
A59D
102
{ACAD_REACTORS
330
D
102
}
330
D
100
AcDbGroup
300

 70
     1
 71
     1
  0
GROUP
  5
11AA8
102
{ACAD_REACTORS
330
D
102
}
330
D
100
AcDbGroup
300

 70
     1
 71
     1
  0
GROUP
  5
AED2
102
{ACAD_REACTORS
330
D
102
}
330
D
100
AcDbGroup
300

 70
     1
 71
     1
  0
GROUP
  5
52F3
102
{ACAD_REACTORS
330
D
102
}
330
D
100
AcDbGroup
300

 70
     1
 71
     1
  0
GROUP
  5
1E5C
102
{ACAD_REACTORS
330
D
102
}
330
D
100
AcDbGroup
300

 70
     1
 71
     1
  0
GROUP
  5
1229F
102
{ACAD_REACTORS
330
D
102
}
330
D
100
AcDbGroup
300

 70
     1
 71
     1
  0
GROUP
  5
11F8D
102
{ACAD_REACTORS
330
D
102
}
330
D
100
AcDbGroup
300

 70
     1
 71
     1
  0
GROUP
  5
4EEF
102
{ACAD_REACTORS
330
D
102
}
330
D
100
AcDbGroup
300

 70
     1
 71
     1
  0
GROUP
  5
102E5
102
{ACAD_REACTORS
330
D
102
}
330
D
100
AcDbGroup
300

 70
     1
 71
     1
  0
GROUP
  5
C02F
102
{ACAD_REACTORS
330
D
102
}
330
D
100
AcDbGroup
300

 70
     1
 71
     1
  0
GROUP
  5
102FE
102
{ACAD_REACTORS
330
D
102
}
330
D
100
AcDbGroup
300

 70
     1
 71
     1
  0
GROUP
  5
10304
102
{ACAD_REACTORS
330
D
102
}
330
D
100
AcDbGroup
300

 70
     1
 71
     1
  0
GROUP
  5
12298
102
{ACAD_REACTORS
330
D
102
}
330
D
100
AcDbGroup
300

 70
     1
 71
     1
  0
GROUP
  5
B60D
102
{ACAD_REACTORS
330
D
102
}
330
D
100
AcDbGroup
300

 70
     1
 71
     1
  0
GROUP
  5
C031
102
{ACAD_REACTORS
330
D
102
}
330
D
100
AcDbGroup
300

 70
     1
 71
     1
  0
GROUP
  5
B2C8
102
{ACAD_REACTORS
330
D
102
}
330
D
100
AcDbGroup
300

 70
     1
 71
     1
  0
GROUP
  5
11B47
102
{ACAD_REACTORS
330
D
102
}
330
D
100
AcDbGroup
300

 70
     1
 71
     1
  0
GROUP
  5
12299
102
{ACAD_REACTORS
330
D
102
}
330
D
100
AcDbGroup
300

 70
     1
 71
     1
  0
GROUP
  5
13155
102
{ACAD_REACTORS
330
D
102
}
330
D
100
AcDbGroup
300

 70
     1
 71
     1
  0
GROUP
  5
106AF
102
{ACAD_REACTORS
330
D
102
}
330
D
100
AcDbGroup
300

 70
     1
 71
     1
  0
GROUP
  5
51DD
102
{ACAD_REACTORS
330
D
102
}
330
D
100
AcDbGroup
300

 70
     1
 71
     1
  0
GROUP
  5
106A9
102
{ACAD_REACTORS
330
D
102
}
330
D
100
AcDbGroup
300

 70
     1
 71
     1
  0
GROUP
  5
155EA
102
{ACAD_REACTORS
330
D
102
}
330
D
100
AcDbGroup
300

 70
     1
 71
     1
  0
GROUP
  5
54A7
102
{ACAD_REACTORS
330
D
102
}
330
D
100
AcDbGroup
300

 70
     1
 71
     1
  0
GROUP
  5
155EF
102
{ACAD_REACTORS
330
D
102
}
330
D
100
AcDbGroup
300

 70
     1
 71
     1
  0
GROUP
  5
10306
102
{ACAD_REACTORS
330
D
102
}
330
D
100
AcDbGroup
300

 70
     1
 71
     1
  0
GROUP
  5
155F4
102
{ACAD_REACTORS
330
D
102
}
330
D
100
AcDbGroup
300

 70
     1
 71
     1
  0
GROUP
  5
155F9
102
{ACAD_REACTORS
330
D
102
}
330
D
100
AcDbGroup
300

 70
     1
 71
     1
  0
GROUP
  5
1229E
102
{ACAD_REACTORS
330
D
102
}
330
D
100
AcDbGroup
300

 70
     1
 71
     1
  0
GROUP
  5
AECF
102
{ACAD_REACTORS
330
D
102
}
330
D
100
AcDbGroup
300

 70
     1
 71
     1
  0
GROUP
  5
3AAF
102
{ACAD_REACTORS
330
D
102
}
330
D
100
AcDbGroup
300

 70
     1
 71
     1
  0
GROUP
  5
BE42
102
{ACAD_REACTORS
330
D
102
}
330
D
100
AcDbGroup
300

 70
     1
 71
     1
  0
GROUP
  5
1313E
102
{ACAD_REACTORS
330
D
102
}
330
D
100
AcDbGroup
300

 70
     1
 71
     1
  0
GROUP
  5
13156
102
{ACAD_REACTORS
330
D
102
}
330
D
100
AcDbGroup
300

 70
     1
 71
     1
  0
GROUP
  5
3623
102
{ACAD_REACTORS
330
D
102
}
330
D
100
AcDbGroup
300

 70
     1
 71
     1
  0
GROUP
  5
B2C0
102
{ACAD_REACTORS
330
D
102
}
330
D
100
AcDbGroup
300

 70
     1
 71
     1
  0
GROUP
  5
102F1
102
{ACAD_REACTORS
330
D
102
}
330
D
100
AcDbGroup
300

 70
     1
 71
     1
  0
GROUP
  5
2766
102
{ACAD_REACTORS
330
D
102
}
330
D
100
AcDbGroup
300

 70
     1
 71
     1
  0
GROUP
  5
1CD1
102
{ACAD_REACTORS
330
D
102
}
330
D
100
AcDbGroup
300

 70
     1
 71
     1
  0
GROUP
  5
3AAD
102
{ACAD_REACTORS
330
D
102
}
330
D
100
AcDbGroup
300

 70
     1
 71
     1
  0
GROUP
  5
2F51
102
{ACAD_REACTORS
330
D
102
}
330
D
100
AcDbGroup
300

 70
     1
 71
     1
  0
GROUP
  5
102E6
102
{ACAD_REACTORS
330
D
102
}
330
D
100
AcDbGroup
300

 70
     1
 71
     1
  0
GROUP
  5
8102
102
{ACAD_REACTORS
330
D
102
}
330
D
100
AcDbGroup
300

 70
     1
 71
     1
  0
GROUP
  5
C1D6
102
{ACAD_REACTORS
330
D
102
}
330
D
100
AcDbGroup
300

 70
     1
 71
     1
  0
GROUP
  5
AED0
102
{ACAD_REACTORS
330
D
102
}
330
D
100
AcDbGroup
300

 70
     1
 71
     1
  0
GROUP
  5
2F4F
102
{ACAD_REACTORS
330
D
102
}
330
D
100
AcDbGroup
300

 70
     1
 71
     1
  0
GROUP
  5
102F6
102
{ACAD_REACTORS
330
D
102
}
330
D
100
AcDbGroup
300

 70
     1
 71
     1
  0
GROUP
  5
ADFD
102
{ACAD_REACTORS
330
D
102
}
330
D
100
AcDbGroup
300

 70
     1
 71
     1
  0
GROUP
  5
10C90
102
{ACAD_REACTORS
330
D
102
}
330
D
100
AcDbGroup
300

 70
     1
 71
     1
  0
GROUP
  5
844E
102
{ACAD_REACTORS
330
D
102
}
330
D
100
AcDbGroup
300

 70
     1
 71
     1
  0
GROUP
  5
12A4D
102
{ACAD_REACTORS
330
D
102
}
330
D
100
AcDbGroup
300

 70
     1
 71
     1
  0
GROUP
  5
A99C
102
{ACAD_REACTORS
330
D
102
}
330
D
100
AcDbGroup
300

 70
     1
 71
     1
  0
GROUP
  5
1076F
102
{ACAD_REACTORS
330
D
102
}
330
D
100
AcDbGroup
300

 70
     1
 71
     1
  0
GROUP
  5
8126
102
{ACAD_REACTORS
330
D
102
}
330
D
100
AcDbGroup
300

 70
     1
 71
     1
  0
GROUP
  5
10C44
102
{ACAD_REACTORS
330
D
102
}
330
D
100
AcDbGroup
300

 70
     1
 71
     1
  0
GROUP
  5
4EDF
102
{ACAD_REACTORS
330
D
102
}
330
D
100
AcDbGroup
300

 70
     1
 71
     1
  0
GROUP
  5
811D
102
{ACAD_REACTORS
330
D
102
}
330
D
100
AcDbGroup
300

 70
     1
 71
     1
  0
GROUP
  5
576B
102
{ACAD_REACTORS
330
D
102
}
330
D
100
AcDbGroup
300

 70
     1
 71
     1
  0
GROUP
  5
106AD
102
{ACAD_REACTORS
330
D
102
}
330
D
100
AcDbGroup
300

 70
     1
 71
     1
  0
GROUP
  5
136D4
102
{ACAD_REACTORS
330
D
102
}
330
D
100
AcDbGroup
300

 70
     1
 71
     1
  0
GROUP
  5
10D7D
102
{ACAD_REACTORS
330
D
102
}
330
D
100
AcDbGroup
300

 70
     1
 71
     1
  0
GROUP
  5
2F56
102
{ACAD_REACTORS
330
D
102
}
330
D
100
AcDbGroup
300

 70
     1
 71
     1
  0
GROUP
  5
5357
102
{ACAD_REACTORS
330
D
102
}
330
D
100
AcDbGroup
300

 70
     1
 71
     1
  0
GROUP
  5
11A90
102
{ACAD_REACTORS
330
D
102
}
330
D
100
AcDbGroup
300

 70
     1
 71
     1
  0
GROUP
  5
52F1
102
{ACAD_REACTORS
330
D
102
}
330
D
100
AcDbGroup
300

 70
     1
 71
     1
  0
GROUP
  5
1077F
102
{ACAD_REACTORS
330
D
102
}
330
D
100
AcDbGroup
300

 70
     1
 71
     1
  0
GROUP
  5
2837
102
{ACAD_REACTORS
330
D
102
}
330
D
100
AcDbGroup
300

 70
     1
 71
     1
  0
GROUP
  5
3535
102
{ACAD_REACTORS
330
D
102
}
330
D
100
AcDbGroup
300

 70
     1
 71
     1
  0
GROUP
  5
ADE2
102
{ACAD_REACTORS
330
D
102
}
330
D
100
AcDbGroup
300

 70
     1
 71
     1
  0
GROUP
  5
C02D
102
{ACAD_REACTORS
330
D
102
}
330
D
100
AcDbGroup
300

 70
     1
 71
     1
  0
GROUP
  5
AB84
102
{ACAD_REACTORS
330
D
102
}
330
D
100
AcDbGroup
300

 70
     1
 71
     1
  0
GROUP
  5
132F0
102
{ACAD_REACTORS
330
D
102
}
330
D
100
AcDbGroup
300

 70
     1
 71
     1
  0
GROUP
  5
B607
102
{ACAD_REACTORS
330
D
102
}
330
D
100
AcDbGroup
300

 70
     1
 71
     1
  0
GROUP
  5
4F2F
102
{ACAD_REACTORS
330
D
102
}
330
D
100
AcDbGroup
300

 70
     1
 71
     1
  0
GROUP
  5
C1D7
102
{ACAD_REACTORS
330
D
102
}
330
D
100
AcDbGroup
300

 70
     1
 71
     1
  0
GROUP
  5
1032A
102
{ACAD_REACTORS
330
D
102
}
330
D
100
AcDbGroup
300

 70
     1
 71
     1
  0
GROUP
  5
10D31
102
{ACAD_REACTORS
330
D
102
}
330
D
100
AcDbGroup
300

 70
     1
 71
     1
  0
GROUP
  5
A99B
102
{ACAD_REACTORS
330
D
102
}
330
D
100
AcDbGroup
300

 70
     1
 71
     1
  0
GROUP
  5
2F4D
102
{ACAD_REACTORS
330
D
102
}
330
D
100
AcDbGroup
300

 70
     1
 71
     1
  0
GROUP
  5
AED1
102
{ACAD_REACTORS
330
D
102
}
330
D
100
AcDbGroup
300

 70
     1
 71
     1
  0
GROUP
  5
12A4E
102
{ACAD_REACTORS
330
D
102
}
330
D
100
AcDbGroup
300

 70
     1
 71
     1
  0
GROUP
  5
8AC1
102
{ACAD_REACTORS
330
D
102
}
330
D
100
AcDbGroup
300

 70
     1
 71
     1
  0
GROUP
  5
C02E
102
{ACAD_REACTORS
330
D
102
}
330
D
100
AcDbGroup
300

 70
     1
 71
     1
  0
GROUP
  5
8131
102
{ACAD_REACTORS
330
D
102
}
330
D
100
AcDbGroup
300

 70
     1
 71
     1
  0
GROUP
  5
106A6
102
{ACAD_REACTORS
330
D
102
}
330
D
100
AcDbGroup
300

 70
     1
 71
     1
  0
GROUP
  5
C02C
102
{ACAD_REACTORS
330
D
102
}
330
D
100
AcDbGroup
300

 70
     1
 71
     1
  0
GROUP
  5
11B48
102
{ACAD_REACTORS
330
D
102
}
330
D
100
AcDbGroup
300

 70
     1
 71
     1
  0
GROUP
  5
A7E6
102
{ACAD_REACTORS
330
D
102
}
330
D
100
AcDbGroup
300

 70
     1
 71
     1
  0
GROUP
  5
13157
102
{ACAD_REACTORS
330
D
102
}
330
D
100
AcDbGroup
300

 70
     1
 71
     1
  0
GROUP
  5
1DBC
102
{ACAD_REACTORS
330
D
102
}
330
D
100
AcDbGroup
300

 70
     1
 71
     1
  0
GROUP
  5
10303
102
{ACAD_REACTORS
330
D
102
}
330
D
100
AcDbGroup
300

 70
     1
 71
     1
  0
GROUP
  5
11AAB
102
{ACAD_REACTORS
330
D
102
}
330
D
100
AcDbGroup
300

 70
     1
 71
     1
  0
GROUP
  5
A697
102
{ACAD_REACTORS
330
D
102
}
330
D
100
AcDbGroup
300

 70
     1
 71
     1
  0
GROUP
  5
B2BB
102
{ACAD_REACTORS
330
D
102
}
330
D
100
AcDbGroup
300

 70
     1
 71
     1
  0
GROUP
  5
B36E
102
{ACAD_REACTORS
330
D
102
}
330
D
100
AcDbGroup
300

 70
     1
 71
     1
  0
GROUP
  5
B60E
102
{ACAD_REACTORS
330
D
102
}
330
D
100
AcDbGroup
300

 70
     1
 71
     1
  0
GROUP
  5
4EE8
102
{ACAD_REACTORS
330
D
102
}
330
D
100
AcDbGroup
300

 70
     1
 71
     1
  0
GROUP
  5
11C42
102
{ACAD_REACTORS
330
D
102
}
330
D
100
AcDbGroup
300

 70
     1
 71
     1
  0
GROUP
  5
BE4B
102
{ACAD_REACTORS
330
D
102
}
330
D
100
AcDbGroup
300

 70
     1
 71
     1
  0
GROUP
  5
102EE
102
{ACAD_REACTORS
330
D
102
}
330
D
100
AcDbGroup
300

 70
     1
 71
     1
  0
GROUP
  5
AC06
102
{ACAD_REACTORS
330
D
102
}
330
D
100
AcDbGroup
300

 70
     1
 71
     1
  0
GROUP
  5
324D
102
{ACAD_REACTORS
330
D
102
}
330
D
100
AcDbGroup
300

 70
     1
 71
     1
  0
GROUP
  5
BE4C
102
{ACAD_REACTORS
330
D
102
}
330
D
100
AcDbGroup
300

 70
     1
 71
     1
  0
GROUP
  5
3AAC
102
{ACAD_REACTORS
330
D
102
}
330
D
100
AcDbGroup
300

 70
     1
 71
     1
  0
GROUP
  5
C02B
102
{ACAD_REACTORS
330
D
102
}
330
D
100
AcDbGroup
300

 70
     1
 71
     1
  0
GROUP
  5
3AA8
102
{ACAD_REACTORS
330
D
102
}
330
D
100
AcDbGroup
300

 70
     1
 71
     1
  0
GROUP
  5
1E4A
102
{ACAD_REACTORS
330
D
102
}
330
D
100
AcDbGroup
300

 70
     1
 71
     1
  0
GROUP
  5
8AB9
102
{ACAD_REACTORS
330
D
102
}
330
D
100
AcDbGroup
300

 70
     1
 71
     1
  0
GROUP
  5
102E9
102
{ACAD_REACTORS
330
D
102
}
330
D
100
AcDbGroup
300

 70
     1
 71
     1
  0
GROUP
  5
5356
102
{ACAD_REACTORS
330
D
102
}
330
D
100
AcDbGroup
300

 70
     1
 71
     1
  0
GROUP
  5
813E
102
{ACAD_REACTORS
330
D
102
}
330
D
100
AcDbGroup
300

 70
     1
 71
     1
  0
GROUP
  5
11C38
102
{ACAD_REACTORS
330
D
102
}
330
D
100
AcDbGroup
300

 70
     1
 71
     1
  0
GROUP
  5
4EF0
102
{ACAD_REACTORS
330
D
102
}
330
D
100
AcDbGroup
300

 70
     1
 71
     1
  0
GROUP
  5
8103
102
{ACAD_REACTORS
330
D
102
}
330
D
100
AcDbGroup
300

 70
     1
 71
     1
  0
GROUP
  5
2F5C
102
{ACAD_REACTORS
330
D
102
}
330
D
100
AcDbGroup
300

 70
     1
 71
     1
  0
GROUP
  5
13158
102
{ACAD_REACTORS
330
D
102
}
330
D
100
AcDbGroup
300

 70
     1
 71
     1
  0
GROUP
  5
102FA
102
{ACAD_REACTORS
330
D
102
}
330
D
100
AcDbGroup
300

 70
     1
 71
     1
  0
GROUP
  5
52F4
102
{ACAD_REACTORS
330
D
102
}
330
D
100
AcDbGroup
300

 70
     1
 71
     1
  0
GROUP
  5
564C
102
{ACAD_REACTORS
330
D
102
}
330
D
100
AcDbGroup
300

 70
     1
 71
     1
  0
GROUP
  5
51DB
102
{ACAD_REACTORS
330
D
102
}
330
D
100
AcDbGroup
300

 70
     1
 71
     1
  0
GROUP
  5
B606
102
{ACAD_REACTORS
330
D
102
}
330
D
100
AcDbGroup
300

 70
     1
 71
     1
  0
GROUP
  5
86D3
102
{ACAD_REACTORS
330
D
102
}
330
D
100
AcDbGroup
300

 70
     1
 71
     1
  0
GROUP
  5
54A3
102
{ACAD_REACTORS
330
D
102
}
330
D
100
AcDbGroup
300

 70
     1
 71
     1
  0
GROUP
  5
B60B
102
{ACAD_REACTORS
330
D
102
}
330
D
100
AcDbGroup
300

 70
     1
 71
     1
  0
GROUP
  5
10764
102
{ACAD_REACTORS
330
D
102
}
330
D
100
AcDbGroup
300

 70
     1
 71
     1
  0
GROUP
  5
122A1
102
{ACAD_REACTORS
330
D
102
}
330
D
100
AcDbGroup
300

 70
     1
 71
     1
  0
GROUP
  5
2F5B
102
{ACAD_REACTORS
330
D
102
}
330
D
100
AcDbGroup
300

 70
     1
 71
     1
  0
GROUP
  5
C09F
102
{ACAD_REACTORS
330
D
102
}
330
D
100
AcDbGroup
300

 70
     1
 71
     1
  0
GROUP
  5
124EA
102
{ACAD_REACTORS
330
D
102
}
330
D
100
AcDbGroup
300

 70
     1
 71
     1
  0
GROUP
  5
10D32
102
{ACAD_REACTORS
330
D
102
}
330
D
100
AcDbGroup
300

 70
     1
 71
     1
  0
GROUP
  5
810A
102
{ACAD_REACTORS
330
D
102
}
330
D
100
AcDbGroup
300

 70
     1
 71
     1
  0
GROUP
  5
811B
102
{ACAD_REACTORS
330
D
102
}
330
D
100
AcDbGroup
300

 70
     1
 71
     1
  0
GROUP
  5
10328
102
{ACAD_REACTORS
330
D
102
}
330
D
100
AcDbGroup
300

 70
     1
 71
     1
  0
GROUP
  5
10307
102
{ACAD_REACTORS
330
D
102
}
330
D
100
AcDbGroup
300

 70
     1
 71
     1
  0
GROUP
  5
4EDA
102
{ACAD_REACTORS
330
D
102
}
330
D
100
AcDbGroup
300

 70
     1
 71
     1
  0
GROUP
  5
810D
102
{ACAD_REACTORS
330
D
102
}
330
D
100
AcDbGroup
300

 70
     1
 71
     1
  0
GROUP
  5
812E
102
{ACAD_REACTORS
330
D
102
}
330
D
100
AcDbGroup
300

 70
     1
 71
     1
  0
GROUP
  5
8AB5
102
{ACAD_REACTORS
330
D
102
}
330
D
100
AcDbGroup
300

 70
     1
 71
     1
  0
GROUP
  5
102E7
102
{ACAD_REACTORS
330
D
102
}
330
D
100
AcDbGroup
300

 70
     1
 71
     1
  0
GROUP
  5
12A4F
102
{ACAD_REACTORS
330
D
102
}
330
D
100
AcDbGroup
300

 70
     1
 71
     1
  0
GROUP
  5
12A50
102
{ACAD_REACTORS
330
D
102
}
330
D
100
AcDbGroup
300

 70
     1
 71
     1
  0
GROUP
  5
10C8C
102
{ACAD_REACTORS
330
D
102
}
330
D
100
AcDbGroup
300

 70
     1
 71
     1
  0
GROUP
  5
4EF8
102
{ACAD_REACTORS
330
D
102
}
330
D
100
AcDbGroup
300

 70
     1
 71
     1
  0
GROUP
  5
12A51
102
{ACAD_REACTORS
330
D
102
}
330
D
100
AcDbGroup
300

 70
     1
 71
     1
  0
GROUP
  5
12A52
102
{ACAD_REACTORS
330
D
102
}
330
D
100
AcDbGroup
300

 70
     1
 71
     1
  0
GROUP
  5
12A53
102
{ACAD_REACTORS
330
D
102
}
330
D
100
AcDbGroup
300

 70
     1
 71
     1
  0
GROUP
  5
8127
102
{ACAD_REACTORS
330
D
102
}
330
D
100
AcDbGroup
300

 70
     1
 71
     1
  0
GROUP
  5
8135
102
{ACAD_REACTORS
330
D
102
}
330
D
100
AcDbGroup
300

 70
     1
 71
     1
  0
GROUP
  5
102E8
102
{ACAD_REACTORS
330
D
102
}
330
D
100
AcDbGroup
300

 70
     1
 71
     1
  0
GROUP
  5
B2BC
102
{ACAD_REACTORS
330
D
102
}
330
D
100
AcDbGroup
300

 70
     1
 71
     1
  0
GROUP
  5
33F2
102
{ACAD_REACTORS
330
D
102
}
330
D
100
AcDbGroup
300

 70
     1
 71
     1
  0
GROUP
  5
AB85
102
{ACAD_REACTORS
330
D
102
}
330
D
100
AcDbGroup
300

 70
     1
 71
     1
  0
GROUP
  5
1030F
102
{ACAD_REACTORS
330
D
102
}
330
D
100
AcDbGroup
300

 70
     1
 71
     1
  0
GROUP
  5
4EE1
102
{ACAD_REACTORS
330
D
102
}
330
D
100
AcDbGroup
300

 70
     1
 71
     1
  0
GROUP
  5
4ED9
102
{ACAD_REACTORS
330
D
102
}
330
D
100
AcDbGroup
300

 70
     1
 71
     1
  0
GROUP
  5
523C
102
{ACAD_REACTORS
330
D
102
}
330
D
100
AcDbGroup
300

 70
     1
 71
     1
  0
GROUP
  5
12A54
102
{ACAD_REACTORS
330
D
102
}
330
D
100
AcDbGroup
300

 70
     1
 71
     1
  0
GROUP
  5
8ABE
102
{ACAD_REACTORS
330
D
102
}
330
D
100
AcDbGroup
300

 70
     1
 71
     1
  0
GROUP
  5
26B2
102
{ACAD_REACTORS
330
D
102
}
330
D
100
AcDbGroup
300

 70
     1
 71
     1
  0
GROUP
  5
4EF6
102
{ACAD_REACTORS
330
D
102
}
330
D
100
AcDbGroup
300

 70
     1
 71
     1
  0
GROUP
  5
AC08
102
{ACAD_REACTORS
330
D
102
}
330
D
100
AcDbGroup
300

 70
     1
 71
     1
  0
GROUP
  5
8113
102
{ACAD_REACTORS
330
D
102
}
330
D
100
AcDbGroup
300

 70
     1
 71
     1
  0
GROUP
  5
10795
102
{ACAD_REACTORS
330
D
102
}
330
D
100
AcDbGroup
300

 70
     1
 71
     1
  0
GROUP
  5
B2C6
102
{ACAD_REACTORS
330
D
102
}
330
D
100
AcDbGroup
300

 70
     1
 71
     1
  0
GROUP
  5
1313B
102
{ACAD_REACTORS
330
D
102
}
330
D
100
AcDbGroup
300

 70
     1
 71
     1
  0
GROUP
  5
1DC0
102
{ACAD_REACTORS
330
D
102
}
330
D
100
AcDbGroup
300

 70
     1
 71
     1
  0
GROUP
  5
15902
102
{ACAD_REACTORS
330
D
102
}
330
D
100
AcDbGroup
300

 70
     1
 71
     1
340
15875
340
1587A
  0
GROUP
  5
1313F
102
{ACAD_REACTORS
330
D
102
}
330
D
100
AcDbGroup
300

 70
     1
 71
     1
  0
GROUP
  5
10321
102
{ACAD_REACTORS
330
D
102
}
330
D
100
AcDbGroup
300

 70
     1
 71
     1
  0
GROUP
  5
15903
102
{ACAD_REACTORS
330
D
102
}
330
D
100
AcDbGroup
300

 70
     1
 71
     1
340
1586A
340
15870
  0
GROUP
  5
B4ED
102
{ACAD_REACTORS
330
D
102
}
330
D
100
AcDbGroup
300

 70
     1
 71
     1
  0
GROUP
  5
15904
102
{ACAD_REACTORS
330
D
102
}
330
D
100
AcDbGroup
300

 70
     1
 71
     1
  0
GROUP
  5
15905
102
{ACAD_REACTORS
330
D
102
}
330
D
100
AcDbGroup
300

 70
     1
 71
     1
  0
GROUP
  5
15923
102
{ACAD_REACTORS
330
D
102
}
330
D
100
AcDbGroup
300

 70
     1
 71
     1
340
15910
340
15911
340
15912
340
15913
340
15914
340
15915
340
15916
340
15917
340
15918
340
15919
340
1591A
340
1591B
340
1591C
340
1591D
340
1591E
340
1590F
340
1591F
340
15920
340
15921
  0
GROUP
  5
10310
102
{ACAD_REACTORS
330
D
102
}
330
D
100
AcDbGroup
300

 70
     1
 71
     1
  0
GROUP
  5
15924
102
{ACAD_REACTORS
330
D
102
}
330
D
100
AcDbGroup
300

 70
     1
 71
     1
340
15916
340
15918
  0
GROUP
  5
15925
102
{ACAD_REACTORS
330
D
102
}
330
D
100
AcDbGroup
300

 70
     1
 71
     1
340
1591C
340
1591B
  0
GROUP
  5
15A39
102
{ACAD_REACTORS
330
D
102
}
330
D
100
AcDbGroup
300

 70
     1
 71
     1
  0
GROUP
  5
15A3A
102
{ACAD_REACTORS
330
D
102
}
330
D
100
AcDbGroup
300

 70
     1
 71
     1
  0
GROUP
  5
15A3B
102
{ACAD_REACTORS
330
D
102
}
330
D
100
AcDbGroup
300

 70
     1
 71
     1
  0
GROUP
  5
15A3C
102
{ACAD_REACTORS
330
D
102
}
330
D
100
AcDbGroup
300

 70
     1
 71
     1
  0
GROUP
  5
8124
102
{ACAD_REACTORS
330
D
102
}
330
D
100
AcDbGroup
300

 70
     1
 71
     1
  0
GROUP
  5
B54F
102
{ACAD_REACTORS
330
D
102
}
330
D
100
AcDbGroup
300

 70
     1
 71
     1
  0
GROUP
  5
15A3D
102
{ACAD_REACTORS
330
D
102
}
330
D
100
AcDbGroup
300

 70
     1
 71
     1
  0
GROUP
  5
15A3E
102
{ACAD_REACTORS
330
D
102
}
330
D
100
AcDbGroup
300

 70
     1
 71
     1
  0
GROUP
  5
2F48
102
{ACAD_REACTORS
330
D
102
}
330
D
100
AcDbGroup
300

 70
     1
 71
     1
  0
GROUP
  5
15B3B
102
{ACAD_REACTORS
330
D
102
}
330
D
100
AcDbGroup
300

 70
     1
 71
     1
  0
GROUP
  5
15B45
102
{ACAD_REACTORS
330
D
102
}
330
D
100
AcDbGroup
300

 70
     1
 71
     1
340
15B3E
340
15B3C
340
15B3D
340
15B3F
340
15B40
340
15B41
340
15B42
340
15B43
340
15B44
  0
GROUP
  5
15BCC
102
{ACAD_REACTORS
330
D
102
}
330
D
100
AcDbGroup
300

 70
     1
 71
     1
340
15BC6
340
15BC4
340
15BC5
340
15BC3
340
15BC7
340
15BC8
340
15BC9
340
15BCA
340
15BCB
  0
GROUP
  5
15C02
102
{ACAD_REACTORS
330
D
102
}
330
D
100
AcDbGroup
300

 70
     1
 71
     1
340
15BED
340
15BEE
340
15BEF
340
15BF0
340
15BF1
340
15BEB
340
15BEC
  0
GROUP
  5
15C03
102
{ACAD_REACTORS
330
D
102
}
330
D
100
AcDbGroup
300

 70
     1
 71
     1
340
15BF3
340
15BF4
340
15BF5
340
15BF6
340
15BF7
340
15BF8
340
15BF9
340
15BFA
340
15BFB
340
15BFC
340
15BFD
340
15BF2
340
15BFE
340
15BFF
340
15C00
  0
GROUP
  5
15D14
102
{ACAD_REACTORS
330
D
102
}
330
D
100
AcDbGroup
300

 70
     1
 71
     1
340
15D03
340
15CF0
340
15CEF
340
15CEE
340
15D02
340
15D01
340
15D09
340
15D12
340
15D08
  0
GROUP
  5
15D15
102
{ACAD_REACTORS
330
D
102
}
330
D
100
AcDbGroup
300

 70
     1
 71
     1
340
15D0F
340
15D0B
340
15D0A
340
15D0C
340
15D0E
340
15D0D
340
15D11
340
15D13
340
15D10
  0
GROUP
  5
15D16
102
{ACAD_REACTORS
330
D
102
}
330
D
100
AcDbGroup
300

 70
     1
 71
     1
  0
GROUP
  5
132F1
102
{ACAD_REACTORS
330
D
102
}
330
D
100
AcDbGroup
300

 70
     1
 71
     1
  0
GROUP
  5
8105
102
{ACAD_REACTORS
330
D
102
}
330
D
100
AcDbGroup
300

 70
     1
 71
     1
  0
GROUP
  5
33E7
102
{ACAD_REACTORS
330
D
102
}
330
D
100
AcDbGroup
300

 70
     1
 71
     1
  0
GROUP
  5
13159
102
{ACAD_REACTORS
330
D
102
}
330
D
100
AcDbGroup
300

 70
     1
 71
     1
  0
GROUP
  5
15D17
102
{ACAD_REACTORS
330
D
102
}
330
D
100
AcDbGroup
300

 70
     1
 71
     1
340
15CFE
340
15CFD
340
15CFC
340
15CFB
340
15CFA
340
15CF9
340
15CF8
340
15CF7
340
15CF6
340
15CFF
340
15CF5
340
15CF4
340
15CF3
340
15CF2
340
15CF1
  0
GROUP
  5
15E25
102
{ACAD_REACTORS
330
D
102
}
330
D
100
AcDbGroup
300

 70
     1
 71
     1
  0
GROUP
  5
15E26
102
{ACAD_REACTORS
330
D
102
}
330
D
100
AcDbGroup
300

 70
     1
 71
     1
  0
GROUP
  5
15E27
102
{ACAD_REACTORS
330
D
102
}
330
D
100
AcDbGroup
300

 70
     1
 71
     1
  0
GROUP
  5
15E28
102
{ACAD_REACTORS
330
D
102
}
330
D
100
AcDbGroup
300

 70
     1
 71
     1
  0
GROUP
  5
15E56
102
{ACAD_REACTORS
330
D
102
}
330
D
100
AcDbGroup
300

 70
     1
 71
     1
340
15E4E
340
15E4F
340
15E4D
340
15E50
340
15E51
340
15E52
340
15E53
340
15E54
340
15E55
  0
GROUP
  5
15EA5
102
{ACAD_REACTORS
330
D
102
}
330
D
100
AcDbGroup
300

 70
     1
 71
     1
340
15E9D
340
15E9E
340
15E9C
340
15E9F
340
15EA0
340
15EA1
340
15EA2
340
15EA3
340
15EA4
  0
GROUP
  5
15EC9
102
{ACAD_REACTORS
330
D
102
}
330
D
100
AcDbGroup
300

 70
     1
 71
     1
340
15EBB
340
15EBC
340
15EBD
340
15EBE
340
15EBF
340
15EC0
340
15EC1
340
15EC2
340
15EC3
340
15EC4
340
15EBA
340
15EC5
340
15EC6
340
15EC7
340
15EC8
  0
GROUP
  5
15ED9
102
{ACAD_REACTORS
330
D
102
}
330
D
100
AcDbGroup
300

 70
     1
 71
     1
340
15ECB
340
15ECC
340
15ECD
340
15ECE
340
15ECF
340
15ED0
340
15ED1
340
15ED2
340
15ED3
340
15ED4
340
15ED5
340
15ECA
340
15ED6
340
15ED7
340
15ED8
  0
GROUP
  5
26B0
102
{ACAD_REACTORS
330
D
102
}
330
D
100
AcDbGroup
300

 70
     1
 71
     1
  0
GROUP
  5
1030D
102
{ACAD_REACTORS
330
D
102
}
330
D
100
AcDbGroup
300

 70
     1
 71
     1
  0
GROUP
  5
15F46
102
{ACAD_REACTORS
330
D
102
}
330
D
100
AcDbGroup
300

 70
     1
 71
     1
340
15F18
340
15F01
340
15F00
340
15F02
340
15F17
340
15F16
340
15F30
340
15F2F
340
15F2E
  0
GROUP
  5
1315A
102
{ACAD_REACTORS
330
D
102
}
330
D
100
AcDbGroup
300

 70
     1
 71
     1
  0
GROUP
  5
15F47
102
{ACAD_REACTORS
330
D
102
}
330
D
100
AcDbGroup
300

 70
     1
 71
     1
340
15F2D
340
15EFD
340
15EFE
340
15EFC
340
15F2C
340
15F2B
340
15F14
340
15F13
340
15F12
  0
GROUP
  5
15F48
102
{ACAD_REACTORS
330
D
102
}
330
D
100
AcDbGroup
300

 70
     1
 71
     1
340
15F27
340
15F26
340
15F25
340
15F24
340
15F23
340
15F22
340
15F21
340
15F20
340
15F1F
340
15F28
340
15F1E
340
15F1D
340
15F1C
340
15F1B
340
15F1A
  0
GROUP
  5
15F49
102
{ACAD_REACTORS
330
D
102
}
330
D
100
AcDbGroup
300

 70
     1
 71
     1
340
15F10
340
15F0F
340
15F0E
340
15F0D
340
15F0C
340
15F0B
340
15F0A
340
15F09
340
15F08
340
15F07
340
15F06
340
15F11
340
15F05
340
15F04
340
15F03
  0
GROUP
  5
15F6E
102
{ACAD_REACTORS
330
D
102
}
330
D
100
AcDbGroup
300

 70
     1
 71
     1
340
15F59
340
15F4B
  0
GROUP
  5
15F7E
102
{ACAD_REACTORS
330
D
102
}
330
D
100
AcDbGroup
300

 70
     1
 71
     1
340
15F7C
340
15F7D
  0
GROUP
  5
1315B
102
{ACAD_REACTORS
330
D
102
}
330
D
100
AcDbGroup
300

 70
     1
 71
     1
  0
GROUP
  5
1315C
102
{ACAD_REACTORS
330
D
102
}
330
D
100
AcDbGroup
300

 70
     1
 71
     1
  0
GROUP
  5
102D9
102
{ACAD_REACTORS
330
D
102
}
330
D
100
AcDbGroup
300

 70
     1
 71
     1
  0
GROUP
  5
10BC6
102
{ACAD_REACTORS
330
D
102
}
330
D
100
AcDbGroup
300

 70
     1
 71
     1
  0
GROUP
  5
3D1E
102
{ACAD_REACTORS
330
D
102
}
330
D
100
AcDbGroup
300

 70
     1
 71
     1
  0
GROUP
  5
8128
102
{ACAD_REACTORS
330
D
102
}
330
D
100
AcDbGroup
300

 70
     1
 71
     1
  0
GROUP
  5
10322
102
{ACAD_REACTORS
330
D
102
}
330
D
100
AcDbGroup
300

 70
     1
 71
     1
  0
GROUP
  5
C1D5
102
{ACAD_REACTORS
330
D
102
}
330
D
100
AcDbGroup
300

 70
     1
 71
     1
  0
GROUP
  5
1259F
102
{ACAD_REACTORS
330
D
102
}
330
D
100
AcDbGroup
300

 70
     1
 71
     1
  0
GROUP
  5
13140
102
{ACAD_REACTORS
330
D
102
}
330
D
100
AcDbGroup
300

 70
     1
 71
     1
  0
GROUP
  5
1DBE
102
{ACAD_REACTORS
330
D
102
}
330
D
100
AcDbGroup
300

 70
     1
 71
     1
  0
GROUP
  5
10D7E
102
{ACAD_REACTORS
330
D
102
}
330
D
100
AcDbGroup
300

 70
     1
 71
     1
  0
GROUP
  5
1315D
102
{ACAD_REACTORS
330
D
102
}
330
D
100
AcDbGroup
300

 70
     1
 71
     1
  0
GROUP
  5
8134
102
{ACAD_REACTORS
330
D
102
}
330
D
100
AcDbGroup
300

 70
     1
 71
     1
  0
GROUP
  5
4EF4
102
{ACAD_REACTORS
330
D
102
}
330
D
100
AcDbGroup
300

 70
     1
 71
     1
  0
GROUP
  5
2785
102
{ACAD_REACTORS
330
D
102
}
330
D
100
AcDbGroup
300

 70
     1
 71
     1
  0
GROUP
  5
1030B
102
{ACAD_REACTORS
330
D
102
}
330
D
100
AcDbGroup
300

 70
     1
 71
     1
  0
GROUP
  5
8553
102
{ACAD_REACTORS
330
D
102
}
330
D
100
AcDbGroup
300

 70
     1
 71
     1
  0
GROUP
  5
10C43
102
{ACAD_REACTORS
330
D
102
}
330
D
100
AcDbGroup
300

 70
     1
 71
     1
  0
GROUP
  5
54A6
102
{ACAD_REACTORS
330
D
102
}
330
D
100
AcDbGroup
300

 70
     1
 71
     1
  0
GROUP
  5
1315E
102
{ACAD_REACTORS
330
D
102
}
330
D
100
AcDbGroup
300

 70
     1
 71
     1
  0
GROUP
  5
B2B9
102
{ACAD_REACTORS
330
D
102
}
330
D
100
AcDbGroup
300

 70
     1
 71
     1
  0
GROUP
  5
8129
102
{ACAD_REACTORS
330
D
102
}
330
D
100
AcDbGroup
300

 70
     1
 71
     1
  0
GROUP
  5
8119
102
{ACAD_REACTORS
330
D
102
}
330
D
100
AcDbGroup
300

 70
     1
 71
     1
  0
GROUP
  5
B2C3
102
{ACAD_REACTORS
330
D
102
}
330
D
100
AcDbGroup
300

 70
     1
 71
     1
  0
GROUP
  5
10311
102
{ACAD_REACTORS
330
D
102
}
330
D
100
AcDbGroup
300

 70
     1
 71
     1
  0
GROUP
  5
810C
102
{ACAD_REACTORS
330
D
102
}
330
D
100
AcDbGroup
300

 70
     1
 71
     1
  0
GROUP
  5
8AC0
102
{ACAD_REACTORS
330
D
102
}
330
D
100
AcDbGroup
300

 70
     1
 71
     1
  0
GROUP
  5
8116
102
{ACAD_REACTORS
330
D
102
}
330
D
100
AcDbGroup
300

 70
     1
 71
     1
  0
GROUP
  5
A59E
102
{ACAD_REACTORS
330
D
102
}
330
D
100
AcDbGroup
300

 70
     1
 71
     1
  0
GROUP
  5
810E
102
{ACAD_REACTORS
330
D
102
}
330
D
100
AcDbGroup
300

 70
     1
 71
     1
  0
GROUP
  5
11C85
102
{ACAD_REACTORS
330
D
102
}
330
D
100
AcDbGroup
300

 70
     1
 71
     1
  0
GROUP
  5
102D8
102
{ACAD_REACTORS
330
D
102
}
330
D
100
AcDbGroup
300

 70
     1
 71
     1
  0
GROUP
  5
2F4E
102
{ACAD_REACTORS
330
D
102
}
330
D
100
AcDbGroup
300

 70
     1
 71
     1
  0
GROUP
  5
B4EE
102
{ACAD_REACTORS
330
D
102
}
330
D
100
AcDbGroup
300

 70
     1
 71
     1
  0
GROUP
  5
26AD
102
{ACAD_REACTORS
330
D
102
}
330
D
100
AcDbGroup
300

 70
     1
 71
     1
  0
GROUP
  5
4EDB
102
{ACAD_REACTORS
330
D
102
}
330
D
100
AcDbGroup
300

 70
     1
 71
     1
  0
GROUP
  5
11AAA
102
{ACAD_REACTORS
330
D
102
}
330
D
100
AcDbGroup
300

 70
     1
 71
     1
  0
GROUP
  5
10D80
102
{ACAD_REACTORS
330
D
102
}
330
D
100
AcDbGroup
300

 70
     1
 71
     1
  0
GROUP
  5
52F9
102
{ACAD_REACTORS
330
D
102
}
330
D
100
AcDbGroup
300

 70
     1
 71
     1
  0
GROUP
  5
C09D
102
{ACAD_REACTORS
330
D
102
}
330
D
100
AcDbGroup
300

 70
     1
 71
     1
  0
GROUP
  5
10312
102
{ACAD_REACTORS
330
D
102
}
330
D
100
AcDbGroup
300

 70
     1
 71
     1
  0
GROUP
  5
10313
102
{ACAD_REACTORS
330
D
102
}
330
D
100
AcDbGroup
300

 70
     1
 71
     1
  0
GROUP
  5
3D6A
102
{ACAD_REACTORS
330
D
102
}
330
D
100
AcDbGroup
300

 70
     1
 71
     1
  0
GROUP
  5
10BCC
102
{ACAD_REACTORS
330
D
102
}
330
D
100
AcDbGroup
300

 70
     1
 71
     1
  0
GROUP
  5
102F8
102
{ACAD_REACTORS
330
D
102
}
330
D
100
AcDbGroup
300

 70
     1
 71
     1
  0
GROUP
  5
13145
102
{ACAD_REACTORS
330
D
102
}
330
D
100
AcDbGroup
300

 70
     1
 71
     1
  0
GROUP
  5
813F
102
{ACAD_REACTORS
330
D
102
}
330
D
100
AcDbGroup
300

 70
     1
 71
     1
  0
GROUP
  5
B2B8
102
{ACAD_REACTORS
330
D
102
}
330
D
100
AcDbGroup
300

 70
     1
 71
     1
  0
GROUP
  5
2F49
102
{ACAD_REACTORS
330
D
102
}
330
D
100
AcDbGroup
300

 70
     1
 71
     1
  0
GROUP
  5
10314
102
{ACAD_REACTORS
330
D
102
}
330
D
100
AcDbGroup
300

 70
     1
 71
     1
  0
GROUP
  5
26B1
102
{ACAD_REACTORS
330
D
102
}
330
D
100
AcDbGroup
300

 70
     1
 71
     1
  0
GROUP
  5
8112
102
{ACAD_REACTORS
330
D
102
}
330
D
100
AcDbGroup
300

 70
     1
 71
     1
  0
GROUP
  5
10825
102
{ACAD_REACTORS
330
D
102
}
330
D
100
AcDbGroup
300

 70
     1
 71
     1
  0
GROUP
  5
122A0
102
{ACAD_REACTORS
330
D
102
}
330
D
100
AcDbGroup
300

 70
     1
 71
     1
  0
GROUP
  5
11C92
102
{ACAD_REACTORS
330
D
102
}
330
D
100
AcDbGroup
300

 70
     1
 71
     1
  0
GROUP
  5
2878
102
{ACAD_REACTORS
330
D
102
}
330
D
100
AcDbGroup
300

 70
     1
 71
     1
  0
GROUP
  5
8ABC
102
{ACAD_REACTORS
330
D
102
}
330
D
100
AcDbGroup
300

 70
     1
 71
     1
  0
LAYOUT
  5
1E
102
{ACAD_REACTORS
330
1A
102
}
330
1A
100
AcDbPlotSettings
  1

  2

  4

  6

 40
0.0
 41
0.0
 42
0.0
 43
0.0
 44
0.0
 45
0.0
 46
0.0
 47
0.0
 48
0.0
 49
0.0
140
0.0
141
0.0
142
1.0
143
1.0
 70
   688
 72
     0
 73
     0
 74
     5
  7
monochrome.ctb
 75
    16
147
1.0
148
0.0
149
0.0
100
AcDbLayout
  1
Layout1
 70
     1
 71
     1
 10
0.0
 20
0.0
 11
420.0
 21
297.0
 12
0.0
 22
0.0
 32
0.0
 14
1.000000000000000E+20
 24
1.000000000000000E+20
 34
1.000000000000000E+20
 15
-1.000000000000000E+20
 25
-1.000000000000000E+20
 35
-1.000000000000000E+20
146
0.0
 13
0.0
 23
0.0
 33
0.0
 16
1.0
 26
0.0
 36
0.0
 17
0.0
 27
1.0
 37
0.0
 76
     0
330
1B
  0
LAYOUT
  5
26
102
{ACAD_REACTORS
330
1A
102
}
330
1A
100
AcDbPlotSettings
  1

  2

  4

  6

 40
0.0
 41
0.0
 42
0.0
 43
0.0
 44
0.0
 45
0.0
 46
0.0
 47
0.0
 48
0.0
 49
0.0
140
0.0
141
0.0
142
1.0
143
1.0
 70
   688
 72
     0
 73
     0
 74
     5
  7
monochrome.ctb
 75
    16
147
1.0
148
0.0
149
0.0
100
AcDbLayout
  1
Layout2
 70
     1
 71
     2
 10
0.0
 20
0.0
 11
12.0
 21
9.0
 12
0.0
 22
0.0
 32
0.0
 14
0.0
 24
0.0
 34
0.0
 15
0.0
 25
0.0
 35
0.0
146
0.0
 13
0.0
 23
0.0
 33
0.0
 16
1.0
 26
0.0
 36
0.0
 17
0.0
 27
1.0
 37
0.0
 76
     0
330
23
  0
LAYOUT
  5
22
102
{ACAD_REACTORS
330
1A
102
}
330
1A
100
AcDbPlotSettings
  1

  2
Adobe PDF（横方向）.pc3
  4
A3
  6

 40
3.174999952316284
 41
3.174999952316284
 42
3.17498779296875
 43
3.17498779296875
 44
420.1583251953125
 45
297.0318298339843
 46
0.0
 47
49.79
 48
0.0
 49
0.0
140
0.0
141
0.0
142
1.0
143
1.013808382382563
 70
 11956
 72
     1
 73
     0
 74
     0
  7
monochrome.ctb
 75
     0
147
0.9863796920379447
148
101.7080709495599
149
-35.03447519510245
100
AcDbLayout
  1
Model
 70
     1
 71
     0
 10
0.0
 20
0.0
 11
12.0
 21
9.0
 12
0.0
 22
0.0
 32
0.0
 14
0.0
 24
0.0
 34
0.0
 15
0.0
 25
0.0
 35
0.0
146
0.0
 13
0.0
 23
0.0
 33
0.0
 16
1.0
 26
0.0
 36
0.0
 17
0.0
 27
1.0
 37
0.0
 76
     0
330
1F
  0
MLINESTYLE
  5
18
102
{ACAD_REACTORS
330
17
102
}
330
17
100
AcDbMlineStyle
  2
STANDARD
 70
     0
  3

 62
   256
 51
90.0
 52
90.0
 71
     2
 49
0.5
 62
   256
  6
BYLAYER
 49
-0.5
 62
   256
  6
BYLAYER
  0
ACDBPLACEHOLDER
  5
F
102
{ACAD_REACTORS
330
E
102
}
330
E
  0
DICTIONARYVAR
  5
1CE3
102
{ACAD_REACTORS
330
1CE2
102
}
330
1CE2
100
DictionaryVariables
280
     0
  1
96
  0
XRECORD
  5
46
102
{ACAD_REACTORS
330
45
102
}
330
45
100
AcDbXrecord
280
     1
  1
-100
  1
*-100
  1
*
  1
*
 70
     0
  1
*
  1
*
  0
XRECORD
  5
47
102
{ACAD_REACTORS
330
45
102
}
330
45
100
AcDbXrecord
280
     1
  1
-50
  1
*-50
  1
*
  1
*
 70
     0
  1
*
  1
*
  0
XRECORD
  5
48
102
{ACAD_REACTORS
330
45
102
}
330
45
100
AcDbXrecord
280
     1
  1
-ben
  1
ben*
  1
*
  1
*
 70
     0
  1
*
  1
*
  0
XRECORD
  5
49
102
{ACAD_REACTORS
330
45
102
}
330
45
100
AcDbXrecord
280
     1
  1
-H
  1
00*,01*,02*,05*,1*,2*,3*,4*,5*,6*,8*
  1
*
  1
*
 70
     0
  1
*
  1
*
  0
XRECORD
  5
4A
102
{ACAD_REACTORS
330
45
102
}
330
45
100
AcDbXrecord
280
     1
  1
-T
  1
00*,01*,03*,05*,1*,20*,21*,22*,23*,24*,25*,26*,27*,29*,2a*,3*,4*,7*,9*
  1
*
  1
*
 70
     0
  1
*
  1
*
  0
XRECORD
  5
4B
102
{ACAD_REACTORS
330
45
102
}
330
45
100
AcDbXrecord
280
     1
  1
$
  1
*$0$*
  1
*
  1
*
 70
     0
  1
*
  1
*
  0
XRECORD
  5
4C
102
{ACAD_REACTORS
330
45
102
}
330
45
100
AcDbXrecord
280
     1
  1
$0$
  1
$0$*
  1
*
  1
*
 70
     0
  1
*
  1
*
  0
XRECORD
  5
4D
102
{ACAD_REACTORS
330
45
102
}
330
45
100
AcDbXrecord
280
     1
  1
0
  1
0*
  1
*
  1
*
 70
     0
  1
*
  1
*
  0
XRECORD
  5
4E
102
{ACAD_REACTORS
330
45
102
}
330
45
100
AcDbXrecord
280
     1
  1
0-
  1
0-*
  1
*
  1
*
 70
     0
  1
*
  1
*
  0
XRECORD
  5
4F
102
{ACAD_REACTORS
330
45
102
}
330
45
100
AcDbXrecord
280
     1
  1
00
  1
*-100
  1
*
  1
*
 70
     0
  1
*
  1
*
  0
XRECORD
  5
50
102
{ACAD_REACTORS
330
45
102
}
330
45
100
AcDbXrecord
280
     1
  1
01
  1
0*a*
  1
*
  1
*
 70
     0
  1
*
  1
*
  0
XRECORD
  5
51
102
{ACAD_REACTORS
330
45
102
}
330
45
100
AcDbXrecord
280
     1
  1
01KUTAI
  1
01KUTAI
  1
*
  1
*
 70
     0
  1
*
  1
*
  0
XRECORD
  5
52
102
{ACAD_REACTORS
330
45
102
}
330
45
100
AcDbXrecord
280
     1
  1
01全体計画平面図
  1
00*,02*,0A*
  1
*
  1
*
 70
     0
  1
*
  1
*
  0
XRECORD
  5
53
102
{ACAD_REACTORS
330
45
102
}
330
45
100
AcDbXrecord
280
     1
  1
02現況平面図
  1
00*,01*,0B*
  1
*
  1
*
 70
     0
  1
*
  1
*
  0
XRECORD
  5
54
102
{ACAD_REACTORS
330
45
102
}
330
45
100
AcDbXrecord
280
     1
  1
03撤去平面図
  1
00*,01*,0C*
  1
*
  1
*
 70
     0
  1
*
  1
*
  0
XRECORD
  5
55
102
{ACAD_REACTORS
330
45
102
}
330
45
100
AcDbXrecord
280
     1
  1
04造成平面図
  1
00*,02計*,0D*,03*,01*
  1
*
  1
*
 70
     0
  1
*
  1
*
  0
XRECORD
  5
56
102
{ACAD_REACTORS
330
45
102
}
330
45
100
AcDbXrecord
280
     1
  1
05
  1
*05*
  1
*
  1
*
 70
     0
  1
*
  1
*
  0
XRECORD
  5
57
102
{ACAD_REACTORS
330
45
102
}
330
45
100
AcDbXrecord
280
     1
  1
05施設平面図
  1
00*,02*,0E*,05*
  1
*
  1
*
 70
     0
  1
*
  1
*
  0
XRECORD
  5
58
102
{ACAD_REACTORS
330
45
102
}
330
45
100
AcDbXrecord
280
     1
  1
06
  1
06*
  1
*
  1
*
 70
     0
  1
*
  1
*
  0
XRECORD
  5
59
102
{ACAD_REACTORS
330
45
102
}
330
45
100
AcDbXrecord
280
     1
  1
06siki
  1
06*siki*,sikiti,00waku,*|*
  1
*
  1
*
 70
     0
  1
*
  1
*
  0
XRECORD
  5
5A
102
{ACAD_REACTORS
330
45
102
}
330
45
100
AcDbXrecord
280
     1
  1
06siki2
  1
06*siki*,sikiti,00waku,*|*
  1
*
  1
*
 70
     0
  1
*
  1
*
  0
XRECORD
  5
5B
102
{ACAD_REACTORS
330
45
102
}
330
45
100
AcDbXrecord
280
     1
  1
06排水平面図
  1
00*,02*,0F*
  1
*
  1
*
 70
     0
  1
*
  1
*
  0
XRECORD
  5
5C
102
{ACAD_REACTORS
330
45
102
}
330
45
100
AcDbXrecord
280
     1
  1
07
  1
07*
  1
*
  1
*
 70
     0
  1
*
  1
*
  0
XRECORD
  5
5D
102
{ACAD_REACTORS
330
45
102
}
330
45
100
AcDbXrecord
280
     1
  1
07給水平面図
  1
00*,02*,0G*
  1
*
  1
*
 70
     0
  1
*
  1
*
  0
XRECORD
  5
5E
102
{ACAD_REACTORS
330
45
102
}
330
45
100
AcDbXrecord
280
     1
  1
0割付平面図
  1
*わ*
  1
*
  1
*
 70
     0
  1
*
  1
*
  0
XRECORD
  5
5F
102
{ACAD_REACTORS
330
45
102
}
330
45
100
AcDbXrecord
280
     1
  1
0潅水平面
  1
*三*
  1
*
  1
*
 70
     0
  1
*
  1
*
  0
XRECORD
  5
60
102
{ACAD_REACTORS
330
45
102
}
330
45
100
AcDbXrecord
280
     1
  1
0計画平面
  1
*け*
  1
*
  1
*
 70
     0
  1
*
  1
*
  0
XRECORD
  5
61
102
{ACAD_REACTORS
330
45
102
}
330
45
100
AcDbXrecord
280
     1
  1
0高木植栽
  1
*こ*
  1
*
  1
*
 70
     0
  1
*
  1
*
  0
XRECORD
  5
62
102
{ACAD_REACTORS
330
45
102
}
330
45
100
AcDbXrecord
280
     1
  1
0施設平面
  1
*し*
  1
*
  1
*
 70
     0
  1
*
  1
*
  0
XRECORD
  5
63
102
{ACAD_REACTORS
330
45
102
}
330
45
100
AcDbXrecord
280
     1
  1
0床内
  1
FI-*
  1
*
  1
*
 70
     0
  1
*
  1
*
  0
XRECORD
  5
64
102
{ACAD_REACTORS
330
45
102
}
330
45
100
AcDbXrecord
280
     1
  1
0床壁
  1
FW*
  1
*
  1
*
 70
     0
  1
*
  1
*
  0
XRECORD
  5
65
102
{ACAD_REACTORS
330
45
102
}
330
45
100
AcDbXrecord
280
     1
  1
0照明配置図
  1
*め*
  1
*
  1
*
 70
     0
  1
*
  1
*
  0
XRECORD
  5
66
102
{ACAD_REACTORS
330
45
102
}
330
45
100
AcDbXrecord
280
     1
  1
0詳細図
  1
*-d
  1
*
  1
*
 70
     0
  1
*
  1
*
  0
XRECORD
  5
67
102
{ACAD_REACTORS
330
45
102
}
330
45
100
AcDbXrecord
280
     1
  1
0植栽基盤
  1
*ど*
  1
*
  1
*
 70
     0
  1
*
  1
*
  0
XRECORD
  5
68
102
{ACAD_REACTORS
330
45
102
}
330
45
100
AcDbXrecord
280
     1
  1
0全体工区区分図
  1
*ぜ*
  1
*
  1
*
 70
     0
  1
*
  1
*
  0
XRECORD
  5
69
102
{ACAD_REACTORS
330
45
102
}
330
45
100
AcDbXrecord
280
     1
  1
0総合図off
  1
*-s
  1
*
  1
*
 70
     0
  1
*
  1
*
  0
XRECORD
  5
6A
102
{ACAD_REACTORS
330
45
102
}
330
45
100
AcDbXrecord
280
     1
  1
0総合図枠
  1
*-2
  1
*
  1
*
 70
     0
  1
*
  1
*
  0
XRECORD
  5
6B
102
{ACAD_REACTORS
330
45
102
}
330
45
100
AcDbXrecord
280
     1
  1
0低木
  1
*て*
  1
*
  1
*
 70
     0
  1
*
  1
*
  0
XRECORD
  5
6C
102
{ACAD_REACTORS
330
45
102
}
330
45
100
AcDbXrecord
280
     1
  1
0排水平面
  1
*は*
  1
*
  1
*
 70
     0
  1
*
  1
*
  0
XRECORD
  5
6D
102
{ACAD_REACTORS
330
45
102
}
330
45
100
AcDbXrecord
280
     1
  1
0平詳枠
  1
*-1
  1
*
  1
*
 70
     0
  1
*
  1
*
  0
XRECORD
  5
6E
102
{ACAD_REACTORS
330
45
102
}
330
45
100
AcDbXrecord
280
     1
  1
0擁壁平面図
  1
*よ*
  1
*
  1
*
 70
     0
  1
*
  1
*
  0
XRECORD
  5
6F
102
{ACAD_REACTORS
330
45
102
}
330
45
100
AcDbXrecord
280
     1
  1
1
  1
*
  1
*
  1
*
 70
     0
  1
*
  1
*
  0
XRECORD
  5
70
102
{ACAD_REACTORS
330
45
102
}
330
45
100
AcDbXrecord
280
     1
  1
10
  1
*
  1
10
  1
*
 70
     0
  1
*
  1
*
  0
XRECORD
  5
71
102
{ACAD_REACTORS
330
45
102
}
330
45
100
AcDbXrecord
280
     1
  1
100
  1
50*
  1
*
  1
*
 70
     0
  1
*
  1
*
  0
XRECORD
  5
72
102
{ACAD_REACTORS
330
45
102
}
330
45
100
AcDbXrecord
280
     1
  1
10植栽平面図
  1
00*,02*,0I*
  1
*
  1
*
 70
     0
  1
*
  1
*
  0
XRECORD
  5
73
102
{ACAD_REACTORS
330
45
102
}
330
45
100
AcDbXrecord
280
     1
  1
11
  1
11*
  1
*
  1
*
 70
     0
  1
*
  1
*
  0
XRECORD
  5
74
102
{ACAD_REACTORS
330
45
102
}
330
45
100
AcDbXrecord
280
     1
  1
1111
  1
*-50
  1
*
  1
*
 70
     0
  1
*
  1
*
  0
XRECORD
  5
75
102
{ACAD_REACTORS
330
45
102
}
330
45
100
AcDbXrecord
280
     1
  1
11寸法図
  1
00*,02*,0K*,03*
  1
*
  1
*
 70
     0
  1
*
  1
*
  0
XRECORD
  5
76
102
{ACAD_REACTORS
330
45
102
}
330
45
100
AcDbXrecord
280
     1
  1
12
  1
*
  1
*12
  1
*
 70
     0
  1
*
  1
*
  0
XRECORD
  5
77
102
{ACAD_REACTORS
330
45
102
}
330
45
100
AcDbXrecord
280
     1
  1
19
  1
*19*
  1
*
  1
*
 70
     0
  1
*
  1
*
  0
XRECORD
  5
78
102
{ACAD_REACTORS
330
45
102
}
330
45
100
AcDbXrecord
280
     1
  1
１Ｆ床伏OFF
  1
-*
  1
*
  1
*
 70
     0
  1
*
  1
*
  0
XRECORD
  5
79
102
{ACAD_REACTORS
330
45
102
}
330
45
100
AcDbXrecord
280
     1
  1
1階
  1
*1階*
  1
*
  1
*
 70
     0
  1
*
  1
*
  0
XRECORD
  5
7A
102
{ACAD_REACTORS
330
45
102
}
330
45
100
AcDbXrecord
280
     1
  1
1床
  1
F-*
  1
*
  1
*
 70
     0
  1
*
  1
*
  0
XRECORD
  5
7B
102
{ACAD_REACTORS
330
45
102
}
330
45
100
AcDbXrecord
280
     1
  1
1芯
  1
1*
  1
*
  1
*
 70
     0
  1
*
  1
*
  0
XRECORD
  5
7C
102
{ACAD_REACTORS
330
45
102
}
330
45
100
AcDbXrecord
280
     1
  1
1芯線
  1
1*
  1
*
  1
*
 70
     0
  1
*
  1
*
  0
XRECORD
  5
7D
102
{ACAD_REACTORS
330
45
102
}
330
45
100
AcDbXrecord
280
     1
  1
20
  1
*20
  1
*
  1
*
 70
     0
  1
*
  1
*
  0
XRECORD
  5
7E
102
{ACAD_REACTORS
330
45
102
}
330
45
100
AcDbXrecord
280
     1
  1
21
  1
*
  1
21
  1
*
 70
     0
  1
*
  1
*
  0
XRECORD
  5
7F
102
{ACAD_REACTORS
330
45
102
}
330
45
100
AcDbXrecord
280
     1
  1
250
  1
*250*
  1
*
  1
*
 70
     0
  1
*
  1
*
  0
XRECORD
  5
80
102
{ACAD_REACTORS
330
45
102
}
330
45
100
AcDbXrecord
280
     1
  1
2fmiage
  1
*
  1
*
  1
*
 70
     1
  1
*
  1
*
  0
XRECORD
  5
81
102
{ACAD_REACTORS
330
45
102
}
330
45
100
AcDbXrecord
280
     1
  1
2躯体
  1
2*
  1
*
  1
*
 70
     0
  1
*
  1
*
  0
XRECORD
  5
82
102
{ACAD_REACTORS
330
45
102
}
330
45
100
AcDbXrecord
280
     1
  1
2断面
  1
2*
  1
*
  1
*
 70
     0
  1
*
  1
*
  0
XRECORD
  5
83
102
{ACAD_REACTORS
330
45
102
}
330
45
100
AcDbXrecord
280
     1
  1
2壁
  1
W-*
  1
*
  1
*
 70
     0
  1
*
  1
*
  0
XRECORD
  5
84
102
{ACAD_REACTORS
330
45
102
}
330
45
100
AcDbXrecord
280
     1
  1
300
  1
*300*
  1
*
  1
*
 70
     0
  1
*
  1
*
  0
XRECORD
  5
85
102
{ACAD_REACTORS
330
45
102
}
330
45
100
AcDbXrecord
280
     1
  1
32
  1
*
  1
32
  1
*
 70
     0
  1
*
  1
*
  0
XRECORD
  5
86
102
{ACAD_REACTORS
330
45
102
}
330
45
100
AcDbXrecord
280
     1
  1
333
  1
*
  1
*
  1
*
 70
    12
  1
*
  1
*
  0
XRECORD
  5
87
102
{ACAD_REACTORS
330
45
102
}
330
45
100
AcDbXrecord
280
     1
  1
37
  1
*37
  1
*
  1
*
 70
     0
  1
*
  1
*
  0
XRECORD
  5
88
102
{ACAD_REACTORS
330
45
102
}
330
45
100
AcDbXrecord
280
     1
  1
3D
  1
3D*
  1
*
  1
*
 70
     0
  1
*
  1
*
  0
XRECORD
  5
89
102
{ACAD_REACTORS
330
45
102
}
330
45
100
AcDbXrecord
280
     1
  1
3開口
  1
3*
  1
*
  1
*
 70
     0
  1
*
  1
*
  0
XRECORD
  5
8A
102
{ACAD_REACTORS
330
45
102
}
330
45
100
AcDbXrecord
280
     1
  1
3見掛り
  1
3*
  1
*
  1
*
 70
     0
  1
*
  1
*
  0
XRECORD
  5
8B
102
{ACAD_REACTORS
330
45
102
}
330
45
100
AcDbXrecord
280
     1
  1
3天井内
  1
CI-*
  1
*
  1
*
 70
     0
  1
*
  1
*
  0
XRECORD
  5
8C
102
{ACAD_REACTORS
330
45
102
}
330
45
100
AcDbXrecord
280
     1
  1
41
  1
41
  1
*
  1
*
 70
     1
  1
*
  1
*
  0
XRECORD
  5
8D
102
{ACAD_REACTORS
330
45
102
}
330
45
100
AcDbXrecord
280
     1
  1
4仕上げ
  1
4*
  1
*
  1
*
 70
     0
  1
*
  1
*
  0
XRECORD
  5
8E
102
{ACAD_REACTORS
330
45
102
}
330
45
100
AcDbXrecord
280
     1
  1
4天井
  1
C-*
  1
*
  1
*
 70
     0
  1
*
  1
*
  0
XRECORD
  5
8F
102
{ACAD_REACTORS
330
45
102
}
330
45
100
AcDbXrecord
280
     1
  1
5
  1
*5
  1
*
  1
*
 70
     1
  1
*
  1
*
  0
XRECORD
  5
90
102
{ACAD_REACTORS
330
45
102
}
330
45
100
AcDbXrecord
280
     1
  1
50
  1
*-50
  1
*
  1
*
 70
     0
  1
*
  1
*
  0
XRECORD
  5
91
102
{ACAD_REACTORS
330
45
102
}
330
45
100
AcDbXrecord
280
     1
  1
50off
  1
50*
  1
*
  1
*
 70
     0
  1
*
  1
*
  0
XRECORD
  5
92
102
{ACAD_REACTORS
330
45
102
}
330
45
100
AcDbXrecord
280
     1
  1
51-52
  1
5*
  1
*
  1
*
 70
     0
  1
*
  1
*
  0
XRECORD
  5
93
102
{ACAD_REACTORS
330
45
102
}
330
45
100
AcDbXrecord
280
     1
  1
555
  1
*
  1
*
  1
*
 70
     1
  1
*
  1
*
  0
XRECORD
  5
94
102
{ACAD_REACTORS
330
45
102
}
330
45
100
AcDbXrecord
280
     1
  1
5寸法
  1
5*
  1
*
  1
*
 70
     0
  1
*
  1
*
  0
XRECORD
  5
95
102
{ACAD_REACTORS
330
45
102
}
330
45
100
AcDbXrecord
280
     1
  1
5文字
  1
*TXT*
  1
*
  1
*
 70
     0
  1
*
  1
*
  0
XRECORD
  5
96
102
{ACAD_REACTORS
330
45
102
}
330
45
100
AcDbXrecord
280
     1
  1
6
  1
*
  1
6
  1
*
 70
     0
  1
*
  1
*
  0
XRECORD
  5
97
102
{ACAD_REACTORS
330
45
102
}
330
45
100
AcDbXrecord
280
     1
  1
66-躯体図
  1
0,Defpoints,HOJO,雲マーク,000*,010*,020*,1*,400*,470*,520*,570*,08*
  1
*
  1
*
 70
     0
  1
*
  1
*
  0
XRECORD
  5
98
102
{ACAD_REACTORS
330
45
102
}
330
45
100
AcDbXrecord
280
     1
  1
66躯体図
  1
0,Defpoints,HOJO,雲マーク,000*,010*,020*,1*,400*,470*,520*,570*,08*,6*
  1
*
  1
*
 70
     0
  1
*
  1
*
  0
XRECORD
  5
99
102
{ACAD_REACTORS
330
45
102
}
330
45
100
AcDbXrecord
280
     1
  1
6記号
  1
6*
  1
*
  1
*
 70
     0
  1
*
  1
*
  0
XRECORD
  5
9A
102
{ACAD_REACTORS
330
45
102
}
330
45
100
AcDbXrecord
280
     1
  1
6文字
  1
6*
  1
*
  1
*
 70
     0
  1
*
  1
*
  0
XRECORD
  5
9B
102
{ACAD_REACTORS
330
45
102
}
330
45
100
AcDbXrecord
280
     1
  1
6保留
  1
*_a
  1
*
  1
*
 70
     0
  1
*
  1
*
  0
XRECORD
  5
9C
102
{ACAD_REACTORS
330
45
102
}
330
45
100
AcDbXrecord
280
     1
  1
767
  1
*
  1
*
  1
*
 70
     0
  1
*
  1
*
  0
XRECORD
  5
9D
102
{ACAD_REACTORS
330
45
102
}
330
45
100
AcDbXrecord
280
     1
  1
767SE13-0...$
  1
*
  1
*
  1
*
 70
     0
  1
*
  1
*
  0
XRECORD
  5
9E
102
{ACAD_REACTORS
330
45
102
}
330
45
100
AcDbXrecord
280
     1
  1
767SE13-07-99$0$
  1
*
  1
*
  1
*
 70
     0
  1
*
  1
*
  0
XRECORD
  5
9F
102
{ACAD_REACTORS
330
45
102
}
330
45
100
AcDbXrecord
280
     1
  1
7記号
  1
7*
  1
*
  1
*
 70
     0
  1
*
  1
*
  0
XRECORD
  5
A0
102
{ACAD_REACTORS
330
45
102
}
330
45
100
AcDbXrecord
280
     1
  1
8
  1
*
  1
8
  1
*
 70
    12
  1
*
  1
*
  0
XRECORD
  5
A1
102
{ACAD_REACTORS
330
45
102
}
330
45
100
AcDbXrecord
280
     1
  1
8寸法
  1
8*
  1
*
  1
*
 70
     0
  1
*
  1
*
  0
XRECORD
  5
A2
102
{ACAD_REACTORS
330
45
102
}
330
45
100
AcDbXrecord
280
     1
  1
8設備
  1
8*
  1
*
  1
*
 70
     0
  1
*
  1
*
  0
XRECORD
  5
A3
102
{ACAD_REACTORS
330
45
102
}
330
45
100
AcDbXrecord
280
     1
  1
9文字
  1
9*
  1
*
  1
*
 70
     0
  1
*
  1
*
  0
XRECORD
  5
A4
102
{ACAD_REACTORS
330
45
102
}
330
45
100
AcDbXrecord
280
     1
  1
9目地
  1
9*
  1
*
  1
*
 70
     0
  1
*
  1
*
  0
XRECORD
  5
A5
102
{ACAD_REACTORS
330
45
102
}
330
45
100
AcDbXrecord
280
     1
  1
A
  1
A*
  1
*
  1
*
 70
     0
  1
*
  1
*
  0
XRECORD
  5
A6
102
{ACAD_REACTORS
330
45
102
}
330
45
100
AcDbXrecord
280
     1
  1
A-
  1
A-*
  1
*
  1
*
 70
     0
  1
*
  1
*
  0
XRECORD
  5
A7
102
{ACAD_REACTORS
330
45
102
}
330
45
100
AcDbXrecord
280
     1
  1
A(枠･表)を表示
  1
A*
  1
*
  1
*
 70
     0
  1
*
  1
*
  0
XRECORD
  5
A8
102
{ACAD_REACTORS
330
45
102
}
330
45
100
AcDbXrecord
280
     1
  1
A01
  1
*A01*
  1
*
  1
*
 70
     0
  1
*
  1
*
  0
XRECORD
  5
A9
102
{ACAD_REACTORS
330
45
102
}
330
45
100
AcDbXrecord
280
     1
  1
A1.DEMO-KEY NOTE
  1
*-D-*
  1
*
  1
*
 70
     0
  1
*
  1
*
  0
XRECORD
  5
AA
102
{ACAD_REACTORS
330
45
102
}
330
45
100
AcDbXrecord
280
     1
  1
A2. CONS-KEY NOTE
  1
*-C-*
  1
*
  1
*
 70
     0
  1
*
  1
*
  0
XRECORD
  5
AB
102
{ACAD_REACTORS
330
45
102
}
330
45
100
AcDbXrecord
280
     1
  1
A21
  1
*A21*
  1
*
  1
*
 70
     0
  1
*
  1
*
  0
XRECORD
  5
AC
102
{ACAD_REACTORS
330
45
102
}
330
45
100
AcDbXrecord
280
     1
  1
A3
  1
*A3
  1
*
  1
*
 70
     0
  1
*
  1
*
  0
XRECORD
  5
AD
102
{ACAD_REACTORS
330
45
102
}
330
45
100
AcDbXrecord
280
     1
  1
A3. RCP-LAYER
  1
*R-SCH*
  1
*
  1
*
 70
     0
  1
*
  1
*
  0
XRECORD
  5
AE
102
{ACAD_REACTORS
330
45
102
}
330
45
100
AcDbXrecord
280
     1
  1
A3D. RCP_DEMO-KEY NOTE
  1
*-RD-*
  1
*
  1
*
 70
     0
  1
*
  1
*
  0
XRECORD
  5
AF
102
{ACAD_REACTORS
330
45
102
}
330
45
100
AcDbXrecord
280
     1
  1
A4. P&T- KEY NOTE
  1
*T-SCH*
  1
*
  1
*
 70
     0
  1
*
  1
*
  0
XRECORD
  5
B0
102
{ACAD_REACTORS
330
45
102
}
330
45
100
AcDbXrecord
280
     1
  1
A4D. EL_DEMO-KEY NOTE
  1
*-ED-*
  1
*
  1
*
 70
     0
  1
*
  1
*
  0
XRECORD
  5
B1
102
{ACAD_REACTORS
330
45
102
}
330
45
100
AcDbXrecord
280
     1
  1
A5. FINISH-KEY NOTE
  1
*-N-*
  1
*
  1
*
 70
     0
  1
*
  1
*
  0
XRECORD
  5
B2
102
{ACAD_REACTORS
330
45
102
}
330
45
100
AcDbXrecord
280
     1
  1
A6. FURN-KEY NOTE
  1
*-F-*
  1
*
  1
*
 70
     0
  1
*
  1
*
  0
XRECORD
  5
B3
102
{ACAD_REACTORS
330
45
102
}
330
45
100
AcDbXrecord
280
     1
  1
aa
  1
*aa*
  1
*
  1
*
 70
     0
  1
*
  1
*
  0
XRECORD
  5
B4
102
{ACAD_REACTORS
330
45
102
}
330
45
100
AcDbXrecord
280
     1
  1
aaa
  1
*
  1
*
  1
*
 70
     0
  1
*
  1
*
  0
XRECORD
  5
B5
102
{ACAD_REACTORS
330
45
102
}
330
45
100
AcDbXrecord
280
     1
  1
AB棟
  1
ＡＢ棟*
  1
*
  1
*
 70
     0
  1
*
  1
*
  0
XRECORD
  5
B6
102
{ACAD_REACTORS
330
45
102
}
330
45
100
AcDbXrecord
280
     1
  1
ＡＢ棟
  1
ＡＢ棟*
  1
*
  1
*
 70
     0
  1
*
  1
*
  0
XRECORD
  5
B7
102
{ACAD_REACTORS
330
45
102
}
330
45
100
AcDbXrecord
280
     1
  1
ACTIVE
  1
C.*
  1
*
  1
*
 70
     0
  1
*
  1
*
  0
XRECORD
  5
B8
102
{ACAD_REACTORS
330
45
102
}
330
45
100
AcDbXrecord
280
     1
  1
ACTIVE2
  1
B-*
  1
*
  1
*
 70
     0
  1
*
  1
*
  0
XRECORD
  5
B9
102
{ACAD_REACTORS
330
45
102
}
330
45
100
AcDbXrecord
280
     1
  1
ALC
  1
*ALC
  1
*
  1
*
 70
     0
  1
*
  1
*
  0
XRECORD
  5
BA
102
{ACAD_REACTORS
330
45
102
}
330
45
100
AcDbXrecord
280
     1
  1
ALL
  1
*
  1
*
  1
*
 70
     3
  1
*
  1
*
  0
XRECORD
  5
BB
102
{ACAD_REACTORS
330
45
102
}
330
45
100
AcDbXrecord
280
     1
  1
all選択
  1
*
  1
*
  1
*
 70
     0
  1
*
  1
*
  0
XRECORD
  5
BC
102
{ACAD_REACTORS
330
45
102
}
330
45
100
AcDbXrecord
280
     1
  1
AMENAGEMENT
  1
*
  1
*
  1
*
 70
    13
  1
*
  1
*
  0
XRECORD
  5
BD
102
{ACAD_REACTORS
330
45
102
}
330
45
100
AcDbXrecord
280
     1
  1
AQ
  1
AQ*
  1
*
  1
*
 70
     0
  1
*
  1
*
  0
XRECORD
  5
BE
102
{ACAD_REACTORS
330
45
102
}
330
45
100
AcDbXrecord
280
     1
  1
ARBOL
  1
*ARBOL*
  1
*
  1
*
 70
     0
  1
*
  1
*
  0
XRECORD
  5
BF
102
{ACAD_REACTORS
330
45
102
}
330
45
100
AcDbXrecord
280
     1
  1
AREA
  1
*AREA*
  1
*
  1
*
 70
     0
  1
*
  1
*
  0
XRECORD
  5
C0
102
{ACAD_REACTORS
330
45
102
}
330
45
100
AcDbXrecord
280
     1
  1
AREA-SG
  1
*6AREA-SG
  1
6
  1
*
 70
     0
  1
*
  1
*
  0
XRECORD
  5
C1
102
{ACAD_REACTORS
330
45
102
}
330
45
100
AcDbXrecord
280
     1
  1
AS1
  1
*AS1
  1
*
  1
*
 70
     0
  1
*
  1
*
  0
XRECORD
  5
C2
102
{ACAD_REACTORS
330
45
102
}
330
45
100
AcDbXrecord
280
     1
  1
aハッチング
  1
a*
  1
*
  1
*
 70
     0
  1
*
  1
*
  0
XRECORD
  5
C3
102
{ACAD_REACTORS
330
45
102
}
330
45
100
AcDbXrecord
280
     1
  1
A空調
  1
*
  1
*
  1
*
 70
     0
  1
*
  1
KUCYOU
  0
XRECORD
  5
C4
102
{ACAD_REACTORS
330
45
102
}
330
45
100
AcDbXrecord
280
     1
  1
B
  1
B*
  1
*
  1
*
 70
     0
  1
*
  1
*
  0
XRECORD
  5
C5
102
{ACAD_REACTORS
330
45
102
}
330
45
100
AcDbXrecord
280
     1
  1
B(基準)を表示
  1
B*
  1
*
  1
*
 70
     0
  1
*
  1
*
  0
XRECORD
  5
C6
102
{ACAD_REACTORS
330
45
102
}
330
45
100
AcDbXrecord
280
     1
  1
B2
  1
B2*
  1
*
  1
*
 70
     1
  1
*
  1
*
  0
XRECORD
  5
C7
102
{ACAD_REACTORS
330
45
102
}
330
45
100
AcDbXrecord
280
     1
  1
B3
  1
B3*
  1
*
  1
*
 70
     0
  1
*
  1
*
  0
XRECORD
  5
C8
102
{ACAD_REACTORS
330
45
102
}
330
45
100
AcDbXrecord
280
     1
  1
BAL
  1
*BAL
  1
*
  1
*
 70
     0
  1
*
  1
*
  0
XRECORD
  5
C9
102
{ACAD_REACTORS
330
45
102
}
330
45
100
AcDbXrecord
280
     1
  1
baru
  1
*51A
  1
*
  1
*
 70
     0
  1
*
  1
*
  0
XRECORD
  5
CA
102
{ACAD_REACTORS
330
45
102
}
330
45
100
AcDbXrecord
280
     1
  1
baru2
  1
*AS1A
  1
*
  1
*
 70
     0
  1
*
  1
*
  0
XRECORD
  5
CB
102
{ACAD_REACTORS
330
45
102
}
330
45
100
AcDbXrecord
280
     1
  1
BASE
  1
*I4BASE
  1
*
  1
*
 70
     0
  1
*
  1
*
  0
XRECORD
  5
CC
102
{ACAD_REACTORS
330
45
102
}
330
45
100
AcDbXrecord
280
     1
  1
bb
  1
rogarpissu,block
  1
*
  1
*
 70
     0
  1
*
  1
*
  0
XRECORD
  5
CD
102
{ACAD_REACTORS
330
45
102
}
330
45
100
AcDbXrecord
280
     1
  1
bbbb
  1
prova
  1
*
  1
*
 70
    55
  1
*
  1
*
  0
XRECORD
  5
CE
102
{ACAD_REACTORS
330
45
102
}
330
45
100
AcDbXrecord
280
     1
  1
beam
  1
*beam*
  1
*
  1
*
 70
     0
  1
*
  1
*
  0
XRECORD
  5
CF
102
{ACAD_REACTORS
330
45
102
}
330
45
100
AcDbXrecord
280
     1
  1
blocchi
  1
mqa*
  1
*
  1
*
 70
     0
  1
*
  1
*
  0
XRECORD
  5
D0
102
{ACAD_REACTORS
330
45
102
}
330
45
100
AcDbXrecord
280
     1
  1
blue
  1
*
  1
blue
  1
*
 70
     0
  1
*
  1
*
  0
XRECORD
  5
D1
102
{ACAD_REACTORS
330
45
102
}
330
45
100
AcDbXrecord
280
     1
  1
BSM
  1
*BSM*
  1
*
  1
*
 70
     0
  1
*
  1
*
  0
XRECORD
  5
D2
102
{ACAD_REACTORS
330
45
102
}
330
45
100
AcDbXrecord
280
     1
  1
b階段
  1
b*
  1
*
  1
*
 70
     0
  1
*
  1
*
  0
XRECORD
  5
D3
102
{ACAD_REACTORS
330
45
102
}
330
45
100
AcDbXrecord
280
     1
  1
B電気
  1
*
  1
*
  1
*
 70
     0
  1
*
  1
DENKI
  0
XRECORD
  5
D4
102
{ACAD_REACTORS
330
45
102
}
330
45
100
AcDbXrecord
280
     1
  1
c
  1
c*
  1
*
  1
*
 70
    61
  1
*
  1
*
  0
XRECORD
  5
D5
102
{ACAD_REACTORS
330
45
102
}
330
45
100
AcDbXrecord
280
     1
  1
c-block
  1
c-*
  1
*
  1
*
 70
     0
  1
*
  1
*
  0
XRECORD
  5
D6
102
{ACAD_REACTORS
330
45
102
}
330
45
100
AcDbXrecord
280
     1
  1
c-block-2
  1
c-*
  1
*
  1
*
 70
  1024
  1
*
  1
*
  0
XRECORD
  5
D7
102
{ACAD_REACTORS
330
45
102
}
330
45
100
AcDbXrecord
280
     1
  1
C(寸･文･記)を表示
  1
C*
  1
*
  1
*
 70
     0
  1
*
  1
*
  0
XRECORD
  5
D8
102
{ACAD_REACTORS
330
45
102
}
330
45
100
AcDbXrecord
280
     1
  1
cajetin
  1
caj*
  1
*
  1
*
 70
     0
  1
*
  1
*
  0
XRECORD
  5
D9
102
{ACAD_REACTORS
330
45
102
}
330
45
100
AcDbXrecord
280
     1
  1
cc
  1
*
  1
*
  1
*
 70
     0
  1
*
  1
*
  0
XRECORD
  5
DA
102
{ACAD_REACTORS
330
45
102
}
330
45
100
AcDbXrecord
280
     1
  1
CD06
  1
CD06*
  1
*
  1
*
 70
     0
  1
*
  1
*
  0
XRECORD
  5
DB
102
{ACAD_REACTORS
330
45
102
}
330
45
100
AcDbXrecord
280
     1
  1
ＣＤ棟
  1
T15-*
  1
*
  1
*
 70
     0
  1
*
  1
*
  0
XRECORD
  5
DC
102
{ACAD_REACTORS
330
45
102
}
330
45
100
AcDbXrecord
280
     1
  1
ceiling
  1
*ceiling*
  1
*
  1
*
 70
     0
  1
*
  1
*
  0
XRECORD
  5
DD
102
{ACAD_REACTORS
330
45
102
}
330
45
100
AcDbXrecord
280
     1
  1
CEILINGS XREF
  1
*CE-SUSPENDED-CEILINGS
  1
*
  1
*
 70
     0
  1
*
  1
*
  0
XRECORD
  5
DE
102
{ACAD_REACTORS
330
45
102
}
330
45
100
AcDbXrecord
280
     1
  1
CEL
  1
*
  1
*
  1
*
 70
     0
  1
*
  1
*
  0
XRECORD
  5
DF
102
{ACAD_REACTORS
330
45
102
}
330
45
100
AcDbXrecord
280
     1
  1
che
  1
che*
  1
*
  1
*
 70
     0
  1
*
  1
*
  0
XRECORD
  5
E0
102
{ACAD_REACTORS
330
45
102
}
330
45
100
AcDbXrecord
280
     1
  1
chika
  1
2躯体構造体点線
  1
211
  1
*
 70
     0
  1
*
  1
*
  0
XRECORD
  5
E1
102
{ACAD_REACTORS
330
45
102
}
330
45
100
AcDbXrecord
280
     1
  1
CLG
  1
*CLG*
  1
*
  1
*
 70
     0
  1
*
  1
*
  0
XRECORD
  5
E2
102
{ACAD_REACTORS
330
45
102
}
330
45
100
AcDbXrecord
280
     1
  1
COL
  1
*COL*
  1
*
  1
*
 70
     0
  1
*
  1
*
  0
XRECORD
  5
E3
102
{ACAD_REACTORS
330
45
102
}
330
45
100
AcDbXrecord
280
     1
  1
cold beam
  1
*cold*
  1
*
  1
*
 70
     0
  1
*
  1
*
  0
XRECORD
  5
E4
102
{ACAD_REACTORS
330
45
102
}
330
45
100
AcDbXrecord
280
     1
  1
colu
  1
*colu*
  1
*
  1
*
 70
     0
  1
*
  1
*
  0
XRECORD
  5
E5
102
{ACAD_REACTORS
330
45
102
}
330
45
100
AcDbXrecord
280
     1
  1
com
  1
com*
  1
*
  1
*
 70
     0
  1
*
  1
*
  0
XRECORD
  5
E6
102
{ACAD_REACTORS
330
45
102
}
330
45
100
AcDbXrecord
280
     1
  1
con
  1
c-*
  1
*
  1
*
 70
     0
  1
*
  1
*
  0
XRECORD
  5
E7
102
{ACAD_REACTORS
330
45
102
}
330
45
100
AcDbXrecord
280
     1
  1
CRG
  1
tca-6f|*CRG*
  1
*
  1
*
 70
     0
  1
*
  1
*
  0
XRECORD
  5
E8
102
{ACAD_REACTORS
330
45
102
}
330
45
100
AcDbXrecord
280
     1
  1
cyan
  1
*
  1
cyan
  1
*
 70
     0
  1
*
  1
*
  0
XRECORD
  5
E9
102
{ACAD_REACTORS
330
45
102
}
330
45
100
AcDbXrecord
280
     1
  1
C衛生
  1
*
  1
*
  1
*
 70
     0
  1
*
  1
EISEI
  0
XRECORD
  5
EA
102
{ACAD_REACTORS
330
45
102
}
330
45
100
AcDbXrecord
280
     1
  1
C街区関連
  1
*
  1
*
  1
*
 70
  1024
  1
*
  1
*
  0
XRECORD
  5
EB
102
{ACAD_REACTORS
330
45
102
}
330
45
100
AcDbXrecord
280
     1
  1
c雑金物
  1
c*
  1
*
  1
*
 70
     0
  1
*
  1
*
  0
XRECORD
  5
EC
102
{ACAD_REACTORS
330
45
102
}
330
45
100
AcDbXrecord
280
     1
  1
C打計画図
  1
001*,002*,003*,004*,005*,007*,012*,015*,016*,017*,018*,019*,020*,021*,049*,050*,051*,052*,053*,054*,055*,056*,057*,058*,059*,060*,061*,062*,063*,064*,065*,066*,067*,068*,069*,070*,071*,072*,073*,074*,075*
  1
*
  1
*
 70
     0
  1
*
  1
*
  0
XRECORD
  5
ED
102
{ACAD_REACTORS
330
45
102
}
330
45
100
AcDbXrecord
280
     1
  1
D
  1
D*
  1
*
  1
*
 70
     0
  1
*
  1
*
  0
XRECORD
  5
EE
102
{ACAD_REACTORS
330
45
102
}
330
45
100
AcDbXrecord
280
     1
  1
D(表現補助)を表示
  1
D*
  1
*
  1
*
 70
     0
  1
*
  1
*
  0
XRECORD
  5
EF
102
{ACAD_REACTORS
330
45
102
}
330
45
100
AcDbXrecord
280
     1
  1
Ｄ・墓地　施設平面
  1
*も*
  1
*
  1
*
 70
     0
  1
*
  1
*
  0
XRECORD
  5
F0
102
{ACAD_REACTORS
330
45
102
}
330
45
100
AcDbXrecord
280
     1
  1
D16
  1
D16*
  1
*
  1
*
 70
     0
  1
*
  1
*
  0
XRECORD
  5
F1
102
{ACAD_REACTORS
330
45
102
}
330
45
100
AcDbXrecord
280
     1
  1
DASHED
  1
*
  1
*
  1
DASHED
 70
     0
  1
*
  1
*
  0
XRECORD
  5
F2
102
{ACAD_REACTORS
330
45
102
}
330
45
100
AcDbXrecord
280
     1
  1
DASHED2
  1
*
  1
*
  1
DASHED
 70
     0
  1
*
  1
*
  0
XRECORD
  5
F3
102
{ACAD_REACTORS
330
45
102
}
330
45
100
AcDbXrecord
280
     1
  1
DEMO
  1
*DEMO*
  1
*
  1
*
 70
     0
  1
*
  1
*
  0
XRECORD
  5
F4
102
{ACAD_REACTORS
330
45
102
}
330
45
100
AcDbXrecord
280
     1
  1
DEMOLITION
  1
*DEMO*
  1
*
  1
*
 70
     0
  1
*
  1
*
  0
XRECORD
  5
F5
102
{ACAD_REACTORS
330
45
102
}
330
45
100
AcDbXrecord
280
     1
  1
detail
  1
d*
  1
*
  1
*
 70
     0
  1
*
  1
*
  0
XRECORD
  5
F6
102
{ACAD_REACTORS
330
45
102
}
330
45
100
AcDbXrecord
280
     1
  1
details
  1
det-*
  1
*
  1
*
 70
     0
  1
*
  1
*
  0
XRECORD
  5
F7
102
{ACAD_REACTORS
330
45
102
}
330
45
100
AcDbXrecord
280
     1
  1
DHED
  1
*DHED*
  1
*
  1
*
 70
     0
  1
*
  1
*
  0
XRECORD
  5
F8
102
{ACAD_REACTORS
330
45
102
}
330
45
100
AcDbXrecord
280
     1
  1
Dim
  1
*-Dim*
  1
*
  1
*
 70
     0
  1
*
  1
*
  0
XRECORD
  5
F9
102
{ACAD_REACTORS
330
45
102
}
330
45
100
AcDbXrecord
280
     1
  1
disegno
  1
ben*
  1
*
  1
*
 70
     0
  1
*
  1
*
  0
XRECORD
  5
FA
102
{ACAD_REACTORS
330
45
102
}
330
45
100
AcDbXrecord
280
     1
  1
DOORS
  1
*
  1
*
  1
*
 70
     0
  1
*
  1
*
  0
XRECORD
  5
FB
102
{ACAD_REACTORS
330
45
102
}
330
45
100
AcDbXrecord
280
     1
  1
DR
  1
DR*
  1
*
  1
*
 70
     0
  1
*
  1
*
  0
XRECORD
  5
FC
102
{ACAD_REACTORS
330
45
102
}
330
45
100
AcDbXrecord
280
     1
  1
DT
  1
DT*
  1
*
  1
*
 70
     0
  1
*
  1
*
  0
XRECORD
  5
FD
102
{ACAD_REACTORS
330
45
102
}
330
45
100
AcDbXrecord
280
     1
  1
d外構
  1
d*
  1
*
  1
*
 70
     0
  1
*
  1
*
  0
XRECORD
  5
FE
102
{ACAD_REACTORS
330
45
102
}
330
45
100
AcDbXrecord
280
     1
  1
Ｄ街区低木
  1
*て*
  1
*
  1
*
 70
     0
  1
*
  1
*
  0
XRECORD
  5
FF
102
{ACAD_REACTORS
330
45
102
}
330
45
100
AcDbXrecord
280
     1
  1
D割付平面
  1
*わ*
  1
*
  1
*
 70
     0
  1
*
  1
*
  0
XRECORD
  5
100
102
{ACAD_REACTORS
330
45
102
}
330
45
100
AcDbXrecord
280
     1
  1
Ｄ給水設備
  1
*ゆ*
  1
*
  1
*
 70
     0
  1
*
  1
*
  0
XRECORD
  5
101
102
{ACAD_REACTORS
330
45
102
}
330
45
100
AcDbXrecord
280
     1
  1
Ｄ計画高平面
  1
*さ*
  1
*
  1
*
 70
     0
  1
*
  1
*
  0
XRECORD
  5
102
102
{ACAD_REACTORS
330
45
102
}
330
45
100
AcDbXrecord
280
     1
  1
Ｄ計画平面
  1
*け*
  1
*
  1
*
 70
     0
  1
*
  1
*
  0
XRECORD
  5
103
102
{ACAD_REACTORS
330
45
102
}
330
45
100
AcDbXrecord
280
     1
  1
Ｄ工事区分
  1
*ぶ*
  1
*
  1
*
 70
     0
  1
*
  1
*
  0
XRECORD
  5
104
102
{ACAD_REACTORS
330
45
102
}
330
45
100
AcDbXrecord
280
     1
  1
Ｄ高木植栽
  1
*こ*
  1
*
  1
*
 70
     0
  1
*
  1
*
  0
XRECORD
  5
105
102
{ACAD_REACTORS
330
45
102
}
330
45
100
AcDbXrecord
280
     1
  1
Ｄ施設平面
  1
*し*
  1
*
  1
*
 70
     0
  1
*
  1
*
  0
XRECORD
  5
106
102
{ACAD_REACTORS
330
45
102
}
330
45
100
AcDbXrecord
280
     1
  1
Ｄ照明設備
  1
*め*
  1
*
  1
*
 70
     0
  1
*
  1
*
  0
XRECORD
  5
107
102
{ACAD_REACTORS
330
45
102
}
330
45
100
AcDbXrecord
280
     1
  1
Ｄ低木
  1
*て*
  1
*
  1
*
 70
     0
  1
*
  1
*
  0
XRECORD
  5
108
102
{ACAD_REACTORS
330
45
102
}
330
45
100
AcDbXrecord
280
     1
  1
Ｄ電気設備
  1
*で*
  1
*
  1
*
 70
     0
  1
*
  1
*
  0
XRECORD
  5
109
102
{ACAD_REACTORS
330
45
102
}
330
45
100
AcDbXrecord
280
     1
  1
Ｄ土壌改良
  1
*ど*
  1
*
  1
*
 70
     0
  1
*
  1
*
  0
XRECORD
  5
10A
102
{ACAD_REACTORS
330
45
102
}
330
45
100
AcDbXrecord
280
     1
  1
Ｄ排水平面
  1
*は*
  1
*
  1
*
 70
     0
  1
*
  1
*
  0
XRECORD
  5
10B
102
{ACAD_REACTORS
330
45
102
}
330
45
100
AcDbXrecord
280
     1
  1
D舗装平面
  1
*ほ*
  1
*
  1
*
 70
     0
  1
*
  1
*
  0
XRECORD
  5
10C
102
{ACAD_REACTORS
330
45
102
}
330
45
100
AcDbXrecord
280
     1
  1
Ｄ墓地施設平面
  1
*も*
  1
*
  1
*
 70
     0
  1
*
  1
*
  0
XRECORD
  5
10D
102
{ACAD_REACTORS
330
45
102
}
330
45
100
AcDbXrecord
280
     1
  1
D墓地排水
  1
*は*
  1
*
  1
*
 70
     0
  1
*
  1
*
  0
XRECORD
  5
10E
102
{ACAD_REACTORS
330
45
102
}
330
45
100
AcDbXrecord
280
     1
  1
E
  1
*E-*
  1
*
  1
*
 70
     0
  1
*
  1
*
  0
XRECORD
  5
10F
102
{ACAD_REACTORS
330
45
102
}
330
45
100
AcDbXrecord
280
     1
  1
E(点線系)を表示
  1
E*
  1
*
  1
*
 70
     0
  1
*
  1
*
  0
XRECORD
  5
110
102
{ACAD_REACTORS
330
45
102
}
330
45
100
AcDbXrecord
280
     1
  1
EEEE
  1
*
  1
*
  1
*
 70
  1804
  1
*
  1
*
  0
XRECORD
  5
111
102
{ACAD_REACTORS
330
45
102
}
330
45
100
AcDbXrecord
280
     1
  1
EISEI
  1
*4EISEI
  1
4
  1
*
 70
     0
  1
*
  1
*
  0
XRECORD
  5
112
102
{ACAD_REACTORS
330
45
102
}
330
45
100
AcDbXrecord
280
     1
  1
elec
  1
01_elec-tgbt
  1
*
  1
*
 70
     0
  1
*
  1
*
  0
XRECORD
  5
113
102
{ACAD_REACTORS
330
45
102
}
330
45
100
AcDbXrecord
280
     1
  1
ERAS1F
  1
*2ERAS1F
  1
*
  1
*
 70
     0
  1
*
  1
*
  0
XRECORD
  5
114
102
{ACAD_REACTORS
330
45
102
}
330
45
100
AcDbXrecord
280
     1
  1
existing
  1
afl-* 
  1
*
  1
*
 70
     0
  1
*
  1
*
  0
XRECORD
  5
115
102
{ACAD_REACTORS
330
45
102
}
330
45
100
AcDbXrecord
280
     1
  1
Exit
  1
*exit*
  1
*
  1
*
 70
     0
  1
*
  1
*
  0
XRECORD
  5
116
102
{ACAD_REACTORS
330
45
102
}
330
45
100
AcDbXrecord
280
     1
  1
F
  1
F*
  1
*
  1
*
 70
     0
  1
*
  1
*
  0
XRECORD
  5
117
102
{ACAD_REACTORS
330
45
102
}
330
45
100
AcDbXrecord
280
     1
  1
F(断面)を表示
  1
F*
  1
*
  1
*
 70
     0
  1
*
  1
*
  0
XRECORD
  5
118
102
{ACAD_REACTORS
330
45
102
}
330
45
100
AcDbXrecord
280
     1
  1
F1
  1
*
  1
*
  1
*
 70
     0
  1
*
  1
*
  0
XRECORD
  5
119
102
{ACAD_REACTORS
330
45
102
}
330
45
100
AcDbXrecord
280
     1
  1
face4
  1
*face4*
  1
*
  1
*
 70
     0
  1
*
  1
*
  0
XRECORD
  5
11A
102
{ACAD_REACTORS
330
45
102
}
330
45
100
AcDbXrecord
280
     1
  1
FC_CLADDING
  1
*FC*
  1
*
  1
*
 70
     0
  1
*
  1
*
  0
XRECORD
  5
11B
102
{ACAD_REACTORS
330
45
102
}
330
45
100
AcDbXrecord
280
     1
  1
FENCE
  1
*FENCE*
  1
*
  1
*
 70
     0
  1
*
  1
*
  0
XRECORD
  5
11C
102
{ACAD_REACTORS
330
45
102
}
330
45
100
AcDbXrecord
280
     1
  1
FF
  1
*
  1
*
  1
*
 70
     4
  1
*
  1
*
  0
XRECORD
  5
11D
102
{ACAD_REACTORS
330
45
102
}
330
45
100
AcDbXrecord
280
     1
  1
FH
  1
*FH*
  1
*
  1
*
 70
     0
  1
*
  1
*
  0
XRECORD
  5
11E
102
{ACAD_REACTORS
330
45
102
}
330
45
100
AcDbXrecord
280
     1
  1
FILTER1
  1
*
  1
*
  1
*
 70
     0
  1
*
  1
*
  0
XRECORD
  5
11F
102
{ACAD_REACTORS
330
45
102
}
330
45
100
AcDbXrecord
280
     1
  1
fini
  1
*fini*
  1
*
  1
*
 70
     0
  1
*
  1
*
  0
XRECORD
  5
120
102
{ACAD_REACTORS
330
45
102
}
330
45
100
AcDbXrecord
280
     1
  1
finish
  1
n-*
  1
*
  1
*
 70
     0
  1
*
  1
*
  0
XRECORD
  5
121
102
{ACAD_REACTORS
330
45
102
}
330
45
100
AcDbXrecord
280
     1
  1
FIRE
  1
*FIRE*
  1
*
  1
*
 70
     0
  1
*
  1
*
  0
XRECORD
  5
122
102
{ACAD_REACTORS
330
45
102
}
330
45
100
AcDbXrecord
280
     1
  1
fixture
  1
f-*
  1
*
  1
*
 70
     0
  1
*
  1
*
  0
XRECORD
  5
123
102
{ACAD_REACTORS
330
45
102
}
330
45
100
AcDbXrecord
280
     1
  1
fl
  1
*FL*
  1
*
  1
*
 70
     0
  1
*
  1
*
  0
XRECORD
  5
124
102
{ACAD_REACTORS
330
45
102
}
330
45
100
AcDbXrecord
280
     1
  1
Floor
  1
A-Flor*
  1
*
  1
*
 70
     0
  1
*
  1
*
  0
XRECORD
  5
125
102
{ACAD_REACTORS
330
45
102
}
330
45
100
AcDbXrecord
280
     1
  1
FLOOR PLAN
  1
A-FLR-*
  1
*
  1
*
 70
     0
  1
*
  1
*
  0
XRECORD
  5
126
102
{ACAD_REACTORS
330
45
102
}
330
45
100
AcDbXrecord
280
     1
  1
fr
  1
*
  1
*
  1
*
 70
     4
  1
*
  1
*
  0
XRECORD
  5
127
102
{ACAD_REACTORS
330
45
102
}
330
45
100
AcDbXrecord
280
     1
  1
freeze
  1
*
  1
*
  1
*
 70
     4
  1
*
  1
*
  0
XRECORD
  5
128
102
{ACAD_REACTORS
330
45
102
}
330
45
100
AcDbXrecord
280
     1
  1
FRZ
  1
*
  1
*
  1
*
 70
     4
  1
*
  1
*
  0
XRECORD
  5
129
102
{ACAD_REACTORS
330
45
102
}
330
45
100
AcDbXrecord
280
     1
  1
Fugou
  1
*-Fugou*
  1
*
  1
*
 70
     0
  1
*
  1
*
  0
XRECORD
  5
12A
102
{ACAD_REACTORS
330
45
102
}
330
45
100
AcDbXrecord
280
     1
  1
FUGOU-TATEGU
  1
*FUGOU-TATEGU
  1
*
  1
*
 70
     0
  1
*
  1
*
  0
XRECORD
  5
12B
102
{ACAD_REACTORS
330
45
102
}
330
45
100
AcDbXrecord
280
     1
  1
FUKI
  1
*FUKI
  1
*
  1
*
 70
     0
  1
*
  1
*
  0
XRECORD
  5
12C
102
{ACAD_REACTORS
330
45
102
}
330
45
100
AcDbXrecord
280
     1
  1
FURN
  1
*F-*
  1
*
  1
*
 70
     0
  1
*
  1
*
  0
XRECORD
  5
12D
102
{ACAD_REACTORS
330
45
102
}
330
45
100
AcDbXrecord
280
     1
  1
FURNITURE
  1
*FN*
  1
*
  1
*
 70
     0
  1
*
  1
*
  0
XRECORD
  5
12E
102
{ACAD_REACTORS
330
45
102
}
330
45
100
AcDbXrecord
280
     1
  1
FUSE_00
  1
*
  1
*
  1
*
 70
     0
  1
*
  1
*
  0
XRECORD
  5
12F
102
{ACAD_REACTORS
330
45
102
}
330
45
100
AcDbXrecord
280
     1
  1
G
  1
*-G*
  1
*
  1
*
 70
     0
  1
*
  1
*
  0
XRECORD
  5
130
102
{ACAD_REACTORS
330
45
102
}
330
45
100
AcDbXrecord
280
     1
  1
G(開口)を表示
  1
G*
  1
*
  1
*
 70
     0
  1
*
  1
*
  0
XRECORD
  5
131
102
{ACAD_REACTORS
330
45
102
}
330
45
100
AcDbXrecord
280
     1
  1
GAIKOU
  1
*
  1
*
  1
*
 70
     0
  1
*
  1
*
  0
XRECORD
  5
132
102
{ACAD_REACTORS
330
45
102
}
330
45
100
AcDbXrecord
280
     1
  1
gel
  1
*ILLUMI*
  1
*
  1
*
 70
     0
  1
*
  1
*
  0
XRECORD
  5
133
102
{ACAD_REACTORS
330
45
102
}
330
45
100
AcDbXrecord
280
     1
  1
gen
  1
g*,*$*
  1
*
  1
*
 70
     0
  1
*
  1
*
  0
XRECORD
  5
134
102
{ACAD_REACTORS
330
45
102
}
330
45
100
AcDbXrecord
280
     1
  1
gondora
  1
a-gondora*
  1
*
  1
*
 70
     0
  1
*
  1
*
  0
XRECORD
  5
135
102
{ACAD_REACTORS
330
45
102
}
330
45
100
AcDbXrecord
280
     1
  1
green
  1
*
  1
green
  1
*
 70
     0
  1
*
  1
*
  0
XRECORD
  5
136
102
{ACAD_REACTORS
330
45
102
}
330
45
100
AcDbXrecord
280
     1
  1
GRID
  1
G*
  1
*
  1
*
 70
     0
  1
*
  1
*
  0
XRECORD
  5
137
102
{ACAD_REACTORS
330
45
102
}
330
45
100
AcDbXrecord
280
     1
  1
gris
  1
*
  1
*
  1
*
 70
     0
  1
*
  1
*
  0
XRECORD
  5
138
102
{ACAD_REACTORS
330
45
102
}
330
45
100
AcDbXrecord
280
     1
  1
H
  1
00*,01*,02*,03*,05*,06*,1*,2*,3*,4*,5*,6*,8*,D*,
  1
*
  1
*
 70
     0
  1
*
  1
*
  0
XRECORD
  5
139
102
{ACAD_REACTORS
330
45
102
}
330
45
100
AcDbXrecord
280
     1
  1
H-
  1
H-*
  1
*
  1
*
 70
     0
  1
*
  1
*
  0
XRECORD
  5
13A
102
{ACAD_REACTORS
330
45
102
}
330
45
100
AcDbXrecord
280
     1
  1
H-SIN
  1
*H-SIN
  1
*
  1
*
 70
     0
  1
*
  1
*
  0
XRECORD
  5
13B
102
{ACAD_REACTORS
330
45
102
}
330
45
100
AcDbXrecord
280
     1
  1
H(見掛)を表示
  1
H*
  1
*
  1
*
 70
     0
  1
*
  1
*
  0
XRECORD
  5
13C
102
{ACAD_REACTORS
330
45
102
}
330
45
100
AcDbXrecord
280
     1
  1
HA
  1
*HA*
  1
*
  1
*
 70
     0
  1
*
  1
*
  0
XRECORD
  5
13D
102
{ACAD_REACTORS
330
45
102
}
330
45
100
AcDbXrecord
280
     1
  1
haikin
  1
2-*
  1
*
  1
*
 70
     0
  1
*
  1
*
  0
XRECORD
  5
13E
102
{ACAD_REACTORS
330
45
102
}
330
45
100
AcDbXrecord
280
     1
  1
HAISEN
  1
*1,HAISEN
  1
*
  1
*
 70
     0
  1
*
  1
*
  0
XRECORD
  5
13F
102
{ACAD_REACTORS
330
45
102
}
330
45
100
AcDbXrecord
280
     1
  1
HARI
  1
*HARI
  1
*
  1
*
 70
     0
  1
*
  1
*
  0
XRECORD
  5
140
102
{ACAD_REACTORS
330
45
102
}
330
45
100
AcDbXrecord
280
     1
  1
hasira
  1
*hasira*
  1
*
  1
*
 70
     0
  1
*
  1
*
  0
XRECORD
  5
141
102
{ACAD_REACTORS
330
45
102
}
330
45
100
AcDbXrecord
280
     1
  1
HATCH
  1
*HATCH*
  1
*
  1
*
 70
     0
  1
*
  1
*
  0
XRECORD
  5
142
102
{ACAD_REACTORS
330
45
102
}
330
45
100
AcDbXrecord
280
     1
  1
HCP
  1
*HCP*
  1
*
  1
*
 70
     0
  1
*
  1
*
  0
XRECORD
  5
143
102
{ACAD_REACTORS
330
45
102
}
330
45
100
AcDbXrecord
280
     1
  1
HEISHO
  1
4MAJ
  1
*
  1
*
 70
     0
  1
*
  1
*
  0
XRECORD
  5
144
102
{ACAD_REACTORS
330
45
102
}
330
45
100
AcDbXrecord
280
     1
  1
HEISHO2
  1
4MAJ,3CWD,3TAT
  1
*
  1
*
 70
     0
  1
*
  1
*
  0
XRECORD
  5
145
102
{ACAD_REACTORS
330
45
102
}
330
45
100
AcDbXrecord
280
     1
  1
HIDDEN
  1
*
  1
*
  1
HIDDEN
 70
     0
  1
*
  1
*
  0
XRECORD
  5
146
102
{ACAD_REACTORS
330
45
102
}
330
45
100
AcDbXrecord
280
     1
  1
HOJO
  1
*HOJO
  1
*
  1
*
 70
     0
  1
*
  1
*
  0
XRECORD
  5
147
102
{ACAD_REACTORS
330
45
102
}
330
45
100
AcDbXrecord
280
     1
  1
hollywood
  1
*
  1
*
  1
*
 70
    12
  1
*
  1
*
  0
XRECORD
  5
148
102
{ACAD_REACTORS
330
45
102
}
330
45
100
AcDbXrecord
280
     1
  1
HOTEL
  1
*HOT*
  1
*
  1
*
 70
     0
  1
*
  1
*
  0
XRECORD
  5
149
102
{ACAD_REACTORS
330
45
102
}
330
45
100
AcDbXrecord
280
     1
  1
huse
  1
0,defpoints
  1
*
  1
*
 70
     0
  1
*
  1
*
  0
XRECORD
  5
14A
102
{ACAD_REACTORS
330
45
102
}
330
45
100
AcDbXrecord
280
     1
  1
HYOKI
  1
*HYOKI
  1
*
  1
*
 70
     0
  1
*
  1
*
  0
XRECORD
  5
14B
102
{ACAD_REACTORS
330
45
102
}
330
45
100
AcDbXrecord
280
     1
  1
HYOUKI
  1
*
  1
*
  1
*
 70
     0
  1
*
  1
*
  0
XRECORD
  5
14C
102
{ACAD_REACTORS
330
45
102
}
330
45
100
AcDbXrecord
280
     1
  1
i
  1
*
  1
*
  1
*
 70
     0
  1
*
  1
*
  0
XRECORD
  5
14D
102
{ACAD_REACTORS
330
45
102
}
330
45
100
AcDbXrecord
280
     1
  1
I(二次部材系))を表示
  1
I*
  1
*
  1
*
 70
     0
  1
*
  1
*
  0
XRECORD
  5
14E
102
{ACAD_REACTORS
330
45
102
}
330
45
100
AcDbXrecord
280
     1
  1
I2
  1
*I2CL*
  1
*
  1
*
 70
     0
  1
*
  1
*
  0
XRECORD
  5
14F
102
{ACAD_REACTORS
330
45
102
}
330
45
100
AcDbXrecord
280
     1
  1
i2cl
  1
*i2c?*
  1
*
  1
*
 70
     0
  1
*
  1
*
  0
XRECORD
  5
150
102
{ACAD_REACTORS
330
45
102
}
330
45
100
AcDbXrecord
280
     1
  1
i5
  1
*i5*
  1
*
  1
*
 70
     0
  1
*
  1
*
  0
XRECORD
  5
151
102
{ACAD_REACTORS
330
45
102
}
330
45
100
AcDbXrecord
280
     1
  1
i9
  1
*i9*
  1
*
  1
*
 70
     0
  1
*
  1
*
  0
XRECORD
  5
152
102
{ACAD_REACTORS
330
45
102
}
330
45
100
AcDbXrecord
280
     1
  1
in
  1
*
  1
*
  1
*
 70
     4
  1
*
  1
*
  0
XRECORD
  5
153
102
{ACAD_REACTORS
330
45
102
}
330
45
100
AcDbXrecord
280
     1
  1
INSERT図
  1
*
  1
*
  1
*
 70
    12
  1
*
  1
*
  0
XRECORD
  5
154
102
{ACAD_REACTORS
330
45
102
}
330
45
100
AcDbXrecord
280
     1
  1
ISSUE
  1
*-ISSUE1-*
  1
*
  1
*
 70
     0
  1
*
  1
*
  0
XRECORD
  5
155
102
{ACAD_REACTORS
330
45
102
}
330
45
100
AcDbXrecord
280
     1
  1
J
  1
*J*
  1
*
  1
*
 70
     0
  1
*
  1
*
  0
XRECORD
  5
156
102
{ACAD_REACTORS
330
45
102
}
330
45
100
AcDbXrecord
280
     1
  1
K
  1
K*
  1
*
  1
*
 70
     0
  1
*
  1
*
  0
XRECORD
  5
157
102
{ACAD_REACTORS
330
45
102
}
330
45
100
AcDbXrecord
280
     1
  1
KABE
  1
*KABE
  1
*
  1
*
 70
     0
  1
*
  1
*
  0
XRECORD
  5
158
102
{ACAD_REACTORS
330
45
102
}
330
45
100
AcDbXrecord
280
     1
  1
KABESHIN
  1
*A12
  1
*
  1
*
 70
     0
  1
*
  1
*
  0
XRECORD
  5
159
102
{ACAD_REACTORS
330
45
102
}
330
45
100
AcDbXrecord
280
     1
  1
KAGU
  1
*KAGU*
  1
*
  1
*
 70
     0
  1
*
  1
*
  0
XRECORD
  5
15A
102
{ACAD_REACTORS
330
45
102
}
330
45
100
AcDbXrecord
280
     1
  1
key
  1
keyplan
  1
*
  1
*
 70
     0
  1
*
  1
*
  0
XRECORD
  5
15B
102
{ACAD_REACTORS
330
45
102
}
330
45
100
AcDbXrecord
280
     1
  1
KI
  1
KI*
  1
*
  1
*
 70
     0
  1
*
  1
*
  0
XRECORD
  5
15C
102
{ACAD_REACTORS
330
45
102
}
330
45
100
AcDbXrecord
280
     1
  1
KIGO
  1
*KIGO*
  1
*
  1
*
 70
     0
  1
*
  1
*
  0
XRECORD
  5
15D
102
{ACAD_REACTORS
330
45
102
}
330
45
100
AcDbXrecord
280
     1
  1
KIJUN
  1
*KIJUN
  1
*
  1
*
 70
     0
  1
*
  1
*
  0
XRECORD
  5
15E
102
{ACAD_REACTORS
330
45
102
}
330
45
100
AcDbXrecord
280
     1
  1
kiso
  1
f1*
  1
*
  1
*
 70
     0
  1
*
  1
*
  0
XRECORD
  5
15F
102
{ACAD_REACTORS
330
45
102
}
330
45
100
AcDbXrecord
280
     1
  1
KSIN
  1
*2KSIN
  1
21
  1
*
 70
     0
  1
*
  1
*
  0
XRECORD
  5
160
102
{ACAD_REACTORS
330
45
102
}
330
45
100
AcDbXrecord
280
     1
  1
kui
  1
*
  1
*
  1
*
 70
     4
  1
*
  1
*
  0
XRECORD
  5
161
102
{ACAD_REACTORS
330
45
102
}
330
45
100
AcDbXrecord
280
     1
  1
KUTAI
  1
*
  1
*
  1
*
 70
     0
  1
*
  1
*
  0
XRECORD
  5
162
102
{ACAD_REACTORS
330
45
102
}
330
45
100
AcDbXrecord
280
     1
  1
L
  1
L*
  1
*
  1
*
 70
     0
  1
*
  1
*
  0
XRECORD
  5
163
102
{ACAD_REACTORS
330
45
102
}
330
45
100
AcDbXrecord
280
     1
  1
LEGEND
  1
*-C-*
  1
*
  1
*
 70
     0
  1
*
  1
*
  0
XRECORD
  5
164
102
{ACAD_REACTORS
330
45
102
}
330
45
100
AcDbXrecord
280
     1
  1
LGS
  1
*LGS*
  1
*
  1
*
 70
     0
  1
*
  1
*
  0
XRECORD
  5
165
102
{ACAD_REACTORS
330
45
102
}
330
45
100
AcDbXrecord
280
     1
  1
light
  1
*light*
  1
*
  1
*
 70
     0
  1
*
  1
*
  0
XRECORD
  5
166
102
{ACAD_REACTORS
330
45
102
}
330
45
100
AcDbXrecord
280
     1
  1
LIST
  1
*LIST*
  1
*
  1
*
 70
     0
  1
*
  1
*
  0
XRECORD
  5
167
102
{ACAD_REACTORS
330
45
102
}
330
45
100
AcDbXrecord
280
     1
  1
lixo
  1
*
  1
*
  1
*
 70
  3072
  1
*
  1
*
  0
XRECORD
  5
168
102
{ACAD_REACTORS
330
45
102
}
330
45
100
AcDbXrecord
280
     1
  1
LOCK
  1
*
  1
*
  1
*
 70
   256
  1
*
  1
*
  0
XRECORD
  5
169
102
{ACAD_REACTORS
330
45
102
}
330
45
100
AcDbXrecord
280
     1
  1
LTA
  1
*
  1
*
  1
*
 70
   768
  1
*
  1
*
  0
XRECORD
  5
16A
102
{ACAD_REACTORS
330
45
102
}
330
45
100
AcDbXrecord
280
     1
  1
Ｌ建具
  1
L*tategu*
  1
*
  1
*
 70
     0
  1
*
  1
*
  0
XRECORD
  5
16B
102
{ACAD_REACTORS
330
45
102
}
330
45
100
AcDbXrecord
280
     1
  1
M
  1
M*
  1
*
  1
*
 70
     0
  1
*
  1
*
  0
XRECORD
  5
16C
102
{ACAD_REACTORS
330
45
102
}
330
45
100
AcDbXrecord
280
     1
  1
MA
  1
MA*
  1
*
  1
*
 70
     0
  1
*
  1
*
  0
XRECORD
  5
16D
102
{ACAD_REACTORS
330
45
102
}
330
45
100
AcDbXrecord
280
     1
  1
MACONNERIE
  1
*
  1
*
  1
*
 70
     0
  1
*
  1
*
  0
XRECORD
  5
16E
102
{ACAD_REACTORS
330
45
102
}
330
45
100
AcDbXrecord
280
     1
  1
magenta
  1
*
  1
magenta
  1
*
 70
     0
  1
*
  1
*
  0
XRECORD
  5
16F
102
{ACAD_REACTORS
330
45
102
}
330
45
100
AcDbXrecord
280
     1
  1
magenta-bleu
  1
*
  1
magenta,bleu
  1
*
 70
     0
  1
*
  1
*
  0
XRECORD
  5
170
102
{ACAD_REACTORS
330
45
102
}
330
45
100
AcDbXrecord
280
     1
  1
maji
  1
*A12
  1
*
  1
*
 70
     0
  1
*
  1
*
  0
XRECORD
  5
171
102
{ACAD_REACTORS
330
45
102
}
330
45
100
AcDbXrecord
280
     1
  1
MAJIKIRI
  1
*MAJIKIRI
  1
*
  1
*
 70
     0
  1
*
  1
*
  0
XRECORD
  5
172
102
{ACAD_REACTORS
330
45
102
}
330
45
100
AcDbXrecord
280
     1
  1
marco
  1
marco*
  1
*
  1
*
 70
     0
  1
*
  1
*
  0
XRECORD
  5
173
102
{ACAD_REACTORS
330
45
102
}
330
45
100
AcDbXrecord
280
     1
  1
MB
  1
*MB
  1
*
  1
*
 70
     0
  1
*
  1
*
  0
XRECORD
  5
174
102
{ACAD_REACTORS
330
45
102
}
330
45
100
AcDbXrecord
280
     1
  1
meji
  1
*MEJI
  1
*
  1
*
 70
     0
  1
*
  1
*
  0
XRECORD
  5
175
102
{ACAD_REACTORS
330
45
102
}
330
45
100
AcDbXrecord
280
     1
  1
merceologico
  1
mq*
  1
*
  1
*
 70
     0
  1
*
  1
*
  0
XRECORD
  5
176
102
{ACAD_REACTORS
330
45
102
}
330
45
100
AcDbXrecord
280
     1
  1
MILL
  1
*MILL*
  1
*
  1
*
 70
     0
  1
*
  1
*
  0
XRECORD
  5
177
102
{ACAD_REACTORS
330
45
102
}
330
45
100
AcDbXrecord
280
     1
  1
MILLWORK
  1
*mILL*
  1
*
  1
*
 70
     0
  1
*
  1
*
  0
XRECORD
  5
178
102
{ACAD_REACTORS
330
45
102
}
330
45
100
AcDbXrecord
280
     1
  1
miwa
  1
*
  1
*
  1
*
 70
     0
  1
*
  1
*
  0
XRECORD
  5
179
102
{ACAD_REACTORS
330
45
102
}
330
45
100
AcDbXrecord
280
     1
  1
MOJI
  1
*MOJI
  1
*
  1
*
 70
     0
  1
*
  1
*
  0
XRECORD
  5
17A
102
{ACAD_REACTORS
330
45
102
}
330
45
100
AcDbXrecord
280
     1
  1
MOJI100
  1
*5MOJI100
  1
3
  1
*
 70
     0
  1
*
  1
*
  0
XRECORD
  5
17B
102
{ACAD_REACTORS
330
45
102
}
330
45
100
AcDbXrecord
280
     1
  1
N
  1
*N*
  1
*
  1
*
 70
     0
  1
*
  1
*
  0
XRECORD
  5
17C
102
{ACAD_REACTORS
330
45
102
}
330
45
100
AcDbXrecord
280
     1
  1
N-
  1
N-*
  1
*
  1
*
 70
     0
  1
*
  1
*
  0
XRECORD
  5
17D
102
{ACAD_REACTORS
330
45
102
}
330
45
100
AcDbXrecord
280
     1
  1
NAM
  1
*NAM*
  1
*
  1
*
 70
     0
  1
*
  1
*
  0
XRECORD
  5
17E
102
{ACAD_REACTORS
330
45
102
}
330
45
100
AcDbXrecord
280
     1
  1
NEW
  1
*NEW*
  1
*
  1
*
 70
     0
  1
*
  1
*
  0
XRECORD
  5
17F
102
{ACAD_REACTORS
330
45
102
}
330
45
100
AcDbXrecord
280
     1
  1
NHK
  1
N*
  1
*
  1
*
 70
     0
  1
*
  1
*
  0
XRECORD
  5
180
102
{ACAD_REACTORS
330
45
102
}
330
45
100
AcDbXrecord
280
     1
  1
no xref
  1
~*|*
  1
*
  1
*
 70
     0
  1
*
  1
*
  0
XRECORD
  5
181
102
{ACAD_REACTORS
330
45
102
}
330
45
100
AcDbXrecord
280
     1
  1
note
  1
tca-6f|*note*
  1
*
  1
*
 70
     0
  1
*
  1
*
  0
XRECORD
  5
182
102
{ACAD_REACTORS
330
45
102
}
330
45
100
AcDbXrecord
280
     1
  1
NUM
  1
*NUM*
  1
*
  1
*
 70
     0
  1
*
  1
*
  0
XRECORD
  5
183
102
{ACAD_REACTORS
330
45
102
}
330
45
100
AcDbXrecord
280
     1
  1
NUMB
  1
*NUM*
  1
*
  1
*
 70
     0
  1
*
  1
*
  0
XRECORD
  5
184
102
{ACAD_REACTORS
330
45
102
}
330
45
100
AcDbXrecord
280
     1
  1
O
  1
*O*
  1
*
  1
*
 70
     0
  1
*
  1
*
  0
XRECORD
  5
185
102
{ACAD_REACTORS
330
45
102
}
330
45
100
AcDbXrecord
280
     1
  1
OF
  1
*
  1
*
  1
*
 70
     3
  1
*
  1
*
  0
XRECORD
  5
186
102
{ACAD_REACTORS
330
45
102
}
330
45
100
AcDbXrecord
280
     1
  1
OFF
  1
*
  1
*
  1
*
 70
     3
  1
*
  1
*
  0
XRECORD
  5
187
102
{ACAD_REACTORS
330
45
102
}
330
45
100
AcDbXrecord
280
     1
  1
on
  1
*
  1
*
  1
*
 70
    13
  1
*
  1
*
  0
XRECORD
  5
188
102
{ACAD_REACTORS
330
45
102
}
330
45
100
AcDbXrecord
280
     1
  1
option 1
  1
1*
  1
*
  1
*
 70
     0
  1
*
  1
*
  0
XRECORD
  5
189
102
{ACAD_REACTORS
330
45
102
}
330
45
100
AcDbXrecord
280
     1
  1
option 2
  1
2*
  1
*
  1
*
 70
     0
  1
*
  1
*
  0
XRECORD
  5
18A
102
{ACAD_REACTORS
330
45
102
}
330
45
100
AcDbXrecord
280
     1
  1
OUTLINE
  1
T_*|OUTLINE
  1
*
  1
*
 70
     0
  1
*
  1
*
  0
XRECORD
  5
18B
102
{ACAD_REACTORS
330
45
102
}
330
45
100
AcDbXrecord
280
     1
  1
P
  1
*-P*
  1
*
  1
*
 70
     0
  1
*
  1
*
  0
XRECORD
  5
18C
102
{ACAD_REACTORS
330
45
102
}
330
45
100
AcDbXrecord
280
     1
  1
pa
  1
*pa*
  1
*
  1
*
 70
     0
  1
*
  1
*
  0
XRECORD
  5
18D
102
{ACAD_REACTORS
330
45
102
}
330
45
100
AcDbXrecord
280
     1
  1
PALFOND
  1
*
  1
*
  1
*
 70
    13
  1
*
  1
*
  0
XRECORD
  5
18E
102
{ACAD_REACTORS
330
45
102
}
330
45
100
AcDbXrecord
280
     1
  1
PAT
  1
*PAT*
  1
*
  1
*
 70
     0
  1
*
  1
*
  0
XRECORD
  5
18F
102
{ACAD_REACTORS
330
45
102
}
330
45
100
AcDbXrecord
280
     1
  1
PC
  1
PC*
  1
*
  1
*
 70
     0
  1
*
  1
*
  0
XRECORD
  5
190
102
{ACAD_REACTORS
330
45
102
}
330
45
100
AcDbXrecord
280
     1
  1
PISO
  1
*PISO
  1
*
  1
*
 70
     0
  1
*
  1
*
  0
XRECORD
  5
191
102
{ACAD_REACTORS
330
45
102
}
330
45
100
AcDbXrecord
280
     1
  1
PLAN
  1
A*,B*,SITE*
  1
*
  1
*
 70
     0
  1
*
  1
*
  0
XRECORD
  5
192
102
{ACAD_REACTORS
330
45
102
}
330
45
100
AcDbXrecord
280
     1
  1
PLMB
  1
*PLMB*
  1
*
  1
*
 70
     0
  1
*
  1
*
  0
XRECORD
  5
193
102
{ACAD_REACTORS
330
45
102
}
330
45
100
AcDbXrecord
280
     1
  1
plot
  1
*
  1
*
  1
*
 70
     1
  1
*
  1
*
  0
XRECORD
  5
194
102
{ACAD_REACTORS
330
45
102
}
330
45
100
AcDbXrecord
280
     1
  1
PLUMB
  1
*PLUMB*
  1
*
  1
*
 70
     0
  1
*
  1
*
  0
XRECORD
  5
195
102
{ACAD_REACTORS
330
45
102
}
330
45
100
AcDbXrecord
280
     1
  1
PNL
  1
*PNL*
  1
*
  1
*
 70
     0
  1
*
  1
*
  0
XRECORD
  5
196
102
{ACAD_REACTORS
330
45
102
}
330
45
100
AcDbXrecord
280
     1
  1
power
  1
p-*
  1
*
  1
*
 70
     0
  1
*
  1
*
  0
XRECORD
  5
197
102
{ACAD_REACTORS
330
45
102
}
330
45
100
AcDbXrecord
280
     1
  1
PRT
  1
*PRT*
  1
*
  1
*
 70
     0
  1
*
  1
*
  0
XRECORD
  5
198
102
{ACAD_REACTORS
330
45
102
}
330
45
100
AcDbXrecord
280
     1
  1
q
  1
*
  1
*
  1
*
 70
     4
  1
*
  1
*
  0
XRECORD
  5
199
102
{ACAD_REACTORS
330
45
102
}
330
45
100
AcDbXrecord
280
     1
  1
R
  1
R*
  1
*
  1
*
 70
     0
  1
*
  1
*
  0
XRECORD
  5
19A
102
{ACAD_REACTORS
330
45
102
}
330
45
100
AcDbXrecord
280
     1
  1
rack
  1
*rack*
  1
*
  1
*
 70
     0
  1
*
  1
*
  0
XRECORD
  5
19B
102
{ACAD_REACTORS
330
45
102
}
330
45
100
AcDbXrecord
280
     1
  1
RC
  1
*RC
  1
*
  1
*
 70
     0
  1
*
  1
*
  0
XRECORD
  5
19C
102
{ACAD_REACTORS
330
45
102
}
330
45
100
AcDbXrecord
280
     1
  1
RCP
  1
A*,C*
  1
*
  1
*
 70
     0
  1
*
  1
*
  0
XRECORD
  5
19D
102
{ACAD_REACTORS
330
45
102
}
330
45
100
AcDbXrecord
280
     1
  1
rm
  1
*r*
  1
*
  1
*
 70
     0
  1
*
  1
*
  0
XRECORD
  5
19E
102
{ACAD_REACTORS
330
45
102
}
330
45
100
AcDbXrecord
280
     1
  1
RMTAGS
  1
R*
  1
*
  1
*
 70
     0
  1
*
  1
*
  0
XRECORD
  5
19F
102
{ACAD_REACTORS
330
45
102
}
330
45
100
AcDbXrecord
280
     1
  1
RNUM
  1
*NUM*
  1
*
  1
*
 70
     0
  1
*
  1
*
  0
XRECORD
  5
1A0
102
{ACAD_REACTORS
330
45
102
}
330
45
100
AcDbXrecord
280
     1
  1
ROOM
  1
*RM*
  1
*
  1
*
 70
     0
  1
*
  1
*
  0
XRECORD
  5
1A1
102
{ACAD_REACTORS
330
45
102
}
330
45
100
AcDbXrecord
280
     1
  1
roomno
  1
*num*
  1
*
  1
*
 70
     0
  1
*
  1
*
  0
XRECORD
  5
1A2
102
{ACAD_REACTORS
330
45
102
}
330
45
100
AcDbXrecord
280
     1
  1
rouge
  1
*
  1
1
  1
*
 70
     1
  1
*
  1
*
  0
XRECORD
  5
1A3
102
{ACAD_REACTORS
330
45
102
}
330
45
100
AcDbXrecord
280
     1
  1
rtkl
  1
*rtkl*
  1
*
  1
*
 70
     0
  1
*
  1
*
  0
XRECORD
  5
1A4
102
{ACAD_REACTORS
330
45
102
}
330
45
100
AcDbXrecord
280
     1
  1
S
  1
0,05*,11*,12*,13*,14*,20*,21*,22*,55*,56*,
  1
*
  1
*
 70
     0
  1
*
  1
*
  0
XRECORD
  5
1A5
102
{ACAD_REACTORS
330
45
102
}
330
45
100
AcDbXrecord
280
     1
  1
saciencewold
  1
*
  1
*
  1
*
 70
     0
  1
*
  1
*
  0
XRECORD
  5
1A6
102
{ACAD_REACTORS
330
45
102
}
330
45
100
AcDbXrecord
280
     1
  1
SETUBI
  1
*SETUBI
  1
*
  1
*
 70
     0
  1
*
  1
*
  0
XRECORD
  5
1A7
102
{ACAD_REACTORS
330
45
102
}
330
45
100
AcDbXrecord
280
     1
  1
SHITU
  1
*SHITUMEI*
  1
*
  1
*
 70
     0
  1
*
  1
*
  0
XRECORD
  5
1A8
102
{ACAD_REACTORS
330
45
102
}
330
45
100
AcDbXrecord
280
     1
  1
SHITUMEI
  1
*SHITUMEI2
  1
*
  1
*
 70
     0
  1
*
  1
*
  0
XRECORD
  5
1A9
102
{ACAD_REACTORS
330
45
102
}
330
45
100
AcDbXrecord
280
     1
  1
SIAG
  1
*3SIAG
  1
*
  1
*
 70
     0
  1
*
  1
*
  0
XRECORD
  5
1AA
102
{ACAD_REACTORS
330
45
102
}
330
45
100
AcDbXrecord
280
     1
  1
SIAG-N
  1
*3SIAG-N
  1
7
  1
*
 70
     0
  1
*
  1
*
  0
XRECORD
  5
1AB
102
{ACAD_REACTORS
330
45
102
}
330
45
100
AcDbXrecord
280
     1
  1
SIAG3
  1
*3SIAG3
  1
3
  1
*
 70
     0
  1
*
  1
*
  0
XRECORD
  5
1AC
102
{ACAD_REACTORS
330
45
102
}
330
45
100
AcDbXrecord
280
     1
  1
sin
  1
*SIN*
  1
*
  1
*
 70
     0
  1
*
  1
*
  0
XRECORD
  5
1AD
102
{ACAD_REACTORS
330
45
102
}
330
45
100
AcDbXrecord
280
     1
  1
Sinm
  1
*-Sinm*
  1
*
  1
*
 70
     0
  1
*
  1
*
  0
XRECORD
  5
1AE
102
{ACAD_REACTORS
330
45
102
}
330
45
100
AcDbXrecord
280
     1
  1
SITA
  1
*3SITA
  1
*
  1
*
 70
     0
  1
*
  1
*
  0
XRECORD
  5
1AF
102
{ACAD_REACTORS
330
45
102
}
330
45
100
AcDbXrecord
280
     1
  1
siyah
  1
*
  1
*
  1
*
 70
     4
  1
*
  1
siyah
  0
XRECORD
  5
1B0
102
{ACAD_REACTORS
330
45
102
}
330
45
100
AcDbXrecord
280
     1
  1
SS
  1
*SS*
  1
*
  1
*
 70
     0
  1
*
  1
*
  0
XRECORD
  5
1B1
102
{ACAD_REACTORS
330
45
102
}
330
45
100
AcDbXrecord
280
     1
  1
ST
  1
*ST*
  1
*
  1
*
 70
     0
  1
*
  1
*
  0
XRECORD
  5
1B2
102
{ACAD_REACTORS
330
45
102
}
330
45
100
AcDbXrecord
280
     1
  1
STA
  1
STA*
  1
*
  1
*
 70
     0
  1
*
  1
*
  0
XRECORD
  5
1B3
102
{ACAD_REACTORS
330
45
102
}
330
45
100
AcDbXrecord
280
     1
  1
stairs
  1
*sta*
  1
*
  1
*
 70
     0
  1
*
  1
*
  0
XRECORD
  5
1B4
102
{ACAD_REACTORS
330
45
102
}
330
45
100
AcDbXrecord
280
     1
  1
SUGA5
  1
*4SUGA5
  1
5
  1
*
 70
     0
  1
*
  1
*
  0
XRECORD
  5
1B5
102
{ACAD_REACTORS
330
45
102
}
330
45
100
AcDbXrecord
280
     1
  1
SUNP
  1
*5SUNP100
  1
1
  1
*
 70
     0
  1
*
  1
*
  0
XRECORD
  5
1B6
102
{ACAD_REACTORS
330
45
102
}
330
45
100
AcDbXrecord
280
     1
  1
SUNP100
  1
*5SUNP100
  1
*
  1
*
 70
     0
  1
*
  1
*
  0
XRECORD
  5
1B7
102
{ACAD_REACTORS
330
45
102
}
330
45
100
AcDbXrecord
280
     1
  1
T
  1
T*
  1
*
  1
*
 70
     0
  1
*
  1
*
  0
XRECORD
  5
1B8
102
{ACAD_REACTORS
330
45
102
}
330
45
100
AcDbXrecord
280
     1
  1
TAKASA
  1
*
  1
2
  1
*
 70
     0
  1
*
  1
*
  0
XRECORD
  5
1B9
102
{ACAD_REACTORS
330
45
102
}
330
45
100
AcDbXrecord
280
     1
  1
TATE161
  1
*4TATE161
  1
161
  1
*
 70
     0
  1
*
  1
*
  0
XRECORD
  5
1BA
102
{ACAD_REACTORS
330
45
102
}
330
45
100
AcDbXrecord
280
     1
  1
TATEGU
  1
*TATEGU
  1
*
  1
*
 70
     0
  1
*
  1
*
  0
XRECORD
  5
1BB
102
{ACAD_REACTORS
330
45
102
}
330
45
100
AcDbXrecord
280
     1
  1
ten
  1
*ten*
  1
*
  1
*
 70
     0
  1
*
  1
*
  0
XRECORD
  5
1BC
102
{ACAD_REACTORS
330
45
102
}
330
45
100
AcDbXrecord
280
     1
  1
TENJYOU
  1
C-*
  1
*
  1
*
 70
     0
  1
*
  1
*
  0
XRECORD
  5
1BD
102
{ACAD_REACTORS
330
45
102
}
330
45
100
AcDbXrecord
280
     1
  1
TENJYOUNAI
  1
CI-*
  1
*
  1
*
 70
     0
  1
*
  1
*
  0
XRECORD
  5
1BE
102
{ACAD_REACTORS
330
45
102
}
330
45
100
AcDbXrecord
280
     1
  1
test
  1
keyplan
  1
*
  1
*
 70
     0
  1
*
  1
*
  0
XRECORD
  5
1BF
102
{ACAD_REACTORS
330
45
102
}
330
45
100
AcDbXrecord
280
     1
  1
text
  1
*text*
  1
*
  1
*
 70
     0
  1
*
  1
*
  0
XRECORD
  5
1C0
102
{ACAD_REACTORS
330
45
102
}
330
45
100
AcDbXrecord
280
     1
  1
thaw
  1
*
  1
*
  1
*
 70
    12
  1
*
  1
*
  0
XRECORD
  5
1C1
102
{ACAD_REACTORS
330
45
102
}
330
45
100
AcDbXrecord
280
     1
  1
TITL
  1
*8TITL
  1
4
  1
*
 70
     0
  1
*
  1
*
  0
XRECORD
  5
1C2
102
{ACAD_REACTORS
330
45
102
}
330
45
100
AcDbXrecord
280
     1
  1
tnjyou
  1
c-*
  1
*
  1
*
 70
     0
  1
*
  1
*
  0
XRECORD
  5
1C3
102
{ACAD_REACTORS
330
45
102
}
330
45
100
AcDbXrecord
280
     1
  1
tori
  1
*A11
  1
*
  1
*
 70
     0
  1
*
  1
*
  0
XRECORD
  5
1C4
102
{ACAD_REACTORS
330
45
102
}
330
45
100
AcDbXrecord
280
     1
  1
TORISHIN
  1
*A11
  1
*
  1
*
 70
     0
  1
*
  1
*
  0
XRECORD
  5
1C5
102
{ACAD_REACTORS
330
45
102
}
330
45
100
AcDbXrecord
280
     1
  1
tr
  1
*tr*
  1
*
  1
*
 70
     0
  1
*
  1
*
  0
XRECORD
  5
1C6
102
{ACAD_REACTORS
330
45
102
}
330
45
100
AcDbXrecord
280
     1
  1
TSIN
  1
*2TSIN
  1
*
  1
*
 70
     0
  1
*
  1
*
  0
XRECORD
  5
1C7
102
{ACAD_REACTORS
330
45
102
}
330
45
100
AcDbXrecord
280
     1
  1
TXT
  1
*TX*
  1
*
  1
*
 70
     0
  1
*
  1
*
  0
XRECORD
  5
1C8
102
{ACAD_REACTORS
330
45
102
}
330
45
100
AcDbXrecord
280
     1
  1
UNFREEZ
  1
*
  1
*
  1
*
 70
    12
  1
*
  1
*
  0
XRECORD
  5
1C9
102
{ACAD_REACTORS
330
45
102
}
330
45
100
AcDbXrecord
280
     1
  1
UNROCK
  1
*
  1
*
  1
*
 70
   768
  1
*
  1
*
  0
XRECORD
  5
1CA
102
{ACAD_REACTORS
330
45
102
}
330
45
100
AcDbXrecord
280
     1
  1
wada
  1
*
  1
*
  1
*
 70
     0
  1
*
  1
*
  0
XRECORD
  5
1CB
102
{ACAD_REACTORS
330
45
102
}
330
45
100
AcDbXrecord
280
     1
  1
waku
  1
waku
  1
*
  1
*
 70
     0
  1
*
  1
*
  0
XRECORD
  5
1CC
102
{ACAD_REACTORS
330
45
102
}
330
45
100
AcDbXrecord
280
     1
  1
X
  1
*$*$*
  1
*
  1
*
 70
     0
  1
*
  1
*
  0
XRECORD
  5
1CD
102
{ACAD_REACTORS
330
45
102
}
330
45
100
AcDbXrecord
280
     1
  1
X(敷地)を表示
  1
X*
  1
*
  1
*
 70
     0
  1
*
  1
*
  0
XRECORD
  5
1CE
102
{ACAD_REACTORS
330
45
102
}
330
45
100
AcDbXrecord
280
     1
  1
xref
  1
ground*
  1
*
  1
*
 70
     0
  1
*
  1
*
  0
XRECORD
  5
1CF
102
{ACAD_REACTORS
330
45
102
}
330
45
100
AcDbXrecord
280
     1
  1
YAJI
  1
*YAJI*
  1
*
  1
*
 70
     0
  1
*
  1
*
  0
XRECORD
  5
1D0
102
{ACAD_REACTORS
330
45
102
}
330
45
100
AcDbXrecord
280
     1
  1
yellow
  1
*
  1
yellow
  1
*
 70
     0
  1
*
  1
*
  0
XRECORD
  5
1D1
102
{ACAD_REACTORS
330
45
102
}
330
45
100
AcDbXrecord
280
     1
  1
YUKA
  1
F-*
  1
*
  1
*
 70
     0
  1
*
  1
*
  0
XRECORD
  5
1D2
102
{ACAD_REACTORS
330
45
102
}
330
45
100
AcDbXrecord
280
     1
  1
yその他
  1
y*
  1
*
  1
*
 70
     0
  1
*
  1
*
  0
XRECORD
  5
1D3
102
{ACAD_REACTORS
330
45
102
}
330
45
100
AcDbXrecord
280
     1
  1
Z
  1
Z*
  1
*
  1
*
 70
     0
  1
*
  1
*
  0
XRECORD
  5
1D4
102
{ACAD_REACTORS
330
45
102
}
330
45
100
AcDbXrecord
280
     1
  1
ZATU
  1
*ZATU
  1
*
  1
*
 70
     0
  1
*
  1
*
  0
XRECORD
  5
1D5
102
{ACAD_REACTORS
330
45
102
}
330
45
100
AcDbXrecord
280
     1
  1
z図枠
  1
z*
  1
*
  1
*
 70
     0
  1
*
  1
*
  0
XRECORD
  5
1D6
102
{ACAD_REACTORS
330
45
102
}
330
45
100
AcDbXrecord
280
     1
  1
к
  1
к-*
  1
*
  1
*
 70
     0
  1
*
  1
*
  0
XRECORD
  5
1D7
102
{ACAD_REACTORS
330
45
102
}
330
45
100
AcDbXrecord
280
     1
  1
перегородки
  1
*перегород*
  1
*
  1
*
 70
     0
  1
*
  1
*
  0
XRECORD
  5
1D8
102
{ACAD_REACTORS
330
45
102
}
330
45
100
AcDbXrecord
280
     1
  1
イベント給水
  1
*い*
  1
*
  1
*
 70
     0
  1
*
  1
*
  0
XRECORD
  5
1D9
102
{ACAD_REACTORS
330
45
102
}
330
45
100
AcDbXrecord
280
     1
  1
ガラス
  1
*HMOJI
  1
*
  1
*
 70
     0
  1
*
  1
*
  0
XRECORD
  5
1DA
102
{ACAD_REACTORS
330
45
102
}
330
45
100
AcDbXrecord
280
     1
  1
キ-プラン
  1
*HMOJI,*HOJO2,*HOJO4,*SINSEI
  1
*
  1
*
 70
     0
  1
*
  1
*
  0
XRECORD
  5
1DB
102
{ACAD_REACTORS
330
45
102
}
330
45
100
AcDbXrecord
280
     1
  1
キープラン
  1
キープラン*
  1
*
  1
*
 70
     0
  1
*
  1
*
  0
XRECORD
  5
1DC
102
{ACAD_REACTORS
330
45
102
}
330
45
100
AcDbXrecord
280
     1
  1
さーくる
  1
*
  1
*
  1
*
 70
     0
  1
*
  1
*
  0
XRECORD
  5
1DD
102
{ACAD_REACTORS
330
45
102
}
330
45
100
AcDbXrecord
280
     1
  1
シェルター
  1
シェルター*
  1
*
  1
*
 70
     0
  1
*
  1
*
  0
XRECORD
  5
1DE
102
{ACAD_REACTORS
330
45
102
}
330
45
100
AcDbXrecord
280
     1
  1
すべてに反映
  1
*す*
  1
*
  1
*
 70
     0
  1
*
  1
*
  0
XRECORD
  5
1DF
102
{ACAD_REACTORS
330
45
102
}
330
45
100
AcDbXrecord
280
     1
  1
スロープ
  1
SL*
  1
*
  1
*
 70
     0
  1
*
  1
*
  0
XRECORD
  5
1E0
102
{ACAD_REACTORS
330
45
102
}
330
45
100
AcDbXrecord
280
     1
  1
タイル割付平面図
  1
タイル*
  1
*
  1
*
 70
     0
  1
*
  1
*
  0
XRECORD
  5
1E1
102
{ACAD_REACTORS
330
45
102
}
330
45
100
AcDbXrecord
280
     1
  1
ﾃｷｽﾄのみ表示
  1
*NZ5-TEXT
  1
*
  1
*
 70
     0
  1
*
  1
*
  0
XRECORD
  5
1E2
102
{ACAD_REACTORS
330
45
102
}
330
45
100
AcDbXrecord
280
     1
  1
ハッチング
  1
*ハッチング
  1
*
  1
*
 70
     0
  1
*
  1
*
  0
XRECORD
  5
1E3
102
{ACAD_REACTORS
330
45
102
}
330
45
100
AcDbXrecord
280
     1
  1
フリーズ
  1
*
  1
*
  1
*
 70
     4
  1
*
  1
*
  0
XRECORD
  5
1E4
102
{ACAD_REACTORS
330
45
102
}
330
45
100
AcDbXrecord
280
     1
  1
フリーズof
  1
*
  1
*
  1
*
 70
    12
  1
*
  1
*
  0
XRECORD
  5
1E5
102
{ACAD_REACTORS
330
45
102
}
330
45
100
AcDbXrecord
280
     1
  1
ﾌﾘｰｽﾞ画層非表示
  1
*
  1
*
  1
*
 70
    12
  1
*
  1
*
  0
XRECORD
  5
1E6
102
{ACAD_REACTORS
330
45
102
}
330
45
100
AcDbXrecord
280
     1
  1
ﾌﾘｰｽﾞ画面非表示
  1
*
  1
*
  1
*
 70
    12
  1
*
  1
*
  0
XRECORD
  5
1E7
102
{ACAD_REACTORS
330
45
102
}
330
45
100
AcDbXrecord
280
     1
  1
ﾌﾘｰｽﾞ解除
  1
*
  1
*
  1
*
 70
    12
  1
*
  1
*
  0
XRECORD
  5
1E8
102
{ACAD_REACTORS
330
45
102
}
330
45
100
AcDbXrecord
280
     1
  1
フリーズ解除
  1
*
  1
*
  1
*
 70
    12
  1
*
  1
*
  0
XRECORD
  5
1E9
102
{ACAD_REACTORS
330
45
102
}
330
45
100
AcDbXrecord
280
     1
  1
ﾌﾟﾚｾﾞﾝ枠
  1
*|ﾌﾟﾚｾﾞﾝ枠
  1
*
  1
*
 70
     0
  1
*
  1
*
  0
XRECORD
  5
1EA
102
{ACAD_REACTORS
330
45
102
}
330
45
100
AcDbXrecord
280
     1
  1
マーク
  1
*マーク
  1
*
  1
*
 70
     0
  1
*
  1
*
  0
XRECORD
  5
1EB
102
{ACAD_REACTORS
330
45
102
}
330
45
100
AcDbXrecord
280
     1
  1
ﾒｲﾝﾌﾟﾗｻﾞ
  1
*め*
  1
*
  1
*
 70
     0
  1
*
  1
*
  0
XRECORD
  5
1EC
102
{ACAD_REACTORS
330
45
102
}
330
45
100
AcDbXrecord
280
     1
  1
レベル
  1
*た*
  1
*
  1
*
 70
     0
  1
*
  1
*
  0
XRECORD
  5
1ED
102
{ACAD_REACTORS
330
45
102
}
330
45
100
AcDbXrecord
280
     1
  1
ロック
  1
*
  1
*
  1
*
 70
   256
  1
*
  1
*
  0
XRECORD
  5
1EE
102
{ACAD_REACTORS
330
45
102
}
330
45
100
AcDbXrecord
280
     1
  1
一括非表示
  1
*
  1
*
  1
*
 70
     3
  1
*
  1
*
  0
XRECORD
  5
1EF
102
{ACAD_REACTORS
330
45
102
}
330
45
100
AcDbXrecord
280
     1
  1
一般図
  1
hatch
  1
*
  1
*
 70
     7
  1
*
  1
*
  0
XRECORD
  5
1F0
102
{ACAD_REACTORS
330
45
102
}
330
45
100
AcDbXrecord
280
     1
  1
印刷
  1
*
  1
*
  1
*
 70
    13
  1
*
  1
*
  0
XRECORD
  5
1F1
102
{ACAD_REACTORS
330
45
102
}
330
45
100
AcDbXrecord
280
     1
  1
荏原機器
  1
KIKI*
  1
*
  1
*
 70
     0
  1
*
  1
*
  0
XRECORD
  5
1F2
102
{ACAD_REACTORS
330
45
102
}
330
45
100
AcDbXrecord
280
     1
  1
荏原機器基礎
  1
a3*,KIKI*,text*,stage,矢視記号
  1
*
  1
*
 70
     0
  1
*
  1
*
  0
XRECORD
  5
1F3
102
{ACAD_REACTORS
330
45
102
}
330
45
100
AcDbXrecord
280
     1
  1
衛生設備図
  1
001*,002*,004*,005*,007*,010*,039*,040*,041*,042*,043*
  1
*
  1
*
 70
     0
  1
*
  1
*
  0
XRECORD
  5
1F4
102
{ACAD_REACTORS
330
45
102
}
330
45
100
AcDbXrecord
280
     1
  1
黄色
  1
*
  1
YELLOW
  1
*
 70
     0
  1
*
  1
*
  0
XRECORD
  5
1F5
102
{ACAD_REACTORS
330
45
102
}
330
45
100
AcDbXrecord
280
     1
  1
下階
  1
下階*
  1
*
  1
*
 70
     0
  1
*
  1
*
  0
XRECORD
  5
1F6
102
{ACAD_REACTORS
330
45
102
}
330
45
100
AcDbXrecord
280
     1
  1
下地
  1
*-下
  1
*
  1
*
 70
     0
  1
*
  1
*
  0
XRECORD
  5
1F7
102
{ACAD_REACTORS
330
45
102
}
330
45
100
AcDbXrecord
280
     1
  1
外構
  1
外構*
  1
*
  1
*
 70
     0
  1
*
  1
*
  0
XRECORD
  5
1F8
102
{ACAD_REACTORS
330
45
102
}
330
45
100
AcDbXrecord
280
     1
  1
外部参照－建築
  1
A*
  1
9
  1
*
 70
     0
  1
*
  1
*
  0
XRECORD
  5
1F9
102
{ACAD_REACTORS
330
45
102
}
330
45
100
AcDbXrecord
280
     1
  1
外部参照除く
  1
A*
  1
*
  1
*
 70
     0
  1
*
  1
*
  0
XRECORD
  5
1FA
102
{ACAD_REACTORS
330
45
102
}
330
45
100
AcDbXrecord
280
     1
  1
割り付け平面図
  1
*わ*
  1
*
  1
*
 70
     0
  1
*
  1
*
  0
XRECORD
  5
1FB
102
{ACAD_REACTORS
330
45
102
}
330
45
100
AcDbXrecord
280
     1
  1
割付平面図
  1
*わ*
  1
*
  1
*
 70
     0
  1
*
  1
*
  0
XRECORD
  5
1FC
102
{ACAD_REACTORS
330
45
102
}
330
45
100
AcDbXrecord
280
     1
  1
潅水平面
  1
*か*
  1
*
  1
*
 70
     0
  1
*
  1
*
  0
XRECORD
  5
1FD
102
{ACAD_REACTORS
330
45
102
}
330
45
100
AcDbXrecord
280
     1
  1
基
  1
*_基
  1
*
  1
*
 70
     0
  1
*
  1
*
  0
XRECORD
  5
1FE
102
{ACAD_REACTORS
330
45
102
}
330
45
100
AcDbXrecord
280
     1
  1
基準
  1
基*
  1
*
  1
*
 70
     0
  1
*
  1
*
  0
XRECORD
  5
1FF
102
{ACAD_REACTORS
330
45
102
}
330
45
100
AcDbXrecord
280
     1
  1
基準階
  1
*基準*
  1
*
  1
*
 70
     0
  1
*
  1
*
  0
XRECORD
  5
200
102
{ACAD_REACTORS
330
45
102
}
330
45
100
AcDbXrecord
280
     1
  1
基礎OFF
  1
+*
  1
*
  1
*
 70
     0
  1
*
  1
*
  0
XRECORD
  5
201
102
{ACAD_REACTORS
330
45
102
}
330
45
100
AcDbXrecord
280
     1
  1
基礎伏
  1
*
  1
*
  1
*
 70
     0
  1
*
  1
*
  0
XRECORD
  5
202
102
{ACAD_REACTORS
330
45
102
}
330
45
100
AcDbXrecord
280
     1
  1
基礎伏図
  1
SIZE,HOJO,ZATU,HATCH,GL-HARI,GL-HASIRA,KISO,KUI,MOJI-K1,GL-FUGO,SUNPO-K1,SUNPO,SUNPO2,SUNPO1,KIJUN3,KIJUN,SIZE
  1
*
  1
*
 70
     0
  1
*
  1
*
  0
XRECORD
  5
203
102
{ACAD_REACTORS
330
45
102
}
330
45
100
AcDbXrecord
280
     1
  1
基盤改良平面図
  1
*き*
  1
*
  1
*
 70
     0
  1
*
  1
*
  0
XRECORD
  5
204
102
{ACAD_REACTORS
330
45
102
}
330
45
100
AcDbXrecord
280
     1
  1
既存杭
  1
既存杭*
  1
*
  1
*
 70
     0
  1
*
  1
*
  0
XRECORD
  5
205
102
{ACAD_REACTORS
330
45
102
}
330
45
100
AcDbXrecord
280
     1
  1
機器
  1
KIKI*
  1
*
  1
*
 70
     0
  1
*
  1
*
  0
XRECORD
  5
206
102
{ACAD_REACTORS
330
45
102
}
330
45
100
AcDbXrecord
280
     1
  1
機器基礎
  1
a3*,KIKI*,text*,stage,矢視記号
  1
*
  1
*
 70
     0
  1
*
  1
*
  0
XRECORD
  5
207
102
{ACAD_REACTORS
330
45
102
}
330
45
100
AcDbXrecord
280
     1
  1
記号
  1
*記号
  1
*
  1
*
 70
     0
  1
*
  1
*
  0
XRECORD
  5
208
102
{ACAD_REACTORS
330
45
102
}
330
45
100
AcDbXrecord
280
     1
  1
給水設備平面図
  1
*み*
  1
*
  1
*
 70
     0
  1
*
  1
*
  0
XRECORD
  5
209
102
{ACAD_REACTORS
330
45
102
}
330
45
100
AcDbXrecord
280
     1
  1
給水平面
  1
*き*
  1
*
  1
*
 70
     0
  1
*
  1
*
  0
XRECORD
  5
20A
102
{ACAD_REACTORS
330
45
102
}
330
45
100
AcDbXrecord
280
     1
  1
区画
  1
区画*
  1
*
  1
*
 70
     0
  1
*
  1
*
  0
XRECORD
  5
20B
102
{ACAD_REACTORS
330
45
102
}
330
45
100
AcDbXrecord
280
     1
  1
躯体
  1
*A21*
  1
*
  1
*
 70
     0
  1
*
  1
*
  0
XRECORD
  5
20C
102
{ACAD_REACTORS
330
45
102
}
330
45
100
AcDbXrecord
280
     1
  1
躯体図
  1
D*
  1
*
  1
*
 70
     0
  1
*
  1
*
  0
XRECORD
  5
20D
102
{ACAD_REACTORS
330
45
102
}
330
45
100
AcDbXrecord
280
     1
  1
空調jv
  1
00i*
  1
*
  1
*
 70
     0
  1
*
  1
*
  0
XRECORD
  5
20E
102
{ACAD_REACTORS
330
45
102
}
330
45
100
AcDbXrecord
280
     1
  1
空調設備図
  1
001*,002*,004*,005*,007*,010*,033*,034*,035*,036*,037*,038*
  1
*
  1
*
 70
     0
  1
*
  1
*
  0
XRECORD
  5
20F
102
{ACAD_REACTORS
330
45
102
}
330
45
100
AcDbXrecord
280
     1
  1
郡川
  1
kijun,kabe,sunpo
  1
*
  1
*
 70
     3
  1
*
  1
*
  0
XRECORD
  5
210
102
{ACAD_REACTORS
330
45
102
}
330
45
100
AcDbXrecord
280
     1
  1
型枠計画図
  1
001*,002*,003*,004*,005*,006*,007*,010*,012*,050*,051*,055*,056*,057*,058*,059*,060*,061*,062*,063*,064*,065*,066*,067*,068*,069*,070*,071*,072*,073*,074*,075*
  1
*
  1
*
 70
     0
  1
*
  1
*
  0
XRECORD
  5
211
102
{ACAD_REACTORS
330
45
102
}
330
45
100
AcDbXrecord
280
     1
  1
計画高平面図
  1
*く*
  1
*
  1
*
 70
     0
  1
*
  1
*
  0
XRECORD
  5
212
102
{ACAD_REACTORS
330
45
102
}
330
45
100
AcDbXrecord
280
     1
  1
計画平面
  1
*け*
  1
*
  1
*
 70
     0
  1
*
  1
*
  0
XRECORD
  5
213
102
{ACAD_REACTORS
330
45
102
}
330
45
100
AcDbXrecord
280
     1
  1
計画平面図
  1
*け*
  1
*
  1
*
 70
     0
  1
*
  1
*
  0
XRECORD
  5
214
102
{ACAD_REACTORS
330
45
102
}
330
45
100
AcDbXrecord
280
     1
  1
劇場ﾌﾟﾗｻﾞ
  1
*え*
  1
*
  1
*
 70
     0
  1
*
  1
*
  0
XRECORD
  5
215
102
{ACAD_REACTORS
330
45
102
}
330
45
100
AcDbXrecord
280
     1
  1
劇場棟
  1
*げ*
  1
*
  1
*
 70
     0
  1
*
  1
*
  0
XRECORD
  5
216
102
{ACAD_REACTORS
330
45
102
}
330
45
100
AcDbXrecord
280
     1
  1
建具
  1
*-建
  1
*
  1
*
 70
     0
  1
*
  1
*
  0
XRECORD
  5
217
102
{ACAD_REACTORS
330
45
102
}
330
45
100
AcDbXrecord
280
     1
  1
建築接地図
  1
A01*
  1
*
  1
*
 70
     0
  1
*
  1
*
  0
XRECORD
  5
218
102
{ACAD_REACTORS
330
45
102
}
330
45
100
AcDbXrecord
280
     1
  1
見上げ
  1
*U
  1
*
  1
*
 70
     0
  1
*
  1
*
  0
XRECORD
  5
219
102
{ACAD_REACTORS
330
45
102
}
330
45
100
AcDbXrecord
280
     1
  1
現在非表示画層
  1
*
  1
*
  1
*
 70
     3
  1
*
  1
*
  0
XRECORD
  5
21A
102
{ACAD_REACTORS
330
45
102
}
330
45
100
AcDbXrecord
280
     1
  1
光天井
  1
*-光
  1
*
  1
*
 70
     0
  1
*
  1
*
  0
XRECORD
  5
21B
102
{ACAD_REACTORS
330
45
102
}
330
45
100
AcDbXrecord
280
     1
  1
公園
  1
K*
  1
*
  1
*
 70
     0
  1
*
  1
*
  0
XRECORD
  5
21C
102
{ACAD_REACTORS
330
45
102
}
330
45
100
AcDbXrecord
280
     1
  1
工事区分図
  1
*じ*
  1
*
  1
*
 70
     0
  1
*
  1
*
  0
XRECORD
  5
21D
102
{ACAD_REACTORS
330
45
102
}
330
45
100
AcDbXrecord
280
     1
  1
工事区分図AB
  1
*α*
  1
*
  1
*
 70
     0
  1
*
  1
*
  0
XRECORD
  5
21E
102
{ACAD_REACTORS
330
45
102
}
330
45
100
AcDbXrecord
280
     1
  1
工事区分図CD
  1
*β*
  1
*
  1
*
 70
     0
  1
*
  1
*
  0
XRECORD
  5
21F
102
{ACAD_REACTORS
330
45
102
}
330
45
100
AcDbXrecord
280
     1
  1
高さ
  1
204-TEXT,東西道路*
  1
*
  1
*
 70
     0
  1
*
  1
*
  0
XRECORD
  5
220
102
{ACAD_REACTORS
330
45
102
}
330
45
100
AcDbXrecord
280
     1
  1
高木植栽平面
  1
*こ*
  1
*
  1
*
 70
     0
  1
*
  1
*
  0
XRECORD
  5
221
102
{ACAD_REACTORS
330
45
102
}
330
45
100
AcDbXrecord
280
     1
  1
高木平面図
  1
*こ*
  1
*
  1
*
 70
     0
  1
*
  1
*
  0
XRECORD
  5
222
102
{ACAD_REACTORS
330
45
102
}
330
45
100
AcDbXrecord
280
     1
  1
座席のみ
  1
*
  1
*
  1
*
 70
     0
  1
*
  1
*
  0
XRECORD
  5
223
102
{ACAD_REACTORS
330
45
102
}
330
45
100
AcDbXrecord
280
     1
  1
作業
  1
100-*,地区*,
  1
*
  1
*
 70
     1
  1
*
  1
*
  0
XRECORD
  5
224
102
{ACAD_REACTORS
330
45
102
}
330
45
100
AcDbXrecord
280
     1
  1
参考
  1
六*
  1
*
  1
*
 70
     0
  1
*
  1
*
  0
XRECORD
  5
225
102
{ACAD_REACTORS
330
45
102
}
330
45
100
AcDbXrecord
280
     1
  1
山止根切計画図
  1
001*,002*,003*,004*,005*,007*,012*,049*,050*,051*,052*,053*,054*,055*,056*,057*,058*,059*,060*,061*,062*,064*,065*,066*,067*,068*,069*,070*,071*,072*,073*,074*,075*
  1
*
  1
*
 70
     0
  1
*
  1
*
  0
XRECORD
  5
226
102
{ACAD_REACTORS
330
45
102
}
330
45
100
AcDbXrecord
280
     1
  1
仕
  1
*_仕
  1
*
  1
*
 70
     0
  1
*
  1
*
  0
XRECORD
  5
227
102
{ACAD_REACTORS
330
45
102
}
330
45
100
AcDbXrecord
280
     1
  1
仕上
  1
*-2
  1
*
  1
*
 70
     0
  1
*
  1
*
  0
XRECORD
  5
228
102
{ACAD_REACTORS
330
45
102
}
330
45
100
AcDbXrecord
280
     1
  1
仕上図
  1
C*
  1
*
  1
*
 70
     0
  1
*
  1
*
  0
XRECORD
  5
229
102
{ACAD_REACTORS
330
45
102
}
330
45
100
AcDbXrecord
280
     1
  1
使用中
  1
使用中
  1
*
  1
*
 70
     1
  1
*
  1
*
  0
XRECORD
  5
22A
102
{ACAD_REACTORS
330
45
102
}
330
45
100
AcDbXrecord
280
     1
  1
施設配置図
  1
*し*
  1
*
  1
*
 70
     0
  1
*
  1
*
  0
XRECORD
  5
22B
102
{ACAD_REACTORS
330
45
102
}
330
45
100
AcDbXrecord
280
     1
  1
施設平面
  1
*し*
  1
*
  1
*
 70
     0
  1
*
  1
*
  0
XRECORD
  5
22C
102
{ACAD_REACTORS
330
45
102
}
330
45
100
AcDbXrecord
280
     1
  1
施設平面図
  1
*し*
  1
*
  1
*
 70
     0
  1
*
  1
*
  0
XRECORD
  5
22D
102
{ACAD_REACTORS
330
45
102
}
330
45
100
AcDbXrecord
280
     1
  1
紫
  1
*
  1
Magenta
  1
*
 70
     0
  1
*
  1
*
  0
XRECORD
  5
22E
102
{ACAD_REACTORS
330
45
102
}
330
45
100
AcDbXrecord
280
     1
  1
床伏図
  1
*U*,20,Z20,Z22,Z23
  1
*
  1
*
 70
     0
  1
*
  1
*
  0
XRECORD
  5
22F
102
{ACAD_REACTORS
330
45
102
}
330
45
100
AcDbXrecord
280
     1
  1
昇降機
  1
T*
  1
*
  1
*
 70
     0
  1
*
  1
*
  0
XRECORD
  5
230
102
{ACAD_REACTORS
330
45
102
}
330
45
100
AcDbXrecord
280
     1
  1
照明
  1
*ら*,*れ*
  1
*
  1
*
 70
     0
  1
*
  1
*
  0
XRECORD
  5
231
102
{ACAD_REACTORS
330
45
102
}
330
45
100
AcDbXrecord
280
     1
  1
照明Ｃ１
  1
*ら*
  1
*
  1
*
 70
     0
  1
*
  1
*
  0
XRECORD
  5
232
102
{ACAD_REACTORS
330
45
102
}
330
45
100
AcDbXrecord
280
     1
  1
照明Ｃ２
  1
*れ*
  1
*
  1
*
 70
     0
  1
*
  1
*
  0
XRECORD
  5
233
102
{ACAD_REACTORS
330
45
102
}
330
45
100
AcDbXrecord
280
     1
  1
照明配置図
  1
*め*
  1
*
  1
*
 70
     0
  1
*
  1
*
  0
XRECORD
  5
234
102
{ACAD_REACTORS
330
45
102
}
330
45
100
AcDbXrecord
280
     1
  1
詳細
  1
詳細*
  1
*
  1
*
 70
     0
  1
*
  1
*
  0
XRECORD
  5
235
102
{ACAD_REACTORS
330
45
102
}
330
45
100
AcDbXrecord
280
     1
  1
詳細図
  1
*u*,*w*,*y*,*x*,*s*,*V*,06
  1
*
  1
*
 70
     0
  1
*
  1
*
  0
XRECORD
  5
236
102
{ACAD_REACTORS
330
45
102
}
330
45
100
AcDbXrecord
280
     1
  1
上階躯体図
  1
KUTAI-Z,SIZE,HOJO,ZATU,HATCH,BR-S,KABE2,KABE,MAJIKIRI,KOBARI-S,KOBARI-R,HARI-S,HARI-R,HASIRA-S,HASIRA-R,MOJI-K2,FL-FUGO,FUGO-W,SUNPO-K2,SUNPO,SUNPO2,SUNPO1,KIJUN2,KIJUN1,KIJUN,
  1
*
  1
*
 70
     0
  1
*
  1
*
  0
XRECORD
  5
237
102
{ACAD_REACTORS
330
45
102
}
330
45
100
AcDbXrecord
280
     1
  1
植栽
  1
*木*
  1
*
  1
*
 70
     0
  1
*
  1
*
  0
XRECORD
  5
238
102
{ACAD_REACTORS
330
45
102
}
330
45
100
AcDbXrecord
280
     1
  1
植栽基盤平面
  1
*ど*
  1
*
  1
*
 70
     0
  1
*
  1
*
  0
XRECORD
  5
239
102
{ACAD_REACTORS
330
45
102
}
330
45
100
AcDbXrecord
280
     1
  1
植栽現況
  1
*植*
  1
*
  1
*
 70
     0
  1
*
  1
*
  0
XRECORD
  5
23A
102
{ACAD_REACTORS
330
45
102
}
330
45
100
AcDbXrecord
280
     1
  1
植栽高木AB
  1
*λ*
  1
*
  1
*
 70
     0
  1
*
  1
*
  0
XRECORD
  5
23B
102
{ACAD_REACTORS
330
45
102
}
330
45
100
AcDbXrecord
280
     1
  1
植栽高木CD
  1
*ｑ*
  1
*
  1
*
 70
     0
  1
*
  1
*
  0
XRECORD
  5
23C
102
{ACAD_REACTORS
330
45
102
}
330
45
100
AcDbXrecord
280
     1
  1
植栽低木AB
  1
*γ*
  1
*
  1
*
 70
     0
  1
*
  1
*
  0
XRECORD
  5
23D
102
{ACAD_REACTORS
330
45
102
}
330
45
100
AcDbXrecord
280
     1
  1
植栽低木ＣＤ
  1
*Θ*
  1
*
  1
*
 70
     0
  1
*
  1
*
  0
XRECORD
  5
23E
102
{ACAD_REACTORS
330
45
102
}
330
45
100
AcDbXrecord
280
     1
  1
色番号8
  1
*
  1
8
  1
*
 70
     0
  1
*
  1
*
  0
XRECORD
  5
23F
102
{ACAD_REACTORS
330
45
102
}
330
45
100
AcDbXrecord
280
     1
  1
申請用
  1
*あ*,*き*,*グ*,*み*,*オ*,*ピ*,*92*
  1
*
  1
*
 70
     0
  1
*
  1
*
  0
XRECORD
  5
240
102
{ACAD_REACTORS
330
45
102
}
330
45
100
AcDbXrecord
280
     1
  1
芯
  1
*芯
  1
*
  1
*
 70
     0
  1
*
  1
*
  0
XRECORD
  5
241
102
{ACAD_REACTORS
330
45
102
}
330
45
100
AcDbXrecord
280
     1
  1
芯関係
  1
001*,002*,032*
  1
*
  1
*
 70
     0
  1
*
  1
*
  0
XRECORD
  5
242
102
{ACAD_REACTORS
330
45
102
}
330
45
100
AcDbXrecord
280
     1
  1
水
  1
*
  1
cyan
  1
*
 70
     0
  1
*
  1
*
  0
XRECORD
  5
243
102
{ACAD_REACTORS
330
45
102
}
330
45
100
AcDbXrecord
280
     1
  1
水色
  1
*
  1
Cyan
  1
*
 70
     0
  1
*
  1
*
  0
XRECORD
  5
244
102
{ACAD_REACTORS
330
45
102
}
330
45
100
AcDbXrecord
280
     1
  1
寸法
  1
*寸法
  1
*
  1
*
 70
     0
  1
*
  1
*
  0
XRECORD
  5
245
102
{ACAD_REACTORS
330
45
102
}
330
45
100
AcDbXrecord
280
     1
  1
製作
  1
B*
  1
*
  1
*
 70
     0
  1
*
  1
*
  0
XRECORD
  5
246
102
{ACAD_REACTORS
330
45
102
}
330
45
100
AcDbXrecord
280
     1
  1
製作-躯体
  1
BS*
  1
*
  1
*
 70
     0
  1
*
  1
*
  0
XRECORD
  5
247
102
{ACAD_REACTORS
330
45
102
}
330
45
100
AcDbXrecord
280
     1
  1
製作-建築
  1
BD*
  1
*
  1
*
 70
     0
  1
*
  1
*
  0
XRECORD
  5
248
102
{ACAD_REACTORS
330
45
102
}
330
45
100
AcDbXrecord
280
     1
  1
製作-昇降機
  1
BT*
  1
*
  1
*
 70
     0
  1
*
  1
*
  0
XRECORD
  5
249
102
{ACAD_REACTORS
330
45
102
}
330
45
100
AcDbXrecord
280
     1
  1
青
  1
*
  1
blue
  1
*
 70
     0
  1
*
  1
*
  0
XRECORD
  5
24A
102
{ACAD_REACTORS
330
45
102
}
330
45
100
AcDbXrecord
280
     1
  1
設備
  1
E*,P*,M*
  1
*
  1
*
 70
     0
  1
*
  1
*
  0
XRECORD
  5
24B
102
{ACAD_REACTORS
330
45
102
}
330
45
100
AcDbXrecord
280
     1
  1
設備プロット
  1
02*
  1
*
  1
*
 70
     0
  1
*
  1
*
  0
XRECORD
  5
24C
102
{ACAD_REACTORS
330
45
102
}
330
45
100
AcDbXrecord
280
     1
  1
全階平面図
  1
*
  1
*
  1
*
 70
     0
  1
*
  1
*
  0
XRECORD
  5
24D
102
{ACAD_REACTORS
330
45
102
}
330
45
100
AcDbXrecord
280
     1
  1
総合仮設図
  1
001*,002*,003*,004*,005*,007*,012*,015*,016*,017*,018*,019*,020*,021*,049*,050*,051*,052*,053*,054*,055*,056*,057*,058*,059*,060*,061*,062*,063*,064*,065*,066*,067*,068*,069*,070*,071*,072*,073*,074*,075*
  1
*
  1
*
 70
     0
  1
*
  1
*
  0
XRECORD
  5
24E
102
{ACAD_REACTORS
330
45
102
}
330
45
100
AcDbXrecord
280
     1
  1
総合図
  1
*z*,*u*,*w*,*y*,*x*,*V*,06
  1
*
  1
*
 70
     0
  1
*
  1
*
  0
XRECORD
  5
24F
102
{ACAD_REACTORS
330
45
102
}
330
45
100
AcDbXrecord
280
     1
  1
足場計画図
  1
001*,002*,003*,004*,005*,007*,012*,015*,049*,050*,051*,055*,056*,057*,058*,059*,060*,061*,062*,064*,065*,066*,067*,068*,069*,070*,071*,072*,073*,074*,075*
  1
*
  1
*
 70
     0
  1
*
  1
*
  0
XRECORD
  5
250
102
{ACAD_REACTORS
330
45
102
}
330
45
100
AcDbXrecord
280
     1
  1
地下埋設
  1
*ち*
  1
*
  1
*
 70
     0
  1
*
  1
*
  0
XRECORD
  5
251
102
{ACAD_REACTORS
330
45
102
}
330
45
100
AcDbXrecord
280
     1
  1
中野
  1
中野*
  1
*
  1
*
 70
     0
  1
*
  1
*
  0
XRECORD
  5
252
102
{ACAD_REACTORS
330
45
102
}
330
45
100
AcDbXrecord
280
     1
  1
低木植栽平面
  1
*て*
  1
*
  1
*
 70
     0
  1
*
  1
*
  0
XRECORD
  5
253
102
{ACAD_REACTORS
330
45
102
}
330
45
100
AcDbXrecord
280
     1
  1
低木平面図
  1
*て*
  1
*
  1
*
 70
     0
  1
*
  1
*
  0
XRECORD
  5
254
102
{ACAD_REACTORS
330
45
102
}
330
45
100
AcDbXrecord
280
     1
  1
鉄骨
  1
*-1
  1
*
  1
*
 70
     0
  1
*
  1
*
  0
XRECORD
  5
255
102
{ACAD_REACTORS
330
45
102
}
330
45
100
AcDbXrecord
280
     1
  1
鉄骨建方計画図
  1
001*,002*,003*,004*,005*,007*,012*,013*,049*,050*,051*,052*,053*,054*,055*,056*,057*,058*,059*,060*,061*,062*,063*,064*,065*,066*,067*,068*,069*,070*,071*,072*,073*,074*,075*
  1
*
  1
*
 70
     0
  1
*
  1
*
  0
XRECORD
  5
256
102
{ACAD_REACTORS
330
45
102
}
330
45
100
AcDbXrecord
280
     1
  1
天井インサート図
  1
001*,002*,004*,010*,022*,023*,024*,025*,026*,027*,028*,029*,037*,042*
  1
*
  1
*
 70
     0
  1
*
  1
*
  0
XRECORD
  5
257
102
{ACAD_REACTORS
330
45
102
}
330
45
100
AcDbXrecord
280
     1
  1
天井総合図
  1
001*,002*,004*,005*,007*,010*,022*,023*,024*,025*,026*,027*,028*,029*,030*,031*,033*,035*,036*,037*,039*,041*,042*,044*,046*,047*
  1
*
  1
*
 70
     0
  1
*
  1
*
  0
XRECORD
  5
258
102
{ACAD_REACTORS
330
45
102
}
330
45
100
AcDbXrecord
280
     1
  1
天井伏図
  1
0,00*,01*,03*,05*,1*,2*,3*,4*,7*,9*
  1
*
  1
*
 70
     0
  1
*
  1
*
  0
XRECORD
  5
259
102
{ACAD_REACTORS
330
45
102
}
330
45
100
AcDbXrecord
280
     1
  1
天伏
  1
*05
  1
*
  1
*
 70
     0
  1
*
  1
*
  0
XRECORD
  5
25A
102
{ACAD_REACTORS
330
45
102
}
330
45
100
AcDbXrecord
280
     1
  1
電気設備図
  1
001*,002*,004*,005*,007*,010*,030*,031*,044*,045*,046*,047*,048*
  1
*
  1
*
 70
     0
  1
*
  1
*
  0
XRECORD
  5
25B
102
{ACAD_REACTORS
330
45
102
}
330
45
100
AcDbXrecord
280
     1
  1
土壌改良
  1
*ど*
  1
*
  1
*
 70
     0
  1
*
  1
*
  0
XRECORD
  5
25C
102
{ACAD_REACTORS
330
45
102
}
330
45
100
AcDbXrecord
280
     1
  1
土木計画平面図
  1
*^ *,*B*,*0*,*排*,*法*,*ﾊ*,*b*
  1
*
  1
*
 70
     0
  1
*
  1
*
  0
XRECORD
  5
25D
102
{ACAD_REACTORS
330
45
102
}
330
45
100
AcDbXrecord
280
     1
  1
道路
  1
R*
  1
*
  1
*
 70
     0
  1
*
  1
*
  0
XRECORD
  5
25E
102
{ACAD_REACTORS
330
45
102
}
330
45
100
AcDbXrecord
280
     1
  1
道路関係図
  1
001*,002*,003*,004*,007*,012*,015*,016*,017*,018*,019*,020*,021*,049*,050*,051*,052*,053*,054*,055*,056*,057*,058*,059*,060*,061*,062*,063*,064*,065*,066*,067*,068*,069*,070*,071*,072*,073*,074*,075*
  1
*
  1
*
 70
     0
  1
*
  1
*
  0
XRECORD
  5
25F
102
{ACAD_REACTORS
330
45
102
}
330
45
100
AcDbXrecord
280
     1
  1
排水
  1
*は*
  1
*
  1
*
 70
     0
  1
*
  1
*
  0
XRECORD
  5
260
102
{ACAD_REACTORS
330
45
102
}
330
45
100
AcDbXrecord
280
     1
  1
排水設備平面図
  1
*は*
  1
*
  1
*
 70
     0
  1
*
  1
*
  0
XRECORD
  5
261
102
{ACAD_REACTORS
330
45
102
}
330
45
100
AcDbXrecord
280
     1
  1
排水平面
  1
*は*
  1
*
  1
*
 70
     0
  1
*
  1
*
  0
XRECORD
  5
262
102
{ACAD_REACTORS
330
45
102
}
330
45
100
AcDbXrecord
280
     1
  1
配管
  1
PIPE*
  1
*
  1
*
 70
     0
  1
*
  1
*
  0
XRECORD
  5
263
102
{ACAD_REACTORS
330
45
102
}
330
45
100
AcDbXrecord
280
     1
  1
非表示
  1
*
  1
*
  1
*
 70
     3
  1
*
  1
*
  0
XRECORD
  5
264
102
{ACAD_REACTORS
330
45
102
}
330
45
100
AcDbXrecord
280
     1
  1
非表示ﾚｲﾔｰ
  1
*-z
  1
*
  1
*
 70
     0
  1
*
  1
*
  0
XRECORD
  5
265
102
{ACAD_REACTORS
330
45
102
}
330
45
100
AcDbXrecord
280
     1
  1
表示
  1
*
  1
*
  1
*
 70
     1
  1
*
  1
*
  0
XRECORD
  5
266
102
{ACAD_REACTORS
330
45
102
}
330
45
100
AcDbXrecord
280
     1
  1
表示・非表示
  1
*
  1
*
  1
*
 70
     1
  1
*
  1
*
  0
XRECORD
  5
267
102
{ACAD_REACTORS
330
45
102
}
330
45
100
AcDbXrecord
280
     1
  1
表示2
  1
*
  1
*
  1
*
 70
   257
  1
*
  1
*
  0
XRECORD
  5
268
102
{ACAD_REACTORS
330
45
102
}
330
45
100
AcDbXrecord
280
     1
  1
分割枠
  1
枠*
  1
*
  1
*
 70
     0
  1
*
  1
*
  0
XRECORD
  5
269
102
{ACAD_REACTORS
330
45
102
}
330
45
100
AcDbXrecord
280
     1
  1
平面詳細図
  1
SUNPO-S,SIZE,HOJO,ZATU,HATCH,HWAKU,HMOJI,WARITUKE-T,WARITUKE-Y,WARITUKE-K,TATEGU1,TATEGU,BR-S,MAJIKIRI,KABE2,SIAGE,KABE1,KABE,KOBARI-S,KOBARI-R,HARI-S,HARI-R,HASIRA-S,HASIRA-R,MOJI,SHITUMEI,LABEL,FL-FUGO,FUGO-W,SUNPO,SUNPO2,SUNPO1,KIJUN2,KIJUN1,KIJUN
  1
*
  1
*
 70
     0
  1
*
  1
*
  0
XRECORD
  5
26A
102
{ACAD_REACTORS
330
45
102
}
330
45
100
AcDbXrecord
280
     1
  1
平面図
  1
*HMOJI,*HOJO2,*HOJO3,*SINSEI,*FUGOT
  1
*
  1
*
 70
     0
  1
*
  1
*
  0
XRECORD
  5
26B
102
{ACAD_REACTORS
330
45
102
}
330
45
100
AcDbXrecord
280
     1
  1
平面総合図
  1
001*,002*,004*,010*,013*,014*,015*,016*,017*,018*,019*,020*,021*,030*,031*,034*,040*,045*
  1
*
  1
*
 70
     0
  1
*
  1
*
  0
XRECORD
  5
26C
102
{ACAD_REACTORS
330
45
102
}
330
45
100
AcDbXrecord
280
     1
  1
変更分
  1
六*
  1
*
  1
*
 70
     0
  1
*
  1
*
  0
XRECORD
  5
26D
102
{ACAD_REACTORS
330
45
102
}
330
45
100
AcDbXrecord
280
     1
  1
舗装平面
  1
*ほ*
  1
*
  1
*
 70
     0
  1
*
  1
*
  0
XRECORD
  5
26E
102
{ACAD_REACTORS
330
45
102
}
330
45
100
AcDbXrecord
280
     1
  1
舗装平面C1
  1
*α*
  1
*
  1
*
 70
     0
  1
*
  1
*
  0
XRECORD
  5
26F
102
{ACAD_REACTORS
330
45
102
}
330
45
100
AcDbXrecord
280
     1
  1
舗装平面C2
  1
*β*
  1
*
  1
*
 70
     0
  1
*
  1
*
  0
XRECORD
  5
270
102
{ACAD_REACTORS
330
45
102
}
330
45
100
AcDbXrecord
280
     1
  1
舗装平面図
  1
*ほ*
  1
*
  1
*
 70
     0
  1
*
  1
*
  0
XRECORD
  5
271
102
{ACAD_REACTORS
330
45
102
}
330
45
100
AcDbXrecord
280
     1
  1
法規チェック－区画
  1
*92
  1
*
  1
*
 70
     0
  1
*
  1
*
  0
XRECORD
  5
272
102
{ACAD_REACTORS
330
45
102
}
330
45
100
AcDbXrecord
280
     1
  1
法規チェック－範囲
  1
*0
  1
*
  1
*
 70
     0
  1
*
  1
*
  0
XRECORD
  5
273
102
{ACAD_REACTORS
330
45
102
}
330
45
100
AcDbXrecord
280
     1
  1
鳳文字入力
  1
*
  1
*
  1
*
 70
     0
  1
*
  1
*
  0
XRECORD
  5
274
102
{ACAD_REACTORS
330
45
102
}
330
45
100
AcDbXrecord
280
     1
  1
防災
  1
B*
  1
*
  1
*
 70
   768
  1
*
  1
*
  0
XRECORD
  5
275
102
{ACAD_REACTORS
330
45
102
}
330
45
100
AcDbXrecord
280
     1
  1
名称
  1
*名称
  1
*
  1
*
 70
     0
  1
*
  1
*
  0
XRECORD
  5
276
102
{ACAD_REACTORS
330
45
102
}
330
45
100
AcDbXrecord
280
     1
  1
面積
  1
*
  1
*
  1
*
 70
     3
  1
*
  1
*
  0
XRECORD
  5
277
102
{ACAD_REACTORS
330
45
102
}
330
45
100
AcDbXrecord
280
     1
  1
擁壁平面図
  1
*よ*
  1
*
  1
*
 70
     0
  1
*
  1
*
  0
XRECORD
  5
278
102
{ACAD_REACTORS
330
45
102
}
330
45
100
AcDbXrecord
280
     1
  1
用途色塗
  1
*1-*
  1
*
  1
*
 70
     0
  1
*
  1
*
  0
XRECORD
  5
279
102
{ACAD_REACTORS
330
45
102
}
330
45
100
AcDbXrecord
280
     1
  1
立面図
  1
*HOJO2
  1
*
  1
*
 70
     0
  1
*
  1
*
  0
XRECORD
  5
27A
102
{ACAD_REACTORS
330
45
102
}
330
45
100
AcDbXrecord
280
     1
  1
梁
  1
0,08*,17*,梁*
  1
*
  1
*
 70
     0
  1
*
  1
*
  0
XRECORD
  5
27B
102
{ACAD_REACTORS
330
45
102
}
330
45
100
AcDbXrecord
280
     1
  1
緑
  1
*
  1
Green
  1
*
 70
     0
  1
*
  1
*
  0
ENDSEC
  0
EOF
