  0
SECTION
  2
HEADER
  9
$ACADVER
  1
AC1012
  9
$DWGCODEPAGE
  3
dos932
  9
$INSBASE
 10
0.0
 20
0.0
 30
0.0
  9
$EXTMIN
 10
149.437592320912
 20
12.25937321617194
 30
0.0
  9
$EXTMAX
 10
194.4507102225733
 20
62.32311273833504
 30
0.0
  9
$LIMMIN
 10
0.0
 20
0.0
  9
$LIMMAX
 10
42.00000062584877
 20
29.70000044256448
  9
$ORTHOMODE
 70
     1
  9
$REGENMODE
 70
     1
  9
$FILLMODE
 70
     1
  9
$QTEXTMODE
 70
     0
  9
$MIRRTEXT
 70
     1
  9
$DRAGMODE
 70
     2
  9
$LTSCALE
 40
0.1000000014901161
  9
$OSMODE
 70
  3071
  9
$ATTMODE
 70
     1
  9
$TEXTSIZE
 40
0.2
  9
$TRACEWID
 40
0.05
  9
$TEXTSTYLE
  7
STANDARD
  9
$CLAYER
  8
0
  9
$CELTYPE
  6
BYLAYER
  9
$CECOLOR
 62
     1
  9
$CELTSCALE
 40
1.0
  9
$DELOBJ
 70
     1
  9
$DISPSILH
 70
     0
  9
$DIMSCALE
 40
10.0
  9
$DIMASZ
 40
0.18
  9
$DIMEXO
 40
0.0625
  9
$DIMDLI
 40
0.38
  9
$DIMRND
 40
0.0
  9
$DIMDLE
 40
0.0
  9
$DIMEXE
 40
0.18
  9
$DIMTP
 40
0.0
  9
$DIMTM
 40
0.0
  9
$DIMTXT
 40
0.18
  9
$DIMCEN
 40
0.09
  9
$DIMTSZ
 40
0.0
  9
$DIMTOL
 70
     0
  9
$DIMLIM
 70
     0
  9
$DIMTIH
 70
     1
  9
$DIMTOH
 70
     1
  9
$DIMSE1
 70
     0
  9
$DIMSE2
 70
     0
  9
$DIMTAD
 70
     0
  9
$DIMZIN
 70
     0
  9
$DIMBLK
  1

  9
$DIMASO
 70
     1
  9
$DIMSHO
 70
     1
  9
$DIMPOST
  1

  9
$DIMAPOST
  1

  9
$DIMALT
 70
     0
  9
$DIMALTD
 70
     2
  9
$DIMALTF
 40
25.4
  9
$DIMLFAC
 40
1.0
  9
$DIMTOFL
 70
     0
  9
$DIMTVP
 40
0.0
  9
$DIMTIX
 70
     0
  9
$DIMSOXD
 70
     0
  9
$DIMSAH
 70
     0
  9
$DIMBLK1
  1

  9
$DIMBLK2
  1

  9
$DIMSTYLE
  2
STANDARD
  9
$DIMCLRD
 70
     0
  9
$DIMCLRE
 70
     0
  9
$DIMCLRT
 70
     0
  9
$DIMTFAC
 40
1.0
  9
$DIMGAP
 40
0.09
  9
$DIMJUST
 70
     0
  9
$DIMSD1
 70
     0
  9
$DIMSD2
 70
     0
  9
$DIMTOLJ
 70
     1
  9
$DIMTZIN
 70
     0
  9
$DIMALTZ
 70
     0
  9
$DIMALTTZ
 70
     0
  9
$DIMFIT
 70
     3
  9
$DIMUPT
 70
     0
  9
$DIMUNIT
 70
     2
  9
$DIMDEC
 70
     2
  9
$DIMTDEC
 70
     2
  9
$DIMALTU
 70
     2
  9
$DIMALTTD
 70
     2
  9
$DIMTXSTY
  7
STANDARD
  9
$DIMAUNIT
 70
     0
  9
$LUNITS
 70
     2
  9
$LUPREC
 70
     4
  9
$SKETCHINC
 40
0.1
  9
$FILLETRAD
 40
0.1
  9
$AUNITS
 70
     0
  9
$AUPREC
 70
     0
  9
$MENU
  1
.
  9
$ELEVATION
 40
0.0
  9
$PELEVATION
 40
0.0
  9
$THICKNESS
 40
0.0
  9
$LIMCHECK
 70
     0
  9
$BLIPMODE
 70
     0
  9
$CHAMFERA
 40
0.0
  9
$CHAMFERB
 40
0.0
  9
$CHAMFERC
 40
0.0
  9
$CHAMFERD
 40
0.0
  9
$SKPOLY
 70
     0
  9
$TDCREATE
 40
2460347.387530324
  9
$TDUPDATE
 40
2460347.740750555
  9
$TDINDWG
 40
0.0621692708
  9
$TDUSRTIMER
 40
0.0621692708
  9
$USRTIMER
 70
     1
  9
$ANGBASE
 50
0.0
  9
$ANGDIR
 70
     0
  9
$PDMODE
 70
     0
  9
$PDSIZE
 40
0.0
  9
$PLINEWID
 40
0.0
  9
$COORDS
 70
     1
  9
$SPLFRAME
 70
     0
  9
$SPLINETYPE
 70
     6
  9
$SPLINESEGS
 70
     8
  9
$ATTDIA
 70
     0
  9
$ATTREQ
 70
     1
  9
$HANDLING
 70
 10241
  9
$HANDSEED
  5
BB91
  9
$SURFTAB1
 70
     6
  9
$SURFTAB2
 70
     6
  9
$SURFTYPE
 70
     6
  9
$SURFU
 70
     6
  9
$SURFV
 70
     6
  9
$UCSNAME
  2

  9
$UCSORG
 10
0.0
 20
0.0
 30
0.0
  9
$UCSXDIR
 10
1.0
 20
0.0
 30
0.0
  9
$UCSYDIR
 10
0.0
 20
1.0
 30
0.0
  9
$PUCSNAME
  2

  9
$PUCSORG
 10
0.0
 20
0.0
 30
0.0
  9
$PUCSXDIR
 10
1.0
 20
0.0
 30
0.0
  9
$PUCSYDIR
 10
0.0
 20
1.0
 30
0.0
  9
$USERI1
 70
     0
  9
$USERI2
 70
     0
  9
$USERI3
 70
     0
  9
$USERI4
 70
     0
  9
$USERI5
 70
     0
  9
$USERR1
 40
0.0
  9
$USERR2
 40
0.0
  9
$USERR3
 40
0.0
  9
$USERR4
 40
0.0
  9
$USERR5
 40
0.0
  9
$WORLDVIEW
 70
     1
  9
$SHADEDGE
 70
     3
  9
$SHADEDIF
 70
    70
  9
$TILEMODE
 70
     1
  9
$MAXACTVP
 70
    64
  9
$PINSBASE
 10
0.0
 20
0.0
 30
0.0
  9
$PLIMCHECK
 70
     0
  9
$PEXTMIN
 10
1.000000000000000E+20
 20
1.000000000000000E+20
 30
1.000000000000000E+20
  9
$PEXTMAX
 10
-1.000000000000000E+20
 20
-1.000000000000000E+20
 30
-1.000000000000000E+20
  9
$PLIMMIN
 10
0.0
 20
0.0
  9
$PLIMMAX
 10
12.0
 20
9.0
  9
$UNITMODE
 70
     0
  9
$VISRETAIN
 70
     1
  9
$PLINEGEN
 70
     0
  9
$PSLTSCALE
 70
     1
  9
$TREEDEPTH
 70
  3020
  9
$PICKSTYLE
 70
     1
  9
$CMLSTYLE
  2
STANDARD
  9
$CMLJUST
 70
     0
  9
$CMLSCALE
 40
1.0
  9
$SAVEIMAGES
 70
     1
  0
ENDSEC
  0
SECTION
  2
CLASSES
  0
CLASS
  1
ACDBDICTIONARYWDFLT
  2
AcDbDictionaryWithDefault
  3
AutoCAD 2000
 90
    32768
280
     0
281
     0
  0
CLASS
  1
ACDBPLACEHOLDER
  2
AcDbPlaceHolder
  3
AutoCAD 2000
 90
    32768
280
     0
281
     0
  0
CLASS
  1
LAYOUT
  2
AcDbLayout
  3
AutoCAD 2000
 90
    32768
280
     0
281
     0
  0
CLASS
  1
LONG_TRANSACTION
  2
AcDbLongTransaction
  3
AutoCAD 2000
 90
    32768
280
     0
281
     0
  0
CLASS
  1
LWPOLYLINE
  2
AcDbPolyline
  3
AutoCAD 2000
 90
    32768
280
     0
281
     1
  0
CLASS
  1
HATCH
  2
AcDbHatch
  3
AutoCAD 2000
 90
    32768
280
     0
281
     1
  0
CLASS
  1
XRECORD
  2
AcDbXrecord
  3
AutoCAD 2000
 90
    32768
280
     0
281
     0
  0
ENDSEC
  0
SECTION
  2
TABLES
  0
TABLE
  2
VPORT
  5
8
330
0
100
AcDbSymbolTable
 70
     3
  0
VPORT
  5
BB81
330
8
100
AcDbSymbolTableRecord
100
AcDbViewportTableRecord
  2
*ACTIVE
 70
     0
 10
0.0
 20
0.0
 11
1.0
 21
1.0
 12
167.7146654743649
 22
39.99576692220339
 13
0.0
 23
0.0
 14
1.0
 24
1.0
 15
0.0
 25
0.0
 16
0.0
 26
0.0
 36
1.0
 17
0.0
 27
0.0
 37
0.0
 40
111.7706168083157
 41
2.165492957746478
 42
50.0
 43
0.0
 44
0.0
 50
0.0
 51
0.0
 71
     0
 72
   100
 73
     1
 74
     1
 75
     0
 76
     0
 77
     0
 78
     0
  0
ENDTAB
  0
TABLE
  2
LTYPE
  5
5
330
0
100
AcDbSymbolTable
 70
     1
  0
LTYPE
  5
13
330
5
100
AcDbSymbolTableRecord
100
AcDbLinetypeTableRecord
  2
BYBLOCK
 70
     0
  3

 72
    65
 73
     0
 40
0.0
  0
LTYPE
  5
14
330
5
100
AcDbSymbolTableRecord
100
AcDbLinetypeTableRecord
  2
BYLAYER
 70
     0
  3

 72
    65
 73
     0
 40
0.0
  0
LTYPE
  5
15
330
5
100
AcDbSymbolTableRecord
100
AcDbLinetypeTableRecord
  2
CONTINUOUS
 70
     0
  3
実線
 72
    65
 73
     0
 40
0.0
  0
ENDTAB
  0
TABLE
  2
LAYER
  5
2
330
0
100
AcDbSymbolTable
 70
     2
  0
LAYER
  5
10
330
2
100
AcDbSymbolTableRecord
100
AcDbLayerTableRecord
  2
0
 70
     0
 62
     7
  6
CONTINUOUS
  0
LAYER
  5
5B75
330
2
100
AcDbSymbolTableRecord
100
AcDbLayerTableRecord
  2
DEFPOINTS
 70
     0
 62
     7
  6
CONTINUOUS
  0
ENDTAB
  0
TABLE
  2
STYLE
  5
3
330
0
100
AcDbSymbolTable
 70
     1
  0
STYLE
  5
11
330
3
100
AcDbSymbolTableRecord
100
AcDbTextStyleTableRecord
  2
STANDARD
 70
     0
 40
0.0
 41
1.0
 50
0.0
 71
     0
 42
0.2
  3
txt
  4
bigfont.shx
  0
ENDTAB
  0
TABLE
  2
VIEW
  5
6
330
0
100
AcDbSymbolTable
 70
     0
  0
ENDTAB
  0
TABLE
  2
UCS
  5
7
330
0
100
AcDbSymbolTable
 70
     0
  0
ENDTAB
  0
TABLE
  2
APPID
  5
9
330
0
100
AcDbSymbolTable
 70
     1
  0
APPID
  5
12
330
9
100
AcDbSymbolTableRecord
100
AcDbRegAppTableRecord
  2
ACAD
 70
     0
  0
ENDTAB
  0
TABLE
  2
DIMSTYLE
  5
A
330
0
100
AcDbSymbolTable
 70
     1
  0
DIMSTYLE
105
5B72
102
{ACAD_REACTORS
330
BB2B
330
BB43
330
BB51
102
}
330
A
100
AcDbSymbolTableRecord
100
AcDbDimStyleTableRecord
  2
STANDARD
 70
     0
  3

  4

  5

  6

  7

 40
10.0
 41
0.18
 42
0.0625
 43
0.38
 44
0.18
 45
0.0
 46
0.0
 47
0.0
 48
0.0
140
0.18
141
0.09
142
0.0
143
25.4
144
1.0
145
0.0
146
1.0
147
0.09
 71
     0
 72
     0
 73
     1
 74
     1
 75
     0
 76
     0
 77
     0
 78
     0
170
     0
171
     2
172
     0
173
     0
174
     0
175
     0
176
     0
177
     0
178
     0
270
     2
271
     2
272
     2
273
     2
274
     2
340
11
275
     0
280
     0
281
     0
282
     0
283
     1
284
     0
285
     0
286
     0
287
     3
288
     0
  0
ENDTAB
  0
TABLE
  2
BLOCK_RECORD
  5
1
330
0
100
AcDbSymbolTable
 70
     3
  0
BLOCK_RECORD
  5
1E
102
{ACAD_XDICTIONARY
360
BB84
102
}
330
1
100
AcDbSymbolTableRecord
100
AcDbBlockTableRecord
  2
*MODEL_SPACE
  0
BLOCK_RECORD
  5
1A
102
{ACAD_XDICTIONARY
360
BB82
102
}
330
1
100
AcDbSymbolTableRecord
100
AcDbBlockTableRecord
  2
*PAPER_SPACE
  0
BLOCK_RECORD
  5
BB2C
330
1
100
AcDbSymbolTableRecord
100
AcDbBlockTableRecord
  2
*D0
  0
BLOCK_RECORD
  5
BB44
330
1
100
AcDbSymbolTableRecord
100
AcDbBlockTableRecord
  2
*D1
  0
BLOCK_RECORD
  5
BB52
330
1
100
AcDbSymbolTableRecord
100
AcDbBlockTableRecord
  2
*D2
  0
ENDTAB
  0
ENDSEC
  0
SECTION
  2
BLOCKS
  0
BLOCK
  5
1F
330
1E
100
AcDbEntity
  8
0
100
AcDbBlockBegin
  2
*MODEL_SPACE
 70
     0
 10
0.0
 20
0.0
 30
0.0
  3
*MODEL_SPACE
  1

  0
ENDBLK
  5
20
330
1E
100
AcDbEntity
  8
0
100
AcDbBlockEnd
  0
BLOCK
  5
1B
330
1A
100
AcDbEntity
 67
     1
  8
0
100
AcDbBlockBegin
  2
*PAPER_SPACE
 70
     0
 10
0.0
 20
0.0
 30
0.0
  3
*PAPER_SPACE
  1

  0
ENDBLK
  5
1C
330
1A
100
AcDbEntity
 67
     1
  8
0
100
AcDbBlockEnd
  0
BLOCK
  5
BB37
330
BB2C
100
AcDbEntity
  8
0
 62
     1
100
AcDbBlockBegin
  2
*D0
 70
     1
 10
0.0
 20
0.0
 30
0.0
  3
*D0
  1

  0
LINE
  5
BB39
330
BB2C
100
AcDbEntity
  8
0
 62
     0
100
AcDbLine
 10
160.0941512717427
 20
52.91916221177579
 30
0.0
 11
160.0941512717427
 21
62.32311273833504
 31
0.0
  0
LINE
  5
BB3A
330
BB2C
100
AcDbEntity
  8
0
 62
     0
100
AcDbLine
 10
184.0941512717427
 20
52.91916221177579
 30
0.0
 11
184.0941512717427
 21
62.32311273833504
 31
0.0
  0
LINE
  5
BB3B
330
BB2C
100
AcDbEntity
  8
0
 62
     0
100
AcDbLine
 10
161.8941512717427
 20
60.52311273833504
 30
0.0
 11
167.8941512717427
 21
60.52311273833504
 31
0.0
  0
LINE
  5
BB3C
330
BB2C
100
AcDbEntity
  8
0
 62
     0
100
AcDbLine
 10
182.2941512717426
 20
60.52311273833504
 30
0.0
 11
176.2941512717427
 21
60.52311273833504
 31
0.0
  0
SOLID
  5
BB3D
330
BB2C
100
AcDbEntity
  8
0
 62
     0
100
AcDbTrace
 10
161.8941512717427
 20
60.82311273833504
 30
0.0
 11
161.8941512717427
 21
60.22311273833505
 31
0.0
 12
160.0941512717427
 22
60.52311273833504
 32
0.0
 13
160.0941512717427
 23
60.52311273833504
 33
0.0
  0
SOLID
  5
BB3E
330
BB2C
100
AcDbEntity
  8
0
 62
     0
100
AcDbTrace
 10
182.2941512717426
 20
60.82311273833504
 30
0.0
 11
182.2941512717426
 21
60.22311273833505
 31
0.0
 12
184.0941512717427
 22
60.52311273833504
 32
0.0
 13
184.0941512717427
 23
60.52311273833504
 33
0.0
  0
MTEXT
  5
BB3F
330
BB2C
100
AcDbEntity
  8
0
 62
     0
100
AcDbMText
 10
172.0941512717427
 20
60.52311273833504
 30
0.0
 40
1.799999999999999
 41
0.0
 71
     5
 72
     1
  1
\A1;24.00
1001
ACAD
1000
MTEXTBEGIN
1070
    73
1070
     1
1070
    44
1040
1.0
1070
    74
1070
     0
1000
MTEXTEND
  0
POINT
  5
BB40
330
BB2C
100
AcDbEntity
  8
DEFPOINTS
 62
     0
100
AcDbPoint
 10
160.0941512717427
 20
52.29416221177579
 30
0.0
  0
POINT
  5
BB41
330
BB2C
100
AcDbEntity
  8
DEFPOINTS
 62
     0
100
AcDbPoint
 10
184.0941512717427
 20
52.29416221177579
 30
0.0
  0
POINT
  5
BB42
330
BB2C
100
AcDbEntity
  8
DEFPOINTS
 62
     0
100
AcDbPoint
 10
184.0941512717427
 20
60.52311273833504
 30
0.0
  0
ENDBLK
  5
BB38
330
BB2C
100
AcDbEntity
  8
0
 62
     1
100
AcDbBlockEnd
  0
BLOCK
  5
BB4F
330
BB44
100
AcDbEntity
  8
0
 62
     1
100
AcDbBlockBegin
  2
*D1
 70
     1
 10
0.0
 20
0.0
 30
0.0
  3
*D1
  1

  0
LINE
  5
BB45
330
BB44
100
AcDbEntity
  8
0
 62
     0
100
AcDbLine
 10
159.6691512717427
 20
52.4941622117758
 30
0.0
 11
150.937592320912
 21
52.4941622117758
 31
0.0
  0
LINE
  5
BB46
330
BB44
100
AcDbEntity
  8
0
 62
     0
100
AcDbLine
 10
159.4691512717426
 20
25.4941622117758
 30
0.0
 11
150.937592320912
 21
25.4941622117758
 31
0.0
  0
LINE
  5
BB47
330
BB44
100
AcDbEntity
  8
0
 62
     0
100
AcDbLine
 10
152.737592320912
 20
50.6941622117758
 30
0.0
 11
152.737592320912
 21
40.7941622117758
 31
0.0
  0
LINE
  5
BB48
330
BB44
100
AcDbEntity
  8
0
 62
     0
100
AcDbLine
 10
152.737592320912
 20
27.2941622117758
 30
0.0
 11
152.737592320912
 21
37.1941622117758
 31
0.0
  0
SOLID
  5
BB49
330
BB44
100
AcDbEntity
  8
0
 62
     0
100
AcDbTrace
 10
152.437592320912
 20
50.6941622117758
 30
0.0
 11
153.037592320912
 21
50.6941622117758
 31
0.0
 12
152.737592320912
 22
52.4941622117758
 32
0.0
 13
152.737592320912
 23
52.4941622117758
 33
0.0
  0
SOLID
  5
BB4A
330
BB44
100
AcDbEntity
  8
0
 62
     0
100
AcDbTrace
 10
152.437592320912
 20
27.2941622117758
 30
0.0
 11
153.037592320912
 21
27.2941622117758
 31
0.0
 12
152.737592320912
 22
25.4941622117758
 32
0.0
 13
152.737592320912
 23
25.4941622117758
 33
0.0
  0
MTEXT
  5
BB4B
330
BB44
100
AcDbEntity
  8
0
 62
     0
100
AcDbMText
 10
152.737592320912
 20
38.99416221177583
 30
0.0
 40
1.799999999999999
 41
0.0
 71
     5
 72
     1
  1
\A1;27.00
1001
ACAD
1000
MTEXTBEGIN
1070
    73
1070
     1
1070
    44
1040
1.0
1070
    74
1070
     0
1000
MTEXTEND
  0
POINT
  5
BB4C
330
BB44
100
AcDbEntity
  8
DEFPOINTS
 62
     0
100
AcDbPoint
 10
160.2941512717426
 20
52.4941622117758
 30
0.0
  0
POINT
  5
BB4D
330
BB44
100
AcDbEntity
  8
DEFPOINTS
 62
     0
100
AcDbPoint
 10
160.0941512717427
 20
25.4941622117758
 30
0.0
  0
POINT
  5
BB4E
330
BB44
100
AcDbEntity
  8
DEFPOINTS
 62
     0
100
AcDbPoint
 10
152.737592320912
 20
25.4941622117758
 30
0.0
  0
ENDBLK
  5
BB50
330
BB44
100
AcDbEntity
  8
0
 62
     1
100
AcDbBlockEnd
  0
BLOCK
  5
BB5D
330
BB52
100
AcDbEntity
  8
0
 62
     1
100
AcDbBlockBegin
  2
*D2
 70
     1
 10
0.0
 20
0.0
 30
0.0
  3
*D2
  1

  0
LINE
  5
BB69
330
BB52
100
AcDbEntity
  8
0
 62
     0
100
AcDbLine
 10
174.303084821837
 20
37.49419192925113
 30
0.0
 11
193.2507102225733
 21
37.49419192925113
 31
0.0
  0
LINE
  5
BB6A
330
BB52
100
AcDbEntity
  8
0
 62
     0
100
AcDbLine
 10
184.7191512717427
 20
25.4941622117758
 30
0.0
 11
193.2507102225733
 21
25.4941622117758
 31
0.0
  0
LINE
  5
BB6B
330
BB52
100
AcDbEntity
  8
0
 62
     0
100
AcDbLine
 10
191.4507102225733
 20
35.69419192925113
 30
0.0
 11
191.4507102225733
 21
33.29417707051346
 31
0.0
  0
LINE
  5
BB6C
330
BB52
100
AcDbEntity
  8
0
 62
     0
100
AcDbLine
 10
191.4507102225733
 20
27.2941622117758
 30
0.0
 11
191.4507102225733
 21
29.69417707051346
 31
0.0
  0
SOLID
  5
BB6D
330
BB52
100
AcDbEntity
  8
0
 62
     0
100
AcDbTrace
 10
191.1507102225733
 20
35.69419192925113
 30
0.0
 11
191.7507102225733
 21
35.69419192925113
 31
0.0
 12
191.4507102225733
 22
37.49419192925113
 32
0.0
 13
191.4507102225733
 23
37.49419192925113
 33
0.0
  0
SOLID
  5
BB6E
330
BB52
100
AcDbEntity
  8
0
 62
     0
100
AcDbTrace
 10
191.1507102225733
 20
27.2941622117758
 30
0.0
 11
191.7507102225733
 21
27.2941622117758
 31
0.0
 12
191.4507102225733
 22
25.4941622117758
 32
0.0
 13
191.4507102225733
 23
25.4941622117758
 33
0.0
  0
MTEXT
  5
BB6F
330
BB52
100
AcDbEntity
  8
0
 62
     0
100
AcDbMText
 10
191.4507102225733
 20
31.4941770705135
 30
0.0
 40
1.799999999999999
 41
0.0
 71
     5
 72
     1
  1
\A1;12.00
1001
ACAD
1000
MTEXTBEGIN
1070
    73
1070
     1
1070
    44
1040
1.0
1070
    74
1070
     0
1000
MTEXTEND
  0
POINT
  5
BB70
330
BB52
100
AcDbEntity
  8
DEFPOINTS
 62
     0
100
AcDbPoint
 10
173.678084821837
 20
37.49419192925113
 30
0.0
  0
POINT
  5
BB71
330
BB52
100
AcDbEntity
  8
DEFPOINTS
 62
     0
100
AcDbPoint
 10
184.0941512717427
 20
25.4941622117758
 30
0.0
  0
POINT
  5
BB72
330
BB52
100
AcDbEntity
  8
DEFPOINTS
 62
     0
100
AcDbPoint
 10
191.4507102225733
 20
25.4941622117758
 30
0.0
  0
ENDBLK
  5
BB5E
330
BB52
100
AcDbEntity
  8
0
 62
     1
100
AcDbBlockEnd
  0
ENDSEC
  0
SECTION
  2
ENTITIES
  0
LINE
  5
B71D
330
1E
100
AcDbEntity
  8
0
100
AcDbLine
 10
160.0941512717427
 20
25.4941622117758
 30
0.0
 11
162.0941512717427
 21
25.4941622117758
 31
0.0
  0
LINE
  5
B71E
330
1E
100
AcDbEntity
  8
0
 62
     5
100
AcDbLine
 10
184.0941512717427
 20
25.7941622117758
 30
0.0
 11
184.0941512717427
 21
52.29416221177579
 31
0.0
  0
LINE
  5
B71F
330
1E
100
AcDbEntity
  8
0
 62
     5
100
AcDbLine
 10
183.8941512717427
 20
52.4941622117758
 30
0.0
 11
179.7941512717426
 21
52.4941622117758
 31
0.0
  0
LINE
  5
B730
330
1E
100
AcDbEntity
  8
0
 62
     5
100
AcDbLine
 10
179.5941512717426
 20
46.09416221177579
 30
0.0
 11
179.5941512717426
 21
48.2441622117758
 31
0.0
  0
LINE
  5
B740
330
1E
100
AcDbEntity
  8
0
 62
     5
100
AcDbLine
 10
182.2941512717426
 20
45.8941622117758
 30
0.0
 11
179.7941512717426
 21
45.89416221177579
 31
0.0
  0
LINE
  5
B751
330
1E
100
AcDbEntity
  8
0
 62
     5
100
AcDbLine
 10
179.7941512717427
 20
49.9441622117758
 30
0.0
 11
180.6941512717427
 21
49.9441622117758
 31
0.0
  0
LINE
  5
B752
330
1E
100
AcDbEntity
  8
0
 62
     5
100
AcDbLine
 10
179.7941512717426
 20
48.4441622117758
 30
0.0
 11
180.6941512717427
 21
48.4441622117758
 31
0.0
  0
LINE
  5
B7AC
330
1E
100
AcDbEntity
  8
0
 62
     5
100
AcDbLine
 10
179.5941512717427
 20
50.1441622117758
 30
0.0
 11
179.5941512717426
 21
52.29416221177579
 31
0.0
  0
LINE
  5
B7B0
330
1E
100
AcDbEntity
  8
0
 62
     5
100
AcDbLine
 10
181.9941512717427
 20
48.19416221177583
 30
0.0
 11
182.2941512717427
 21
48.19416221177577
 31
0.0
  0
LINE
  5
B7B1
330
1E
100
AcDbEntity
  8
0
 62
     5
100
AcDbLine
 10
182.3941512717427
 20
48.29416221177577
 30
0.0
 11
182.3941512717427
 21
50.09416221177581
 31
0.0
  0
LINE
  5
B7B2
330
1E
100
AcDbEntity
  8
0
 62
     5
100
AcDbLine
 10
182.2941512717426
 20
50.19416221177581
 30
0.0
 11
181.9941512717427
 21
50.19416221177581
 31
0.0
  0
LINE
  5
B7B4
330
1E
100
AcDbEntity
  8
0
 62
     5
100
AcDbLine
 10
180.8941512717427
 20
48.2441622117758
 30
0.0
 11
180.8941512717427
 21
47.3941622117758
 31
0.0
  0
LINE
  5
B7B5
330
1E
100
AcDbEntity
  8
0
 62
     5
100
AcDbLine
 10
181.0941512717427
 20
47.1941622117758
 30
0.0
 11
181.6941512717427
 21
47.1941622117758
 31
0.0
  0
LINE
  5
B7B6
330
1E
100
AcDbEntity
  8
0
 62
     5
100
AcDbLine
 10
181.8941512717427
 20
47.3941622117758
 30
0.0
 11
181.8941512717427
 21
48.09416221177583
 31
0.0
  0
LINE
  5
B7B7
330
1E
100
AcDbEntity
  8
0
 62
     5
100
AcDbLine
 10
181.8941512717427
 20
50.29416221177581
 30
0.0
 11
181.8941512717427
 21
50.9941622117758
 31
0.0
  0
LINE
  5
B7B8
330
1E
100
AcDbEntity
  8
0
 62
     5
100
AcDbLine
 10
181.6941512717427
 20
51.1941622117758
 30
0.0
 11
181.0941512717427
 21
51.1941622117758
 31
0.0
  0
LINE
  5
B7B9
330
1E
100
AcDbEntity
  8
0
 62
     5
100
AcDbLine
 10
180.8941512717427
 20
50.9941622117758
 30
0.0
 11
180.8941512717427
 21
50.1441622117758
 31
0.0
  0
LINE
  5
B7BA
330
1E
100
AcDbEntity
  8
0
 62
     5
100
AcDbLine
 10
182.2941512717426
 20
33.6941622117758
 30
0.0
 11
182.2941512717426
 21
45.8941622117758
 31
0.0
  0
ARC
  5
B7BB
330
1E
100
AcDbEntity
  8
0
 62
     5
100
AcDbCircle
 10
179.7941512717426
 20
52.29416221177579
 30
0.0
 40
0.2
100
AcDbArc
 50
90.0
 51
180.0
  0
ARC
  5
B7BC
330
1E
100
AcDbEntity
  8
0
 62
     5
100
AcDbCircle
 10
183.8941512717427
 20
52.29416221177579
 30
0.0
 40
0.2
100
AcDbArc
 50
0.0
 51
90.0
  0
ARC
  5
B7BD
330
1E
100
AcDbEntity
  8
0
 62
     5
100
AcDbCircle
 10
179.7941512717427
 20
50.1441622117758
 30
0.0
 40
0.2
100
AcDbArc
 50
180.0
 51
270.0
  0
ARC
  5
B7BE
330
1E
100
AcDbEntity
  8
0
 62
     5
100
AcDbCircle
 10
179.7941512717426
 20
48.2441622117758
 30
0.0
 40
0.2
100
AcDbArc
 50
90.0
 51
180.0000000000006
  0
ARC
  5
B7BF
330
1E
100
AcDbEntity
  8
0
 62
     5
100
AcDbCircle
 10
179.7941512717426
 20
46.09416221177579
 30
0.0
 40
0.2
100
AcDbArc
 50
180.0000000000006
 51
270.0
  0
ARC
  5
B7C0
330
1E
100
AcDbEntity
  8
0
 62
     5
100
AcDbCircle
 10
181.0941512717427
 20
47.3941622117758
 30
0.0
 40
0.2
100
AcDbArc
 50
180.0
 51
270.0
  0
ARC
  5
B7C1
330
1E
100
AcDbEntity
  8
0
 62
     5
100
AcDbCircle
 10
181.6941512717427
 20
47.3941622117758
 30
0.0
 40
0.2
100
AcDbArc
 50
270.0
 51
0.0
  0
ARC
  5
B7C2
330
1E
100
AcDbEntity
  8
0
 62
     5
100
AcDbCircle
 10
180.6941512717427
 20
48.2441622117758
 30
0.0
 40
0.2
100
AcDbArc
 50
0.0
 51
90.0
  0
ARC
  5
B7C5
330
1E
100
AcDbEntity
  8
0
 62
     5
100
AcDbCircle
 10
180.6941512717427
 20
50.1441622117758
 30
0.0
 40
0.2
100
AcDbArc
 50
270.0
 51
0.0
  0
ARC
  5
B7C6
330
1E
100
AcDbEntity
  8
0
 62
     5
100
AcDbCircle
 10
181.0941512717427
 20
50.9941622117758
 30
0.0
 40
0.2
100
AcDbArc
 50
90.0
 51
180.0
  0
ARC
  5
B7C7
330
1E
100
AcDbEntity
  8
0
 62
     5
100
AcDbCircle
 10
181.6941512717427
 20
50.9941622117758
 30
0.0
 40
0.2
100
AcDbArc
 50
0.0
 51
90.0
  0
ARC
  5
B7C9
330
1E
100
AcDbEntity
  8
0
 62
     5
100
AcDbCircle
 10
182.2941512717426
 20
50.09416221177581
 30
0.0
 40
0.1
100
AcDbArc
 50
0.0
 51
89.99999999999864
  0
ARC
  5
B7CA
330
1E
100
AcDbEntity
  8
0
 62
     5
100
AcDbCircle
 10
182.2941512717427
 20
48.29416221177577
 30
0.0
 40
0.1
100
AcDbArc
 50
269.9999999999918
 51
0.0000000000009542
  0
ARC
  5
B7CB
330
1E
100
AcDbEntity
  8
0
 62
     5
100
AcDbCircle
 10
181.9941512717427
 20
48.09416221177583
 30
0.0
 40
0.1
100
AcDbArc
 50
89.99999999998982
 51
180.0
  0
ARC
  5
B7CC
330
1E
100
AcDbEntity
  8
0
 62
     5
100
AcDbCircle
 10
181.9941512717427
 20
50.29416221177581
 30
0.0
 40
0.1
100
AcDbArc
 50
180.0
 51
270.0
  0
LINE
  5
B7F3
330
1E
100
AcDbEntity
  8
0
100
AcDbLine
 10
161.7941512717426
 20
48.29416221177577
 30
0.0
 11
161.7941512717427
 21
50.09416221177581
 31
0.0
  0
LINE
  5
B7F4
330
1E
100
AcDbEntity
  8
0
100
AcDbLine
 10
160.0941512717427
 20
25.4941622117758
 30
0.0
 11
160.0941512717427
 21
52.29416221177579
 31
0.0
  0
LINE
  5
B7F5
330
1E
100
AcDbEntity
  8
0
100
AcDbLine
 10
162.2941512717426
 20
47.3941622117758
 30
0.0
 11
162.2941512717426
 21
48.09416221177583
 31
0.0
  0
LINE
  5
B7F6
330
1E
100
AcDbEntity
  8
0
100
AcDbLine
 10
162.1941512717426
 20
48.19416221177583
 30
0.0
 11
161.8941512717426
 21
48.19416221177577
 31
0.0
  0
ARC
  5
B7F7
330
1E
100
AcDbEntity
  8
0
100
AcDbCircle
 10
162.1941512717427
 20
48.09416221177583
 30
0.0
 40
0.1
100
AcDbArc
 50
0.000000000000007
 51
90.00000000001017
  0
ARC
  5
B7F8
330
1E
100
AcDbEntity
  8
0
100
AcDbCircle
 10
161.8941512717426
 20
48.29416221177577
 30
0.0
 40
0.1
100
AcDbArc
 50
179.999999999999
 51
270.0000000000081
  0
LINE
  5
B7F9
330
1E
100
AcDbEntity
  8
0
100
AcDbLine
 10
163.2941512717426
 20
48.2441622117758
 30
0.0
 11
163.2941512717426
 21
47.3941622117758
 31
0.0
  0
LINE
  5
B7FA
330
1E
100
AcDbEntity
  8
0
100
AcDbLine
 10
164.3941512717427
 20
48.4441622117758
 30
0.0
 11
163.4941512717426
 21
48.4441622117758
 31
0.0
  0
ARC
  5
B7FB
330
1E
100
AcDbEntity
  8
0
100
AcDbCircle
 10
163.4941512717426
 20
48.2441622117758
 30
0.0
 40
0.2
100
AcDbArc
 50
90.0
 51
180.0
  0
LINE
  5
B7FC
330
1E
100
AcDbEntity
  8
0
100
AcDbLine
 10
163.0941512717427
 20
47.1941622117758
 30
0.0
 11
162.4941512717426
 21
47.1941622117758
 31
0.0
  0
ARC
  5
B7FD
330
1E
100
AcDbEntity
  8
0
100
AcDbCircle
 10
162.4941512717426
 20
47.3941622117758
 30
0.0
 40
0.2
100
AcDbArc
 50
180.0
 51
270.0
  0
ARC
  5
B7FE
330
1E
100
AcDbEntity
  8
0
100
AcDbCircle
 10
163.0941512717427
 20
47.3941622117758
 30
0.0
 40
0.2
100
AcDbArc
 50
270.0
 51
0.000000000000007
  0
LINE
  5
B7FF
330
1E
100
AcDbEntity
  8
0
100
AcDbLine
 10
161.8941512717427
 20
45.8941622117758
 30
0.0
 11
164.3941512717427
 21
45.89416221177579
 31
0.0
  0
LINE
  5
B800
330
1E
100
AcDbEntity
  8
0
100
AcDbLine
 10
164.5941512717427
 20
46.09416221177579
 30
0.0
 11
164.5941512717427
 21
48.2441622117758
 31
0.0
  0
ARC
  5
B801
330
1E
100
AcDbEntity
  8
0
100
AcDbCircle
 10
164.3941512717427
 20
46.09416221177579
 30
0.0
 40
0.2
100
AcDbArc
 50
270.0
 51
359.9999999999993
  0
ARC
  5
B802
330
1E
100
AcDbEntity
  8
0
100
AcDbCircle
 10
164.3941512717427
 20
48.2441622117758
 30
0.0
 40
0.2
100
AcDbArc
 50
359.9999999999993
 51
90.0
  0
LINE
  5
B803
330
1E
100
AcDbEntity
  8
0
100
AcDbLine
 10
161.8941512717427
 20
41.7941622117758
 30
0.0
 11
161.8941512717427
 21
45.8941622117758
 31
0.0
  0
LINE
  5
B804
330
1E
100
AcDbEntity
  8
0
100
AcDbLine
 10
162.2941512717426
 20
50.29416221177581
 30
0.0
 11
162.2941512717426
 21
50.9941622117758
 31
0.0
  0
LINE
  5
B805
330
1E
100
AcDbEntity
  8
0
100
AcDbLine
 10
161.8941512717427
 20
50.19416221177581
 30
0.0
 11
162.1941512717427
 21
50.19416221177581
 31
0.0
  0
ARC
  5
B806
330
1E
100
AcDbEntity
  8
0
100
AcDbCircle
 10
162.1941512717427
 20
50.29416221177581
 30
0.0
 40
0.1
100
AcDbArc
 50
270.0
 51
0.000000000000007
  0
ARC
  5
B807
330
1E
100
AcDbEntity
  8
0
100
AcDbCircle
 10
161.8941512717427
 20
50.09416221177581
 30
0.0
 40
0.1
100
AcDbArc
 50
90.00000000000133
 51
180.0
  0
LINE
  5
B808
330
1E
100
AcDbEntity
  8
0
100
AcDbLine
 10
162.4941512717426
 20
51.1941622117758
 30
0.0
 11
163.0941512717427
 21
51.1941622117758
 31
0.0
  0
ARC
  5
B809
330
1E
100
AcDbEntity
  8
0
100
AcDbCircle
 10
162.4941512717426
 20
50.9941622117758
 30
0.0
 40
0.2
100
AcDbArc
 50
90.0
 51
180.0
  0
LINE
  5
B80A
330
1E
100
AcDbEntity
  8
0
100
AcDbLine
 10
163.2941512717426
 20
50.9941622117758
 30
0.0
 11
163.2941512717426
 21
50.1441622117758
 31
0.0
  0
ARC
  5
B80B
330
1E
100
AcDbEntity
  8
0
100
AcDbCircle
 10
163.0941512717427
 20
50.9941622117758
 30
0.0
 40
0.2
100
AcDbArc
 50
0.000000000000007
 51
90.0
  0
LINE
  5
B80C
330
1E
100
AcDbEntity
  8
0
100
AcDbLine
 10
164.3941512717426
 20
49.9441622117758
 30
0.0
 11
163.4941512717426
 21
49.9441622117758
 31
0.0
  0
ARC
  5
B80D
330
1E
100
AcDbEntity
  8
0
100
AcDbCircle
 10
163.4941512717426
 20
50.1441622117758
 30
0.0
 40
0.2
100
AcDbArc
 50
180.0
 51
270.0
  0
LINE
  5
B80E
330
1E
100
AcDbEntity
  8
0
100
AcDbLine
 10
164.5941512717426
 20
50.1441622117758
 30
0.0
 11
164.5941512717427
 21
52.29416221177579
 31
0.0
  0
ARC
  5
B80F
330
1E
100
AcDbEntity
  8
0
100
AcDbCircle
 10
164.3941512717426
 20
50.1441622117758
 30
0.0
 40
0.2
100
AcDbArc
 50
270.0
 51
0.000000000000007
  0
LINE
  5
B810
330
1E
100
AcDbEntity
  8
0
100
AcDbLine
 10
160.2941512717426
 20
52.4941622117758
 30
0.0
 11
164.3941512717427
 21
52.4941622117758
 31
0.0
  0
ARC
  5
B811
330
1E
100
AcDbEntity
  8
0
100
AcDbCircle
 10
160.2941512717426
 20
52.29416221177579
 30
0.0
 40
0.2
100
AcDbArc
 50
90.0
 51
180.0
  0
ARC
  5
B812
330
1E
100
AcDbEntity
  8
0
100
AcDbCircle
 10
164.3941512717427
 20
52.29416221177579
 30
0.0
 40
0.2
100
AcDbArc
 50
0.000000000000007
 51
90.0
  0
LINE
  5
B83A
330
1E
100
AcDbEntity
  8
0
100
AcDbLine
 10
164.7941512717427
 20
36.4941622117758
 30
0.0
 11
170.6441464766737
 21
36.4941622117758
 31
0.0
  0
LINE
  5
B83B
330
1E
100
AcDbEntity
  8
0
100
AcDbLine
 10
161.7941512717426
 20
37.59416221177577
 30
0.0
 11
161.7941512717427
 21
39.3941622117758
 31
0.0
  0
ARC
  5
B83C
330
1E
100
AcDbEntity
  8
0
100
AcDbCircle
 10
163.0941512717427
 20
36.6941622117758
 30
0.0
 40
0.2
100
AcDbArc
 50
270.0
 51
0.000000000000007
  0
ARC
  5
B83D
330
1E
100
AcDbEntity
  8
0
100
AcDbCircle
 10
162.4941512717426
 20
36.6941622117758
 30
0.0
 40
0.2
100
AcDbArc
 50
180.0
 51
270.0
  0
LINE
  5
B83E
330
1E
100
AcDbEntity
  8
0
100
AcDbLine
 10
163.0941512717427
 20
36.4941622117758
 30
0.0
 11
162.4941512717426
 21
36.4941622117758
 31
0.0
  0
ARC
  5
B83F
330
1E
100
AcDbEntity
  8
0
100
AcDbCircle
 10
163.4941512717426
 20
37.5441622117758
 30
0.0
 40
0.2
100
AcDbArc
 50
90.0
 51
180.0
  0
LINE
  5
B840
330
1E
100
AcDbEntity
  8
0
100
AcDbLine
 10
164.3941512717427
 20
37.7441622117758
 30
0.0
 11
163.4941512717426
 21
37.7441622117758
 31
0.0
  0
LINE
  5
B841
330
1E
100
AcDbEntity
  8
0
100
AcDbLine
 10
163.2941512717426
 20
37.5441622117758
 30
0.0
 11
163.2941512717426
 21
36.6941622117758
 31
0.0
  0
ARC
  5
B842
330
1E
100
AcDbEntity
  8
0
100
AcDbCircle
 10
161.8941512717426
 20
37.59416221177577
 30
0.0
 40
0.1
100
AcDbArc
 50
179.999999999999
 51
270.0000000000081
  0
ARC
  5
B843
330
1E
100
AcDbEntity
  8
0
100
AcDbCircle
 10
162.1941512717427
 20
37.39416221177583
 30
0.0
 40
0.1
100
AcDbArc
 50
0.000000000000007
 51
90.00000000001017
  0
LINE
  5
B844
330
1E
100
AcDbEntity
  8
0
100
AcDbLine
 10
162.1941512717426
 20
37.49416221177582
 30
0.0
 11
161.8941512717426
 21
37.49416221177577
 31
0.0
  0
LINE
  5
B845
330
1E
100
AcDbEntity
  8
0
100
AcDbLine
 10
162.2941512717426
 20
36.6941622117758
 30
0.0
 11
162.2941512717426
 21
37.39416221177583
 31
0.0
  0
ARC
  5
B846
330
1E
100
AcDbEntity
  8
0
100
AcDbCircle
 10
163.4941512717426
 20
39.4441622117758
 30
0.0
 40
0.2
100
AcDbArc
 50
180.0
 51
270.0
  0
LINE
  5
B847
330
1E
100
AcDbEntity
  8
0
100
AcDbLine
 10
164.3941512717426
 20
39.2441622117758
 30
0.0
 11
163.4941512717426
 21
39.2441622117758
 31
0.0
  0
ARC
  5
B848
330
1E
100
AcDbEntity
  8
0
100
AcDbCircle
 10
163.0941512717427
 20
40.29416221177579
 30
0.0
 40
0.2
100
AcDbArc
 50
0.000000000000007
 51
90.0
  0
LINE
  5
B849
330
1E
100
AcDbEntity
  8
0
100
AcDbLine
 10
163.2941512717426
 20
40.29416221177579
 30
0.0
 11
163.2941512717426
 21
39.4441622117758
 31
0.0
  0
ARC
  5
B84A
330
1E
100
AcDbEntity
  8
0
100
AcDbCircle
 10
162.4941512717426
 20
40.29416221177579
 30
0.0
 40
0.2
100
AcDbArc
 50
90.0
 51
180.0
  0
LINE
  5
B84B
330
1E
100
AcDbEntity
  8
0
100
AcDbLine
 10
162.4941512717426
 20
40.4941622117758
 30
0.0
 11
163.0941512717427
 21
40.4941622117758
 31
0.0
  0
ARC
  5
B84C
330
1E
100
AcDbEntity
  8
0
100
AcDbCircle
 10
161.8941512717427
 20
39.3941622117758
 30
0.0
 40
0.1
100
AcDbArc
 50
90.00000000000133
 51
180.0
  0
ARC
  5
B84D
330
1E
100
AcDbEntity
  8
0
100
AcDbCircle
 10
162.1941512717427
 20
39.59416221177581
 30
0.0
 40
0.1
100
AcDbArc
 50
270.0
 51
0.000000000000007
  0
LINE
  5
B84E
330
1E
100
AcDbEntity
  8
0
100
AcDbLine
 10
161.8941512717427
 20
39.4941622117758
 30
0.0
 11
162.1941512717427
 21
39.4941622117758
 31
0.0
  0
LINE
  5
B84F
330
1E
100
AcDbEntity
  8
0
100
AcDbLine
 10
162.2941512717426
 20
39.59416221177581
 30
0.0
 11
162.2941512717426
 21
40.29416221177579
 31
0.0
  0
ARC
  5
B850
330
1E
100
AcDbEntity
  8
0
100
AcDbCircle
 10
164.3941512717426
 20
39.4441622117758
 30
0.0
 40
0.2
100
AcDbArc
 50
270.0
 51
0.000000000000007
  0
ARC
  5
B851
330
1E
100
AcDbEntity
  8
0
100
AcDbCircle
 10
164.3941512717427
 20
37.5441622117758
 30
0.0
 40
0.2
100
AcDbArc
 50
359.9999999999993
 51
90.0
  0
ARC
  5
B852
330
1E
100
AcDbEntity
  8
0
100
AcDbCircle
 10
164.3941512717427
 20
41.59416221177579
 30
0.0
 40
0.2
100
AcDbArc
 50
0.000000000000007
 51
90.0
  0
LINE
  5
B853
330
1E
100
AcDbEntity
  8
0
100
AcDbLine
 10
164.5941512717426
 20
39.4441622117758
 30
0.0
 11
164.5941512717427
 21
41.59416221177579
 31
0.0
  0
LINE
  5
B854
330
1E
100
AcDbEntity
  8
0
100
AcDbLine
 10
161.8941512717427
 20
41.7941622117758
 30
0.0
 11
164.3941512717427
 21
41.7941622117758
 31
0.0
  0
LINE
  5
B855
330
1E
100
AcDbEntity
  8
0
100
AcDbLine
 10
164.5941512717427
 20
36.6941622117758
 30
0.0
 11
164.5941512717427
 21
37.5441622117758
 31
0.0
  0
ARC
  5
B856
330
1E
100
AcDbEntity
  8
0
100
AcDbCircle
 10
164.7941512717427
 20
36.6941622117758
 30
0.0
 40
0.2
100
AcDbArc
 50
179.9999999999992
 51
270.0
  0
LINE
  5
B865
330
1E
100
AcDbEntity
  8
0
100
AcDbLine
 10
176.0941512717427
 20
35.1941622117758
 30
0.0
 11
176.0941512717427
 21
36.4941622117758
 31
0.0
  0
POLYLINE
  5
B867
330
1E
100
AcDbEntity
  8
0
100
AcDb2dPolyline
 66
     1
 10
0.0
 20
0.0
 30
0.0
  0
VERTEX
  5
BB86
330
B867
100
AcDbEntity
  8
0
100
AcDbVertex
100
AcDb2dVertex
 10
170.6441464766737
 20
36.4941622117758
 30
0.0
  0
VERTEX
  5
BB87
330
B867
100
AcDbEntity
  8
0
100
AcDbVertex
100
AcDb2dVertex
 10
171.1441512717427
 20
35.99415741670682
 30
0.0
  0
VERTEX
  5
BB88
330
B867
100
AcDbEntity
  8
0
100
AcDbVertex
100
AcDb2dVertex
 10
171.6441560668116
 20
36.4941622117758
 30
0.0
  0
SEQEND
  5
BB89
330
B867
100
AcDbEntity
  8
0
  0
LINE
  5
B881
330
1E
100
AcDbEntity
  8
0
100
AcDbLine
 10
171.6441560668116
 20
36.4941622117758
 30
0.0
 11
176.0941512717427
 21
36.4941622117758
 31
0.0
  0
LINE
  5
B890
330
1E
100
AcDbEntity
  8
0
100
AcDbLine
 10
182.1941512717426
 20
25.4941622117758
 30
0.0
 11
182.1941512717426
 21
28.2941622117758
 31
0.0
  0
LINE
  5
B891
330
1E
100
AcDbEntity
  8
0
100
AcDbLine
 10
164.3941512717426
 20
27.9941622117758
 30
0.0
 11
180.5941512717426
 21
27.9941622117758
 31
0.0
  0
LINE
  5
B8A1
330
1E
100
AcDbEntity
  8
0
 62
     5
100
AcDbLine
 10
182.2941512717426
 20
25.7941622117758
 30
0.0
 11
184.0941512717427
 21
25.7941622117758
 31
0.0
  0
POLYLINE
  5
B8A3
330
1E
100
AcDbEntity
  8
0
100
AcDb2dPolyline
 66
     1
 10
0.0
 20
0.0
 30
0.0
  0
VERTEX
  5
BB8A
330
B8A3
100
AcDbEntity
  8
0
100
AcDbVertex
100
AcDb2dVertex
 10
170.6441464766737
 20
25.4941622117758
 30
0.0
  0
VERTEX
  5
BB8B
330
B8A3
100
AcDbEntity
  8
0
100
AcDbVertex
100
AcDb2dVertex
 10
171.1441512717427
 20
25.99416700684479
 30
0.0
  0
VERTEX
  5
BB8C
330
B8A3
100
AcDbEntity
  8
0
100
AcDbVertex
100
AcDb2dVertex
 10
171.6441560668116
 20
25.4941622117758
 30
0.0
  0
SEQEND
  5
BB8D
330
B8A3
100
AcDbEntity
  8
0
  0
LINE
  5
B93D
330
1E
100
AcDbEntity
  8
0
100
AcDbLine
 10
178.0499441549791
 20
25.4941622117758
 30
0.0
 11
178.0499441549791
 21
25.9941622117758
 31
0.0
  0
LINE
  5
B93E
330
1E
100
AcDbEntity
  8
0
100
AcDbLine
 10
178.0499441549791
 20
25.9941622117758
 30
0.0
 11
180.5499441549791
 21
25.9941622117758
 31
0.0
  0
LINE
  5
B93F
330
1E
100
AcDbEntity
  8
0
100
AcDbLine
 10
180.5499441549791
 20
25.9941622117758
 30
0.0
 11
180.5499441549791
 21
25.4941622117758
 31
0.0
  0
LINE
  5
B941
330
1E
100
AcDbEntity
  8
0
100
AcDbLine
 10
175.5499441549791
 20
25.4941622117758
 30
0.0
 11
175.5499441549791
 21
25.9941622117758
 31
0.0
  0
LINE
  5
B942
330
1E
100
AcDbEntity
  8
0
100
AcDbLine
 10
175.5499441549791
 20
25.9941622117758
 30
0.0
 11
173.0499441549791
 21
25.9941622117758
 31
0.0
  0
LINE
  5
B943
330
1E
100
AcDbEntity
  8
0
100
AcDbLine
 10
173.0499441549791
 20
25.9941622117758
 30
0.0
 11
173.0499441549791
 21
25.4941622117758
 31
0.0
  0
LINE
  5
B945
330
1E
100
AcDbEntity
  8
0
100
AcDbLine
 10
167.0941512717426
 20
25.4941622117758
 30
0.0
 11
167.0941512717426
 21
25.9941622117758
 31
0.0
  0
LINE
  5
B946
330
1E
100
AcDbEntity
  8
0
100
AcDbLine
 10
167.0941512717426
 20
25.9941622117758
 30
0.0
 11
169.5941512717427
 21
25.9941622117758
 31
0.0
  0
LINE
  5
B947
330
1E
100
AcDbEntity
  8
0
100
AcDbLine
 10
169.5941512717427
 20
25.9941622117758
 30
0.0
 11
169.5941512717427
 21
25.4941622117758
 31
0.0
  0
LINE
  5
B949
330
1E
100
AcDbEntity
  8
0
100
AcDbLine
 10
164.5941512717427
 20
25.4941622117758
 30
0.0
 11
164.5941512717427
 21
25.9941622117758
 31
0.0
  0
LINE
  5
B94A
330
1E
100
AcDbEntity
  8
0
100
AcDbLine
 10
164.5941512717427
 20
25.9941622117758
 30
0.0
 11
162.0941512717427
 21
25.9941622117758
 31
0.0
  0
LINE
  5
B94B
330
1E
100
AcDbEntity
  8
0
100
AcDbLine
 10
162.0941512717427
 20
25.9941622117758
 30
0.0
 11
162.0941512717427
 21
25.4941622117758
 31
0.0
  0
LINE
  5
B94C
330
1E
100
AcDbEntity
  8
0
100
AcDbLine
 10
164.5941512717427
 20
25.4941622117758
 30
0.0
 11
167.0941512717426
 21
25.4941622117758
 31
0.0
  0
LINE
  5
B94D
330
1E
100
AcDbEntity
  8
0
100
AcDbLine
 10
169.5941512717427
 20
25.4941622117758
 30
0.0
 11
170.6441464766737
 21
25.4941622117758
 31
0.0
  0
LINE
  5
B94E
330
1E
100
AcDbEntity
  8
0
100
AcDbLine
 10
171.6441560668116
 20
25.4941622117758
 30
0.0
 11
173.0499441549791
 21
25.4941622117758
 31
0.0
  0
LINE
  5
B94F
330
1E
100
AcDbEntity
  8
0
100
AcDbLine
 10
175.5499441549791
 20
25.4941622117758
 30
0.0
 11
178.0499441549791
 21
25.4941622117758
 31
0.0
  0
LINE
  5
B950
330
1E
100
AcDbEntity
  8
0
100
AcDbLine
 10
180.5499441549791
 20
25.4941622117758
 30
0.0
 11
182.1941512717426
 21
25.4941622117758
 31
0.0
  0
LINE
  5
B951
330
1E
100
AcDbEntity
  8
0
100
AcDbLine
 10
164.2941512717426
 20
28.0941622117758
 30
0.0
 11
164.2941512717426
 21
28.89416221177579
 31
0.0
  0
LINE
  5
B952
330
1E
100
AcDbEntity
  8
0
100
AcDbLine
 10
162.3941512717426
 20
28.99416221177579
 30
0.0
 11
164.1941512717426
 21
28.99416221177579
 31
0.0
  0
LINE
  5
B953
330
1E
100
AcDbEntity
  8
0
100
AcDbLine
 10
161.8941512717426
 20
30.4941622117758
 30
0.0
 11
161.8941512717426
 21
29.49416221177578
 31
0.0
  0
LINE
  5
B954
330
1E
100
AcDbEntity
  8
0
100
AcDbLine
 10
180.6941512717426
 20
29.2941622117758
 30
0.0
 11
180.6941512717427
 21
28.0941622117758
 31
0.0
  0
LINE
  5
B97F
330
1E
100
AcDbEntity
  8
0
100
AcDbLine
 10
180.8941512717426
 20
29.4941622117758
 30
0.0
 11
180.9941512717426
 21
29.4941622117758
 31
0.0
  0
ARC
  5
B986
330
1E
100
AcDbEntity
  8
0
100
AcDbCircle
 10
180.9941512717426
 20
28.2941622117758
 30
0.0
 40
1.199999999999999
100
AcDbArc
 50
0.0000000000005089
 51
90.00000000000133
  0
ARC
  5
B987
330
1E
100
AcDbEntity
  8
0
100
AcDbCircle
 10
180.8941512717426
 20
29.2941622117758
 30
0.0
 40
0.2
100
AcDbArc
 50
90.0
 51
179.9999999999996
  0
ARC
  5
B988
330
1E
100
AcDbEntity
  8
0
100
AcDbCircle
 10
164.3941512717426
 20
28.0941622117758
 30
0.0
 40
0.1
100
AcDbArc
 50
180.0
 51
270.0
  0
ARC
  5
B989
330
1E
100
AcDbEntity
  8
0
100
AcDbCircle
 10
180.5941512717426
 20
28.0941622117758
 30
0.0
 40
0.1
100
AcDbArc
 50
270.0
 51
0.0
  0
ARC
  5
B98A
330
1E
100
AcDbEntity
  8
0
100
AcDbCircle
 10
164.1941512717426
 20
28.89416221177579
 30
0.0
 40
0.1
100
AcDbArc
 50
359.9999999999981
 51
89.99999999999982
  0
LINE
  5
B98B
330
1E
100
AcDbEntity
  8
0
100
AcDbLine
 10
162.3941512717426
 20
30.99416221177579
 30
0.0
 11
164.1941512717426
 21
30.99416221177579
 31
0.0
  0
LINE
  5
B98C
330
1E
100
AcDbEntity
  8
0
100
AcDbLine
 10
161.9941512717427
 20
32.99416221177579
 30
0.0
 11
164.1941512717426
 21
32.99416221177579
 31
0.0
  0
ARC
  5
B98D
330
1E
100
AcDbEntity
  8
0
100
AcDbCircle
 10
162.3941512717426
 20
30.4941622117758
 30
0.0
 40
0.5
100
AcDbArc
 50
89.99999999999973
 51
180.0
  0
ARC
  5
B98E
330
1E
100
AcDbEntity
  8
0
100
AcDbCircle
 10
162.3941512717426
 20
29.4941622117758
 30
0.0
 40
0.5
100
AcDbArc
 50
180.0000000000011
 51
269.9999999999997
  0
LINE
  5
B98F
330
1E
100
AcDbEntity
  8
0
100
AcDbLine
 10
164.2941512717426
 20
31.09416221177578
 30
0.0
 11
164.2941512717426
 21
32.89416221177579
 31
0.0
  0
ARC
  5
B990
330
1E
100
AcDbEntity
  8
0
100
AcDbCircle
 10
164.1941512717426
 20
31.09416221177578
 30
0.0
 40
0.1
100
AcDbArc
 50
269.9999999999998
 51
0.0
  0
ARC
  5
B992
330
1E
100
AcDbEntity
  8
0
100
AcDbCircle
 10
164.1941512717426
 20
32.89416221177579
 30
0.0
 40
0.1
100
AcDbArc
 50
0.0
 51
89.99999999999982
  0
LINE
  5
B9A3
330
1E
100
AcDbEntity
  8
0
100
AcDbLine
 10
161.8941512717427
 20
33.7941622117758
 30
0.0
 11
161.8941512717427
 21
33.09416221177579
 31
0.0
  0
ARC
  5
B9A4
330
1E
100
AcDbEntity
  8
0
100
AcDbCircle
 10
162.7941512717427
 20
33.7941622117758
 30
0.0
 40
0.9
100
AcDbArc
 50
92.15023473903089
 51
180.0
  0
LINE
  5
B9A5
330
1E
100
AcDbEntity
  8
0
100
AcDbLine
 10
176.0941512717427
 20
35.1941622117758
 30
0.0
 11
162.7603833912028
 21
34.69352850547589
 31
0.0
  0
ARC
  5
B9A7
330
1E
100
AcDbEntity
  8
0
100
AcDbCircle
 10
161.9941512717427
 20
33.09416221177579
 30
0.0
 40
0.1
100
AcDbArc
 50
180.0
 51
269.9999999999997
  0
LINE
  5
B9C6
330
1E
100
AcDbEntity
  8
0
 62
     5
100
AcDbLine
 10
166.2148772139063
 20
33.4941622117758
 30
0.0
 11
182.0941512717427
 21
33.4941622117758
 31
0.0
  0
LINE
  5
B9E2
330
1E
100
AcDbEntity
  8
0
100
AcDbLine
 10
162.3941512717426
 20
30.99416221177579
 30
0.0
 11
164.1941512717426
 21
30.99416221177579
 31
0.0
  0
LINE
  5
B9E3
330
1E
100
AcDbEntity
  8
0
 62
     5
100
AcDbLine
 10
162.4441512717427
 20
29.19416221177579
 30
0.0
 11
164.0209461909857
 21
29.19416221177579
 31
0.0
  0
LINE
  5
B9E4
330
1E
100
AcDbEntity
  8
0
 62
     5
100
AcDbLine
 10
162.0441512717426
 20
30.59416221177578
 30
0.0
 11
162.0441512717427
 21
29.59416221177579
 31
0.0
  0
LINE
  5
B9E8
330
1E
100
AcDbEntity
  8
0
 62
     5
100
AcDbLine
 10
165.7818645120141
 20
33.2441622117758
 30
0.0
 11
164.6271639736348
 21
31.2441622117758
 31
0.0
  0
LINE
  5
B9E9
330
1E
100
AcDbEntity
  8
0
 62
     5
100
AcDbLine
 10
162.4441512717426
 20
30.99416221177579
 30
0.0
 11
164.1941512717426
 21
30.99416221177579
 31
0.0
  0
ARC
  5
B9EA
330
1E
100
AcDbEntity
  8
0
 62
     5
100
AcDbCircle
 10
162.4441512717427
 20
29.59416221177579
 30
0.0
 40
0.4
100
AcDbArc
 50
180.0
 51
269.9999999999998
  0
ARC
  5
B9EB
330
1E
100
AcDbEntity
  8
0
 62
     5
100
AcDbCircle
 10
162.4441512717426
 20
30.59416221177579
 30
0.0
 40
0.4
100
AcDbArc
 50
90.0
 51
180.0000000000018
  0
ARC
  5
B9EC
330
1E
100
AcDbEntity
  8
0
 62
     5
100
AcDbCircle
 10
164.1941512717426
 20
31.49416221177579
 30
0.0
 40
0.5
100
AcDbArc
 50
270.0
 51
330.0000000000001
  0
ARC
  5
B9EF
330
1E
100
AcDbEntity
  8
0
 62
     5
100
AcDbCircle
 10
166.2148772139063
 20
32.9941622117758
 30
0.0
 40
0.5
100
AcDbArc
 50
90.0
 51
150.0000000000001
  0
LINE
  5
BA00
330
1E
100
AcDbEntity
  8
0
 62
     5
100
AcDbLine
 10
166.6478899157985
 20
31.7441622117758
 30
0.0
 11
165.7529969985546
 21
30.19416221177577
 31
0.0
  0
LINE
  5
BA01
330
1E
100
AcDbEntity
  8
0
 62
     5
100
AcDbLine
 10
167.0809026176907
 20
31.9941622117758
 30
0.0
 11
178.1941512717426
 21
31.99416221177578
 31
0.0
  0
ARC
  5
BA02
330
1E
100
AcDbEntity
  8
0
 62
     5
100
AcDbCircle
 10
167.0809026176907
 20
31.4941622117758
 30
0.0
 40
0.5
100
AcDbArc
 50
90.0
 51
150.0000000000006
  0
ARC
  5
BA05
330
1E
100
AcDbEntity
  8
0
 62
     5
100
AcDbCircle
 10
164.0209461909857
 20
31.19416221177579
 30
0.0
 40
2.0
100
AcDbArc
 50
269.9999999999998
 51
329.9999999999994
  0
ARC
  5
BA06
330
1E
100
AcDbEntity
  8
0
 62
     5
100
AcDbCircle
 10
182.0941512717427
 20
33.6941622117758
 30
0.0
 40
0.2
100
AcDbArc
 50
270.0
 51
0.0
  0
LINE
  5
BA07
330
1E
100
AcDbEntity
  8
0
100
AcDbLine
 10
180.5499441549791
 20
25.4941622117758
 30
0.0
 11
182.1941512717426
 21
25.4941622117758
 31
0.0
  0
LINE
  5
BA09
330
1E
100
AcDbEntity
  8
0
 62
     5
100
AcDbLine
 10
180.5941512717424
 20
28.39416221177584
 30
0.0
 11
179.2941512717427
 21
28.39416221177579
 31
0.0
  0
LINE
  5
BA18
330
1E
100
AcDbEntity
  8
0
 62
     5
100
AcDbLine
 10
179.1941512717426
 20
30.99416221177579
 30
0.0
 11
179.1941512717427
 21
28.49416221177579
 31
0.0
  0
ARC
  5
BA19
330
1E
100
AcDbEntity
  8
0
 62
     5
100
AcDbCircle
 10
178.1941512717426
 20
30.99416221177578
 30
0.0
 40
1.0
100
AcDbArc
 50
0.0000000000004071
 51
89.99999999999991
  0
ARC
  5
BA1A
330
1E
100
AcDbEntity
  8
0
 62
     5
100
AcDbCircle
 10
179.2941512717426
 20
28.49416221177579
 30
0.0
 40
0.1
100
AcDbArc
 50
180.0000000000011
 51
270.0000000000002
  0
ARC
  5
BA29
330
1E
100
AcDbEntity
  8
0
 62
     5
100
AcDbCircle
 10
180.7941512717427
 20
28.0708845185596
 30
0.0
 40
1.5
100
AcDbArc
 50
0.0000000000005089
 51
85.58827421423535
  0
LINE
  5
BA38
330
1E
100
AcDbEntity
  8
0
 62
     5
100
AcDbLine
 10
182.2941512717426
 20
25.7941622117758
 30
0.0
 11
182.2941512717426
 21
28.0708845185596
 31
0.0
  0
LINE
  5
BA39
330
1E
100
AcDbEntity
  8
0
 62
     5
100
AcDbLine
 10
180.6941512717426
 20
28.4941622117758
 30
0.0
 11
180.6941512717426
 21
29.36703265824208
 31
0.0
  0
ARC
  5
BA45
330
1E
100
AcDbEntity
  8
0
 62
     5
100
AcDbCircle
 10
180.8941512717426
 20
29.36703265824208
 30
0.0
 40
0.2
100
AcDbArc
 50
85.58827421423352
 51
180.0
  0
ARC
  5
BA52
330
1E
100
AcDbEntity
  8
0
 62
     5
100
AcDbCircle
 10
180.5941512717424
 20
28.49416221177584
 30
0.0
 40
0.1
100
AcDbArc
 50
269.9999999999751
 51
359.9999999999754
  0
POLYLINE
  5
BA53
330
1E
100
AcDbEntity
  8
0
100
AcDb2dPolyline
 66
     1
 10
0.0
 20
0.0
 30
0.0
  0
VERTEX
  5
BB8E
330
BA53
100
AcDbEntity
  8
0
100
AcDbVertex
100
AcDb2dVertex
 10
175.9356059904674
 20
28.26416221177579
 30
0.0
  0
VERTEX
  5
BB8F
330
BA53
100
AcDbEntity
  8
0
100
AcDbVertex
100
AcDb2dVertex
 10
166.1526965530178
 20
28.26416221177579
 30
0.0
  0
SEQEND
  5
BB90
330
BA53
100
AcDbEntity
  8
0
  0
ARC
  5
BA6A
330
1E
100
AcDbEntity
  8
0
100
AcDbCircle
 10
166.1526965530178
 20
26.76416221177579
 30
0.0
 40
1.5
100
AcDbArc
 50
90.0
 51
124.9152062474438
  0
ARC
  5
BA6B
330
1E
100
AcDbEntity
  8
0
100
AcDbCircle
 10
175.9356059904674
 20
26.76416221177579
 30
0.0
 40
1.5
100
AcDbArc
 50
55.08479375255615
 51
90.0
  0
LINE
  5
BA6E
330
1E
100
AcDbEntity
  8
0
 62
     3
100
AcDbLine
 10
162.0310281965624
 20
52.68717333479346
 30
0.0
 11
167.5856893622133
 21
54.88748006021635
 31
0.0
  0
LINE
  5
BA6F
330
1E
100
AcDbEntity
  8
0
 62
     3
100
AcDbLine
 10
162.0678560003035
 20
52.49420176456037
 30
0.0
 11
164.6919346695508
 21
52.49420176456037
 31
0.0
  0
LINE
  5
BA77
330
1E
100
AcDbEntity
  8
0
 62
     3
100
AcDbLine
 10
162.2957517799635
 20
50.89146186374916
 30
0.0
 11
162.2957517799635
 21
47.49686255980242
 31
0.0
  0
LINE
  5
BA78
330
1E
100
AcDbEntity
  8
0
 62
     3
100
AcDbLine
 10
164.7919346695508
 20
52.39420176456037
 30
0.0
 11
164.7919346695509
 21
50.04242282532389
 31
0.0
  0
LINE
  5
BA79
330
1E
100
AcDbEntity
  8
0
 62
     3
100
AcDbLine
 10
163.1941512717427
 20
50.99146186374917
 30
0.0
 11
162.3957517799635
 21
50.99146186374917
 31
0.0
  0
LINE
  5
BA7A
330
1E
100
AcDbEntity
  8
0
 62
     3
100
AcDbLine
 10
163.1941512717427
 20
47.39686255980243
 30
0.0
 11
162.3957517799635
 21
47.39686255980243
 31
0.0
  0
LINE
  5
BA7B
330
1E
100
AcDbEntity
  8
0
 62
     3
100
AcDbLine
 10
163.2941512717426
 20
50.89146186374917
 30
0.0
 11
163.2941512717426
 21
50.04242282532389
 31
0.0
  0
LINE
  5
BA7C
330
1E
100
AcDbEntity
  8
0
 62
     3
100
AcDbLine
 10
164.6919346695508
 20
49.9424228253239
 30
0.0
 11
163.3941512717426
 21
49.9424228253239
 31
0.0
  0
LINE
  5
BA7D
330
1E
100
AcDbEntity
  8
0
 62
     3
100
AcDbLine
 10
164.6919346695508
 20
48.44518292451269
 30
0.0
 11
163.3941512717426
 21
48.44518292451269
 31
0.0
  0
LINE
  5
BA80
330
1E
100
AcDbEntity
  8
0
 62
     3
100
AcDbLine
 10
164.8919346695508
 20
36.49419192925114
 30
0.0
 11
173.678084821837
 21
36.49419192925114
 31
0.0
  0
LINE
  5
BA81
330
1E
100
AcDbEntity
  8
0
 62
     3
100
AcDbLine
 10
173.778084821837
 20
37.39419192925113
 30
0.0
 11
173.7780848218369
 21
36.59419192925113
 31
0.0
  0
LINE
  5
BA82
330
1E
100
AcDbEntity
  8
0
 62
     3
100
AcDbLine
 10
167.9701164561594
 20
52.81948147157276
 30
0.0
 11
167.9701164561594
 21
52.0451562829703
 31
0.0
  0
LINE
  5
BA83
330
1E
100
AcDbEntity
  8
0
 62
     3
100
AcDbLine
 10
165.943754368032
 20
51.76923515548249
 30
0.0
 11
167.8182967576782
 21
52.90500760120178
 31
0.0
  0
LINE
  5
BA84
330
1E
100
AcDbEntity
  8
0
 62
     3
100
AcDbLine
 10
165.8401149710697
 20
50.69826890044327
 30
0.0
 11
167.9219361546406
 21
51.95963015334128
 31
0.0
  0
LINE
  5
BA85
330
1E
100
AcDbEntity
  8
0
 62
     3
100
AcDbLine
 10
165.943754368032
 20
49.77240146233532
 30
0.0
 11
167.8182967576782
 21
50.9081739080546
 31
0.0
  0
LINE
  5
BA86
330
1E
100
AcDbEntity
  8
0
 62
     3
100
AcDbLine
 10
165.8401149710696
 20
48.7017649883107
 30
0.0
 11
167.9219361546406
 21
49.96312624120871
 31
0.0
  0
LINE
  5
BA87
330
1E
100
AcDbEntity
  8
0
 62
     3
100
AcDbLine
 10
165.943754368032
 20
47.77570564775984
 30
0.0
 11
167.8182967576782
 21
48.91147809347916
 31
0.0
  0
LINE
  5
BA88
330
1E
100
AcDbEntity
  8
0
 62
     3
100
AcDbLine
 10
165.8401149710697
 20
46.70475899538306
 30
0.0
 11
167.9219361546406
 21
47.96612024828106
 31
0.0
  0
LINE
  5
BA89
330
1E
100
AcDbEntity
  8
0
 62
     3
100
AcDbLine
 10
165.8401149710696
 20
53.28791758190724
 30
0.0
 11
167.7511443038733
 21
54.44579721757093
 31
0.0
  0
LINE
  5
BA8A
330
1E
100
AcDbEntity
  8
0
 62
     3
100
AcDbLine
 10
167.7185127423914
 20
54.82252365203041
 30
0.0
 11
167.7953201818291
 21
54.55933850924709
 31
0.0
  0
ARC
  5
BA8B
330
1E
100
AcDbEntity
  8
0
 62
     3
100
AcDbCircle
 10
173.678084821837
 20
36.59419192925113
 30
0.0
 40
0.1
100
AcDbArc
 50
270.0
 51
0.0
  0
ARC
  5
BA8D
330
1E
100
AcDbEntity
  8
0
 62
     3
100
AcDbCircle
 10
164.8919346695508
 20
36.59419192925113
 30
0.0
 40
0.1
100
AcDbArc
 50
180.0
 51
270.0
  0
ARC
  5
BA8F
330
1E
100
AcDbEntity
  8
0
 62
     3
100
AcDbCircle
 10
162.3957517799635
 20
50.89146186374916
 30
0.0
 40
0.1
100
AcDbArc
 50
90.0
 51
180.0
  0
ARC
  5
BA90
330
1E
100
AcDbEntity
  8
0
 62
     3
100
AcDbCircle
 10
163.1941512717427
 20
50.89146186374917
 30
0.0
 40
0.1
100
AcDbArc
 50
0.0
 51
90.0000000000003
  0
ARC
  5
BA91
330
1E
100
AcDbEntity
  8
0
 62
     3
100
AcDbCircle
 10
162.3957517799635
 20
47.49686255980242
 30
0.0
 40
0.1
100
AcDbArc
 50
180.0
 51
270.0
  0
ARC
  5
BA92
330
1E
100
AcDbEntity
  8
0
 62
     3
100
AcDbCircle
 10
163.1941512717427
 20
47.49686255980242
 30
0.0
 40
0.1
100
AcDbArc
 50
270.0
 51
0.0
  0
LINE
  5
BA94
330
1E
100
AcDbEntity
  8
0
 62
     3
100
AcDbLine
 10
163.2941512717426
 20
48.34518292451268
 30
0.0
 11
163.2941512717426
 21
47.49686255980242
 31
0.0
  0
LINE
  5
BA95
330
1E
100
AcDbEntity
  8
0
 62
     3
100
AcDbLine
 10
164.7919346695508
 20
48.34518292451268
 30
0.0
 11
164.7919346695509
 21
36.59419192925113
 31
0.0
  0
ARC
  5
BA96
330
1E
100
AcDbEntity
  8
0
 62
     3
100
AcDbCircle
 10
163.3941512717426
 20
50.04242282532389
 30
0.0
 40
0.1
100
AcDbArc
 50
180.0
 51
270.0000000000001
  0
ARC
  5
BA97
330
1E
100
AcDbEntity
  8
0
 62
     3
100
AcDbCircle
 10
163.3941512717426
 20
48.34518292451268
 30
0.0
 40
0.1
100
AcDbArc
 50
89.99999999999987
 51
180.0000000000008
  0
ARC
  5
BA98
330
1E
100
AcDbEntity
  8
0
 62
     3
100
AcDbCircle
 10
164.6919346695508
 20
48.34518292451268
 30
0.0
 40
0.1
100
AcDbArc
 50
0.0000000000000509
 51
90.0
  0
ARC
  5
BA99
330
1E
100
AcDbEntity
  8
0
 62
     3
100
AcDbCircle
 10
164.6919346695508
 20
50.04242282532389
 30
0.0
 40
0.1
100
AcDbArc
 50
270.0
 51
0.0
  0
ARC
  5
BAA0
330
1E
100
AcDbEntity
  8
0
 62
     3
100
AcDbCircle
 10
162.0678560003035
 20
52.59420176456038
 30
0.0
 40
0.1
100
AcDbArc
 50
111.609458525379
 51
270.0
  0
ARC
  5
BAA1
330
1E
100
AcDbEntity
  8
0
 62
     3
100
AcDbCircle
 10
164.6919346695508
 20
52.39420176456037
 30
0.0
 40
0.1
100
AcDbArc
 50
0.0
 51
90.0
  0
ARC
  5
BAA2
330
1E
100
AcDbEntity
  8
0
 62
     3
100
AcDbCircle
 10
167.6225171659543
 20
54.79450848998327
 30
0.0
 40
0.1
100
AcDbArc
 50
16.26925409710341
 51
111.609458525379
  0
ARC
  5
BAA3
330
1E
100
AcDbEntity
  8
0
 62
     3
100
AcDbCircle
 10
167.6993246053921
 20
54.53132334719995
 30
0.0
 40
0.1
100
AcDbArc
 50
301.211386331962
 51
16.26925409710203
  0
ARC
  5
BAA5
330
1E
100
AcDbEntity
  8
0
 62
     3
100
AcDbCircle
 10
167.8701164561594
 20
52.81948147157276
 30
0.0
 40
0.1
100
AcDbArc
 50
0.0
 51
121.211386331962
  0
ARC
  5
BAA6
330
1E
100
AcDbEntity
  8
0
 62
     3
100
AcDbCircle
 10
167.8701164561594
 20
48.05164637791008
 30
0.0
 40
0.1
100
AcDbArc
 50
301.211386331962
 51
0.0
  0
LINE
  5
BAA8
330
1E
100
AcDbEntity
  8
0
 62
     3
100
AcDbLine
 10
167.9701164561594
 20
50.82264777842557
 30
0.0
 11
167.9701164561594
 21
50.04865237083773
 31
0.0
  0
LINE
  5
BAA9
330
1E
100
AcDbEntity
  8
0
 62
     3
100
AcDbLine
 10
167.9701164561594
 20
48.82595196385015
 30
0.0
 11
167.9701164561594
 21
48.05164637791008
 31
0.0
  0
ARC
  5
BAAD
330
1E
100
AcDbEntity
  8
0
 62
     3
100
AcDbCircle
 10
167.8701164561594
 20
52.0451562829703
 30
0.0
 40
0.1
100
AcDbArc
 50
301.2113863319622
 51
359.999999999999
  0
ARC
  5
BAB0
330
1E
100
AcDbEntity
  8
0
 62
     3
100
AcDbCircle
 10
167.8701164561594
 20
50.82264777842558
 30
0.0
 40
0.1
100
AcDbArc
 50
359.9999999999983
 51
121.2113863319619
  0
ARC
  5
BAB1
330
1E
100
AcDbEntity
  8
0
 62
     3
100
AcDbCircle
 10
167.8701164561594
 20
50.04865237083773
 30
0.0
 40
0.1
100
AcDbArc
 50
301.2113863319619
 51
359.999999999999
  0
ARC
  5
BAB4
330
1E
100
AcDbEntity
  8
0
 62
     3
100
AcDbCircle
 10
167.8701164561594
 20
48.82595196385015
 30
0.0
 40
0.1
100
AcDbArc
 50
359.9999999999991
 51
121.2113863319622
  0
LINE
  5
BB12
330
1E
100
AcDbEntity
  8
0
 62
     3
100
AcDbLine
 10
165.8919346695508
 20
37.49419192925113
 30
0.0
 11
173.678084821837
 21
37.49419192925113
 31
0.0
  0
LINE
  5
BB13
330
1E
100
AcDbEntity
  8
0
 62
     3
100
AcDbLine
 10
165.7919346695508
 20
53.20239145227822
 30
0.0
 11
165.7919346695508
 21
51.85476128511151
 31
0.0
  0
ARC
  5
BB14
330
1E
100
AcDbEntity
  8
0
 62
     3
100
AcDbCircle
 10
165.8919346695508
 20
37.59419192925113
 30
0.0
 40
0.1
100
AcDbArc
 50
180.0000000000001
 51
270.0
  0
ARC
  5
BB15
330
1E
100
AcDbEntity
  8
0
 62
     3
100
AcDbCircle
 10
173.678084821837
 20
37.39419192925113
 30
0.0
 40
0.1
100
AcDbArc
 50
0.0
 51
90.0
  0
ARC
  5
BB16
330
1E
100
AcDbEntity
  8
0
 62
     3
100
AcDbCircle
 10
165.8919346695508
 20
53.20239145227822
 30
0.0
 40
0.1
100
AcDbArc
 50
121.2113863319619
 51
180.0000000000001
  0
LINE
  5
BB17
330
1E
100
AcDbEntity
  8
0
 62
     3
100
AcDbLine
 10
165.7919346695509
 20
50.61274277081425
 30
0.0
 11
165.7919346695508
 21
49.85792759196433
 31
0.0
  0
LINE
  5
BB18
330
1E
100
AcDbEntity
  8
0
 62
     3
100
AcDbLine
 10
165.7919346695508
 20
48.61623885868168
 30
0.0
 11
165.7919346695509
 21
47.86123177738885
 31
0.0
  0
LINE
  5
BB19
330
1E
100
AcDbEntity
  8
0
 62
     3
100
AcDbLine
 10
165.7919346695509
 20
46.61923286575405
 30
0.0
 11
165.7919346695509
 21
37.59419192925113
 31
0.0
  0
ARC
  5
BB1A
330
1E
100
AcDbEntity
  8
0
 62
     3
100
AcDbCircle
 10
165.8919346695508
 20
51.85476128511151
 30
0.0
 40
0.1
100
AcDbArc
 50
180.0
 51
301.2113863319614
  0
ARC
  5
BB1B
330
1E
100
AcDbEntity
  8
0
 62
     3
100
AcDbCircle
 10
165.8919346695508
 20
50.61274277081425
 30
0.0
 40
0.1
100
AcDbArc
 50
121.2113863319619
 51
180.0
  0
ARC
  5
BB1C
330
1E
100
AcDbEntity
  8
0
 62
     3
100
AcDbCircle
 10
165.8919346695508
 20
49.85792759196433
 30
0.0
 40
0.1
100
AcDbArc
 50
179.9999999999982
 51
301.2113863319613
  0
ARC
  5
BB1D
330
1E
100
AcDbEntity
  8
0
 62
     3
100
AcDbCircle
 10
165.8919346695508
 20
48.61623885868168
 30
0.0
 40
0.1
100
AcDbArc
 50
121.2113863319614
 51
180.0
  0
ARC
  5
BB1E
330
1E
100
AcDbEntity
  8
0
 62
     3
100
AcDbCircle
 10
165.8919346695508
 20
47.86123177738885
 30
0.0
 40
0.1
100
AcDbArc
 50
180.0000000000017
 51
301.2113863319624
  0
ARC
  5
BB1F
330
1E
100
AcDbEntity
  8
0
 62
     3
100
AcDbCircle
 10
165.8919346695508
 20
46.61923286575405
 30
0.0
 40
0.1
100
AcDbArc
 50
121.2113863319618
 51
180.0
  0
DIMENSION
  5
BB2B
330
1E
100
AcDbEntity
  8
0
 62
     1
100
AcDbDimension
  2
*D0
 10
184.0941512717427
 20
60.52311273833504
 30
0.0
 11
172.0941512717427
 21
60.52311273833504
 31
0.0
 70
    32
  3
STANDARD
100
AcDbAlignedDimension
 13
160.0941512717427
 23
52.29416221177579
 33
0.0
 14
184.0941512717427
 24
52.29416221177579
 34
0.0
100
AcDbRotatedDimension
  0
DIMENSION
  5
BB43
330
1E
100
AcDbEntity
  8
0
 62
     1
100
AcDbDimension
  2
*D1
 10
152.737592320912
 20
25.4941622117758
 30
0.0
 11
152.737592320912
 21
38.99416221177583
 31
0.0
 70
    32
  3
STANDARD
100
AcDbAlignedDimension
 13
160.2941512717426
 23
52.4941622117758
 33
0.0
 14
160.0941512717427
 24
25.4941622117758
 34
0.0
 50
90.0
100
AcDbRotatedDimension
  0
DIMENSION
  5
BB51
330
1E
100
AcDbEntity
  8
0
 62
     1
100
AcDbDimension
  2
*D2
 10
191.4507102225733
 20
25.4941622117758
 30
0.0
 11
191.4507102225733
 21
31.4941770705135
 31
0.0
 70
    32
  3
STANDARD
100
AcDbAlignedDimension
 13
173.678084821837
 23
37.49419192925113
 33
0.0
 14
184.0941512717427
 24
25.4941622117758
 34
0.0
 50
90.0
100
AcDbRotatedDimension
  0
MTEXT
  5
BB78
330
1E
100
AcDbEntity
  8
0
 62
     1
 48
5.0
100
AcDbMText
 10
162.2899847538108
 20
14.9260398828386
 30
0.0
 40
2.0
 41
47.29647533959571
 71
     1
 72
     1
  1
aluminum_profile
1001
ACAD
1000
MTEXTBEGIN
1070
    73
1070
     1
1070
    44
1040
1.0
1070
    74
1070
     0
1000
MTEXTEND
  0
ENDSEC
  0
SECTION
  2
OBJECTS
  0
DICTIONARY
  5
C
330
0
100
AcDbDictionary
  3
ACAD_GROUP
350
D
  3
ACAD_LAYOUT
350
19
  3
ACAD_MLINESTYLE
350
16
  3
ACAD_PLOTSETTINGS
350
18
1001
ACAD
1000
TREAT_AS_HARD
1070
     0
  0
DICTIONARY
  5
BB84
330
1E
100
AcDbDictionary
  3
ACAD_LAYOUTSELFREF
350
BB85
  0
DICTIONARY
  5
BB82
330
1A
100
AcDbDictionary
  3
ACAD_LAYOUTSELFREF
350
BB83
  0
DICTIONARY
  5
D
102
{ACAD_REACTORS
330
C
102
}
330
C
100
AcDbDictionary
  3
*A1
350
BA6D
  3
*A2
350
BB20
1001
ACAD
1000
TREAT_AS_HARD
1070
     0
  0
DICTIONARY
  5
19
102
{ACAD_REACTORS
330
C
102
}
330
C
100
AcDbDictionary
1001
ACAD
1000
TREAT_AS_HARD
1070
     0
  0
DICTIONARY
  5
16
102
{ACAD_REACTORS
330
C
102
}
330
C
100
AcDbDictionary
  3
STANDARD
350
17
1001
ACAD
1000
TREAT_AS_HARD
1070
     0
  0
DICTIONARY
  5
18
102
{ACAD_REACTORS
330
C
102
}
330
C
100
AcDbDictionary
1001
ACAD
1000
TREAT_AS_HARD
1070
     0
  0
XRECORD
  5
BB85
102
{ACAD_REACTORS
330
BB84
102
}
330
BB84
100
AcDbXrecord
340
1E
  0
XRECORD
  5
BB83
102
{ACAD_REACTORS
330
BB82
102
}
330
BB82
100
AcDbXrecord
340
1A
  0
GROUP
  5
BA6D
102
{ACAD_REACTORS
330
D
102
}
330
D
100
AcDbGroup
300

 70
     1
 71
     1
340
BA53
340
BA6A
340
BA6B
  0
GROUP
  5
BB20
102
{ACAD_REACTORS
330
D
102
}
330
D
100
AcDbGroup
300

 70
     1
 71
     1
340
BB19
340
BA95
340
BB12
340
BA80
340
BA8D
340
BB14
340
BA81
340
BA8B
340
BB15
340
BB17
340
BA85
340
BAA8
340
BA7B
340
BA78
340
BA77
340
BA88
340
BA87
340
BA86
340
BA94
340
BA91
340
BA7A
340
BA92
340
BB1F
340
BA98
340
BA7D
340
BA97
340
BB18
340
BB1E
340
BB1D
340
BA7C
340
BA99
340
BA96
340
BB1C
340
BAB4
340
BAA9
340
BAA6
340
BAB1
340
BA84
340
BA83
340
BA89
340
BAA2
340
BB13
340
BA6E
340
BA6F
340
BA8F
340
BAA0
340
BA79
340
BA90
340
BB1B
340
BAA1
340
BB1A
340
BB16
340
BA82
340
BAB0
340
BAAD
340
BAA5
340
BAA3
340
BA8A
  0
MLINESTYLE
  5
17
102
{ACAD_REACTORS
330
16
102
}
330
16
100
AcDbMlineStyle
  2
STANDARD
 70
     0
  3

 62
   256
 51
90.0
 52
90.0
 71
     2
 49
0.5
 62
   256
  6
BYLAYER
 49
-0.5
 62
   256
  6
BYLAYER
  0
ENDSEC
  0
EOF
